#TITLE:PARA GIRL;
#SUBTITLE:;
#ARTIST:DOMINO;
#TITLETRANSLIT:;
#SUBTITLETRANSLIT:;
#ARTISTTRANSLIT:;
#GENRE:;
#CREDIT:SupremeX;
#BANNER:PARA GIRL.png;
#BACKGROUND:PARA GIRL-bg.png;
#LYRICSPATH:;
#CDTITLE:CDTitle.png;
#MUSIC:PARA GIRL.ogg;
#OFFSET:-1.069186;
#SAMPLESTART:23.660000;
#SAMPLELENGTH:12.000000;
#SELECTABLE:YES;
#BPMS:0.000000=148.020004
;
#STOPS:
;
#BGCHANGES:8.000=star7.avi=1.000=0=0=1=====,
24.000=star8.avi=1.000=0=0=1=====,
40.000=PARA GIRL-bg.png=1.000=0=0=1=====,
56.000=DanceOff_P2.avi=1.000=0=0=1=====,
72.000=heart8.avi=1.000=0=0=1=====,
88.000=smoke.avi=1.000=0=0=1=====,
96.000=star8.avi=1.000=0=0=1=====,
104.000=smoke.avi=1.000=0=0=1=====,
112.000=star8.avi=1.000=0=0=1=====,
120.000=milk1.avi=1.000=0=0=1=====,
136.000=heart7.avi=1.000=0=0=1=====,
151.500=heart8.avi=1.000=0=0=1=====,
166.500=milk1.avi=1.000=0=0=1=====,
183.500=heart7.avi=1.000=0=0=1=====,
199.500=star8.avi=1.000=0=0=1=====,
220.000=smoke.avi=1.000=0=0=1=====,
236.000=DanceOff_P2.avi=1.000=0=0=1=====,
248.000=milk1.avi=1.000=0=0=1=====,
258.000=PARA GIRL-bg.png=1.000=0=0=1=====,
99999=-nosongbg-=1.000=0=0=0 // don't automatically add -songbackground-
;
#KEYSOUNDS:;
#ATTACKS:;

//---------------dance-single - ----------------
#NOTES:
     dance-single:
     :
     Hard:
     7:
     0.402123,0.445542,0.164056,0.086345,0.103614,326.000000,307.000000,19.000000,10.000000,0.000000,0.000000,0.402123,0.445542,0.164056,0.086345,0.103614,326.000000,307.000000,19.000000,10.000000,0.000000,0.000000:
0000
0000
0000
0000
,
0000
0000
0000
0000
,
1000
0000
0000
1000
0000
0000
1000
0000
0000
0000
0000
0000
0100
0000
0000
0000
,
0010
0000
0000
0010
0000
0000
0010
0000
0000
0000
0000
0000
0001
0000
0000
0000
,
0100
0000
0000
0100
0000
0000
0100
0000
0000
0000
0000
0000
0001
0000
0001
0000
,
0010
0000
0000
0010
0000
0000
0010
0000
0000
0000
0100
0000
0100
0000
0000
0000
,
1000
0000
0000
1000
0000
0000
1000
0000
0000
0000
0000
0000
0100
0000
0000
0000
,
0010
0000
0000
0010
0000
0000
0010
0000
0000
0000
0001
0000
0001
0000
0000
0000
,
1000
0000
0000
1000
0000
0000
1000
0000
0001
0000
0100
0000
0001
0000
0000
0000
,
1000
0000
0000
0010
0000
0000
0200
0000
0000
0000
0300
0000
0000
0000
0000
0000
,
0002
0000
2003
0000
,
3200
0000
0000
0000
0320
0000
0000
0030
,
2002
0000
0000
0000
,
0000
3003
0110
0110
,
0001
0000
0000
0100
0000
0000
0001
0000
0010
0000
0100
0000
1000
0000
0000
0000
,
0010
0000
0000
1000
0000
0000
0010
0000
0100
0000
0001
0000
1000
0000
0000
0000
,
0001
0000
0000
0100
0000
0000
0001
0000
1000
0000
0100
0000
0010
0000
0000
0000
,
0001
0000
0000
0010
0000
0000
0001
0000
0010
0000
0100
0000
1000
0000
0000
0000
,
0100
0000
0000
1000
0000
0000
0100
0000
0010
0000
0001
0000
0100
0000
0000
0000
,
0010
0000
0000
1000
0000
0000
0010
0000
1000
0000
0100
0000
0010
0000
0000
0000
,
0001
0000
0000
0010
0000
0000
0001
0000
0010
0000
0100
0000
1000
0000
0000
0000
,
0010
0000
0000
1000
0000
0000
0010
0000
0000
0000
1000
0000
0100
0000
0010
0000
,
0001
0000
0101
0000
1000
0100
1000
0000
,
0001
0010
0100
1000
0010
0000
0000
0000
,
1000
0100
1000
0100
0000
1100
0000
0011
,
0000
1001
0000
0100
0010
0100
0010
0000
,
1100
0000
0011
0000
1000
0100
0010
0000
,
0001
0010
0100
1000
1000
0000
0000
0000
,
0010
0100
0001
1000
0000
1010
0000
0101
,
0000
0000
1000
1000
0000
0000
0001
0000
,
1000
0000
0001
0010
0100
0000
0000
1000
,
0000
0001
0100
0010
1000
0010
0100
0000
,
0001
0010
0100
1000
0010
0000
0000
1000
,
0000
1000
0000
0010
0100
0001
0100
0000
,
0001
0010
0100
1000
1000
0000
0000
0010
,
0000
0100
0001
1000
0010
0000
0000
0000
,
1000
0100
0010
0001
0000
1000
0000
1100
,
0000
0001
0000
0011
0000
0100
1000
0100
,
0000
0010
0001
0010
0000
0100
1000
0001
,
0000
0100
0010
0100
0000
0001
0010
0100
,
0000
1000
0001
1000
0000
0001
0000
1001
,
0000
0100
0100
0000
0000
0010
0100
0010
,
0000
1000
0001
1000
0000
0001
0010
0100
,
0000
1000
0100
0010
0000
0000
0000
0000
,
0001
0010
0100
1000
0010
1000
0000
0002
,
0000
0100
0103
0000
0000
0010
1000
0001
,
0000
1000
0010
0100
0000
0001
0010
0100
,
0000
1000
0100
1000
0000
0001
0100
0001
,
0000
1000
0100
0010
0000
0001
0000
1001
,
0000
0100
0100
0000
0000
0001
1000
0001
,
0000
0100
0010
0100
0000
0001
0010
0100
,
0000
1000
0100
0010
0000
0000
0000
0000
,
0001
0010
0001
1000
0100
0010
0001
2000
,
0000
0000
0000
0000
,
3200
0000
0000
0300
0011
0000
1100
0000
,
1000
0000
0000
0100
0000
0000
0010
0000
0000
0000
0001
0000
0001
0000
0000
0000
,
0010
0000
0000
0100
0000
0000
1000
0000
0000
0000
0010
0000
0010
0000
0000
0000
,
0100
0000
0000
0001
0000
0000
1000
0000
0000
0000
0100
0000
0100
0000
0000
0000
,
0010
0000
0000
0001
0000
0000
1000
0000
0000
0000
0010
0000
0010
0000
0000
0000
,
0100
0000
0000
0001
0000
0000
0010
0000
0000
0000
0000
0000
0100
0000
0000
0000
,
1000
0000
0000
0010
0000
0000
1000
0000
0000
0000
0100
0000
0010
0000
0000
0000
,
0001
0000
0000
0010
0000
0000
0100
0000
1000
0000
0010
0000
1000
0000
0000
0000
,
0001
1001
0100
0110
,
0001
0000
0000
0000
1000
0000
0000
0000
0001
0000
0000
0010
0000
0000
0100
0000
,
0000
1000
0010
0100
0001
0000
0000
0000
;

//---------------dance-single - ----------------
#NOTES:
     dance-single:
     :
     Medium:
     5:
     0.287407,0.306310,0.060442,0.025904,0.090663,233.000000,226.000000,7.000000,3.000000,0.000000,0.000000,0.287407,0.306310,0.060442,0.025904,0.090663,233.000000,226.000000,7.000000,3.000000,0.000000,0.000000:
0000
0000
0000
0000
,
0000
0000
0000
0000
,
1000
0000
0000
1000
0000
0000
1000
0000
0000
0000
0000
0000
0100
0000
0000
0000
,
0010
0000
0000
0010
0000
0000
0010
0000
0000
0000
0000
0000
0001
0000
0000
0000
,
0100
0000
0000
0100
0000
0000
0100
0000
0000
0000
0000
0000
0010
0000
0000
0000
,
1000
0000
0000
1000
0000
0000
1000
0000
0000
0000
0000
0000
0100
0000
0000
0000
,
0010
0001
1000
0001
,
1000
0010
0100
0001
,
1000
0010
1000
0001
,
0100
0000
0000
0000
0010
0000
0000
1000
0000
0000
0000
0000
1000
0000
0000
0000
,
0002
0003
0100
0000
,
0010
0000
1000
0000
,
1001
0000
0000
0000
,
0000
0000
1001
1001
,
0100
0000
0000
0010
0000
0000
0100
0000
0000
0000
0000
0000
0010
0000
0000
0000
,
1000
0000
0000
0001
0000
0000
1000
0000
0000
0000
0000
0000
0001
0000
0000
0000
,
1000
0000
0000
0010
0000
0000
1000
0000
0000
0000
0000
0000
0010
0000
0000
0000
,
0100
0000
0000
0001
0000
0000
0100
0000
0000
0000
0000
0000
0001
0000
0000
0000
,
1000
0000
0000
0100
0000
0000
0010
0000
0000
0000
0000
0000
0001
0000
0000
0000
,
0010
0000
0000
0100
0000
0000
1000
0000
0000
0000
0000
0000
0000
0000
0000
0000
,
0001
0000
0000
0100
0000
0000
0001
0000
0000
0000
0000
0000
0000
0000
0000
0000
,
1000
0000
0000
0010
0000
0000
1000
0000
0000
0000
0000
0000
0001
0000
0000
0000
,
0010
0100
1000
0001
,
0100
0000
0010
1000
0010
0000
0000
0000
,
0100
0000
0000
0001
0000
1000
0000
0001
,
0000
0000
0100
0100
,
0010
0010
1000
1000
,
0001
0000
0100
0001
0100
0000
0000
0000
,
0010
0000
0000
1000
0000
1000
0000
0010
,
0000
0000
0100
0100
0000
0000
0000
0000
,
0001
0010
0100
0000
,
1000
0100
0010
0001
,
1000
0000
0010
1000
0010
0000
0000
0100
,
0000
0000
0001
0100
,
0001
1000
0001
0000
,
1000
0010
0100
0000
,
0001
0000
0000
1000
0000
0010
0000
0100
,
0000
0001
0000
1001
0000
1000
0000
0010
,
0000
0100
0000
0001
0000
0100
0000
0001
,
0000
1000
0010
1000
0000
0010
0000
0100
,
0000
0001
0000
1000
0000
0010
0000
0100
,
0000
0001
0001
0000
0000
0000
0000
1000
,
0000
0100
0000
0010
0000
0001
0000
0100
,
0000
0010
0000
1000
0000
0000
0000
0000
,
0001
0000
0001
0000
0100
0000
0000
0010
,
0000
0000
0010
0000
0000
1000
0000
1000
,
0000
0100
0000
0100
0000
0010
0000
0010
,
0000
0001
0100
0001
0000
1000
0000
1000
,
0000
0010
0000
0010
0000
0100
0000
0100
,
0000
0001
0001
0000
0000
1000
0000
0100
,
0000
0010
0001
0010
0000
0100
0000
1000
,
0000
0010
1000
0010
0000
0000
0000
0000
,
0100
0000
0100
0000
0001
0000
0000
2020
,
0000
0000
0000
0000
0000
0000
0000
3030
,
0000
0000
0101
0101
,
0010
0000
0000
1000
0000
0000
0010
0000
0000
0000
0000
0000
1000
0000
0000
0000
,
0001
0000
0000
0100
0000
0000
0001
0000
0000
0000
0000
0000
0100
0000
0000
0000
,
0010
0000
0000
1000
0000
0000
0001
0000
0000
0000
0000
0000
0100
0000
0000
0000
,
0010
0000
0000
1000
0000
0000
0001
0000
0000
0000
0000
0000
0100
0000
0000
0000
,
0001
0000
0000
0010
0000
0000
0100
0000
0000
0000
0000
0000
1000
0000
0000
0000
,
0100
0000
0000
0010
0000
0000
0001
0000
0000
0000
0000
0000
1000
0000
0000
0000
,
0001
0000
0000
0010
0000
0000
0100
0000
0000
0000
0000
0000
1000
0000
0000
0000
,
0010
0100
0001
0100
,
0010
0000
0000
0000
1000
0000
0000
0000
0010
0000
0000
0000
0100
0000
0000
0100
,
0000
0001
1000
0001
1000
0000
0000
0000
;

//---------------dance-single - ----------------
#NOTES:
     dance-single:
     :
     Easy:
     3:
     0.226965,0.250617,0.094980,0.025904,0.000000,184.000000,173.000000,11.000000,3.000000,0.000000,0.000000,0.226965,0.250617,0.094980,0.025904,0.000000,184.000000,173.000000,11.000000,3.000000,0.000000,0.000000:
0000
0000
0000
0000
,
0000
0000
0000
0000
,
1000
0000
0000
1000
0000
0000
0010
0000
,
0100
0000
0000
0100
0000
0000
0001
0000
,
1000
0000
0000
0001
0000
0000
0100
0000
,
0010
0000
0000
1000
0000
0000
0000
0000
,
0001
0001
0100
0100
,
0010
1000
0001
1000
,
0010
0010
0100
0100
,
0001
0000
0000
1001
0000
0000
0000
0000
,
1000
0000
0001
0000
,
1000
0000
0010
0000
,
0200
0000
0000
0000
,
0000
0300
0010
0010
,
1000
1000
0001
0000
,
0100
0100
0010
0000
,
1000
1000
0001
0000
,
0100
0010
0100
0000
,
0001
0001
1000
0000
,
0010
0010
0100
0000
,
0001
0001
1000
0000
,
0001
0100
0010
0000
,
1000
0001
1000
0001
,
0100
0010
0100
0000
,
0001
0000
0000
0001
0000
0000
0000
0000
,
1000
1000
0010
0010
,
0100
0001
1000
0010
,
0100
0100
0001
0000
,
1000
0000
0000
0010
0000
0010
0000
0100
,
0000
0000
0000
0000
,
1001
0000
1001
0000
,
1001
0000
1001
0000
,
0100
0010
0100
0000
,
0010
0000
0010
0100
,
0001
1000
0001
0000
,
1000
0001
1000
0000
,
0010
0000
0000
0100
0000
0000
0000
0010
,
0000
0010
0000
0010
0000
0000
0000
1000
,
0000
0000
0000
0001
0000
0000
0000
1000
,
0000
0001
0000
1000
0000
0010
0000
0100
,
0000
0001
0000
1000
0000
0010
0000
0100
,
0000
0000
0100
0000
0000
0000
0000
0001
,
0000
0000
0000
1000
0000
0000
0000
0001
,
0000
0100
0000
0001
0000
0000
0000
0000
,
1000
0000
1000
0000
0010
0000
0000
0100
,
0000
0000
0100
0000
0000
0000
0000
0001
,
0000
0000
0000
1000
0000
0000
0000
0010
,
0000
0000
0000
0100
0000
0000
0000
0001
,
0000
0000
0000
1000
0000
0001
0000
1000
,
0000
0000
0010
0000
0000
0000
0000
0100
,
0000
0000
0000
0001
0000
0000
0000
0100
,
0000
0000
0000
0001
0000
0000
0000
0000
,
1000
0000
1000
0000
0010
0000
0000
0202
,
0000
0000
0000
0000
0000
0000
0000
0303
,
0000
0000
1000
1000
,
0001
0100
0010
1000
,
0010
0100
0001
1000
,
0010
0100
0001
0001
,
1000
1000
0010
0100
,
0001
0000
0000
1001
0000
0000
0000
0000
,
1000
0000
0000
1010
0000
0000
0000
0000
,
0001
0000
0000
0101
0000
0000
0000
0000
,
1000
0100
0010
0001
,
0100
0000
0010
0000
1000
0000
0000
1001
,
0000
0000
0110
0000
;

//---------------dance-single - Copied from----------------
#NOTES:
     dance-single:
     Copied from:
     Beginner:
     1:
     0.077711,0.082892,0.000000,0.000000,0.000000,63.000000,63.000000,0.000000,0.000000,0.000000,0.000000,0.077711,0.082892,0.000000,0.000000,0.000000,63.000000,63.000000,0.000000,0.000000,0.000000,0.000000:
0000
0000
0000
0000
,
0000
0000
0000
0000
,
0010
0000
0000
0000
,
0010
0000
0000
0000
,
0010
0000
0000
0000
,
0010
0000
0000
0000
,
0100
0000
0000
0000
,
0100
0000
0000
0000
,
0100
0000
0000
0000
,
0100
0000
0000
0000
,
0001
0000
0000
0000
,
0001
0000
0000
0000
,
0001
0000
0000
0000
,
0000
0000
1000
0000
,
1000
0000
0000
0000
,
1000
0000
0000
0000
,
1000
0000
0000
0000
,
1000
0000
0000
0000
,
0010
0000
0000
0000
,
0010
0000
0000
0000
,
0010
0000
0000
0000
,
0010
0000
0000
0000
,
0100
0000
0000
0000
,
0100
0000
0000
0000
,
0001
0000
0000
0000
0000
0000
0000
0001
,
0000
0000
0000
0000
,
1000
0000
0000
0000
,
1000
0000
0000
0000
,
0010
0000
0000
0000
0000
0000
0000
0010
,
0000
0000
0000
0000
,
0100
0000
0000
0000
,
0100
0000
0000
0000
,
0100
0000
0000
0000
,
0100
0000
0000
0000
,
0001
0000
0000
0000
0000
0000
0000
0001
,
0000
0000
0000
0000
,
0001
0000
0000
0000
0000
0000
0000
0001
,
0000
0000
0000
0000
0000
0000
0000
1000
,
0000
0000
0000
0000
0000
0000
0000
1000
,
0000
0000
0000
0000
0000
0000
0000
0010
,
0000
0000
0000
0000
0000
0000
0000
0010
,
0000
0000
0000
0000
0000
0000
0000
0100
,
0000
0000
0000
0000
0000
0000
0000
0100
,
0000
0000
0000
0000
,
0001
0000
0000
0000
0000
0000
0000
0001
,
0000
0000
0000
0000
0000
0000
0000
1000
,
0000
0000
0000
0000
0000
0000
0000
1000
,
0000
0000
0000
0000
0000
0000
0000
0010
,
0000
0000
0000
0000
0000
0000
0000
0010
,
0000
0000
0000
0000
0000
0000
0000
0100
,
0000
0000
0000
0000
0000
0000
0000
0100
,
0000
0000
0000
0000
,
0001
0000
0000
0000
0000
0000
0000
0001
,
0000
0000
0000
0000
,
0000
0000
0001
0000
,
0001
0000
0000
0000
,
0100
0000
0000
0000
,
0100
0000
0000
0000
,
0100
0000
0000
0000
,
0010
0000
0000
0000
,
0010
0000
0000
0000
,
0010
0000
0000
0000
,
1000
0000
0000
0000
,
1000
0000
0000
0000
,
1000
0000
0000
0000
;
