#TITLE:Over Clock;
#SUBTITLE:;
#ARTIST:NAOKI feat. un∞limited;
#TITLETRANSLIT:;
#SUBTITLETRANSLIT:;
#ARTISTTRANSLIT:NAOKI feat. unlimited;
#GENRE:;
#CREDIT:SupremeX;
#BANNER:OVERCLOCK.png;
#BACKGROUND:OVERCLOCK-bg.png;
#LYRICSPATH:;
#CDTITLE:CDTitle.png;
#MUSIC:Over Clock.ogg;
#OFFSET:-1.299102;
#SAMPLESTART:42.869999;
#SAMPLELENGTH:12.000000;
#SELECTABLE:YES;
#BPMS:0.000000=180.001007
;
#STOPS:
;
#BGCHANGES:32.000=drop.avi=1.000=0=0=1=====,
64.000=pop.avi=1.000=0=0=1=====,
96.000=kaliedoscope6.avi=1.000=0=0=1=====,
123.000=OVERCLOCK-bg.png=1.000=0=0=1=====,
128.000=tripbox.avi=1.000=0=0=1=====,
144.000=moon1.avi=1.000=0=0=1=====,
159.000=pikapika.avi=1.000=0=0=1=====,
177.000=flower1.avi=1.000=0=0=1=====,
192.000=tripbox.avi=1.000=0=0=1=====,
208.000=moon1.avi=1.000=0=0=1=====,
228.000=flower1.avi=1.000=0=0=1=====,
260.000=pop.avi=1.000=0=0=1=====,
292.000=drop.avi=1.000=0=0=1=====,
327.000=OVERCLOCK-bg.png=1.000=0=0=1=====,
99999=-nosongbg-=1.000=0=0=0 // don't automatically add -songbackground-
;
#KEYSOUNDS:;
#ATTACKS:;

//---------------dance-single - ----------------
#NOTES:
     dance-single:
     :
     Hard:
     8:
     0.431176,0.578864,0.247831,0.371747,0.030979,341.000000,313.000000,28.000000,42.000000,0.000000,0.000000,0.431176,0.578864,0.247831,0.371747,0.030979,341.000000,313.000000,28.000000,42.000000,0.000000,0.000000:
0000
0000
0000
0000
,
0000
0000
0000
0000
,
0000
0000
0000
0000
,
0000
0000
0000
0000
,
0000
0000
0000
0000
,
0000
0000
0000
0000
,
0000
0000
0000
0000
,
0000
0000
0000
0000
,
0100
0000
0010
1000
0000
0001
0010
0100
,
1000
0010
0100
0010
0000
1000
0100
1000
,
0010
0000
0100
0001
0000
1000
0000
0001
,
0010
0100
1000
0010
0100
0000
0000
0000
,
0001
0000
0001
0100
0000
0010
1000
0010
,
0100
0001
0100
0010
0000
1000
0100
0010
,
0001
0000
0100
0010
0000
1000
0100
1000
,
0010
0100
0010
1000
0001
0000
0000
0000
,
0100
0000
0010
1000
0000
0001
0100
0020
,
0000
1030
0010
1000
0200
0000
1300
0000
,
1000
0000
0010
0100
0000
0001
1000
0001
,
0000
0100
0010
1000
0010
0000
0100
0000
,
0002
0000
0000
1003
0000
0000
1000
0000
,
0020
0000
0130
0100
0000
0000
0001
0000
,
1000
0000
0000
0010
0000
0000
0100
0000
0000
0000
0000
0000
0001
0000
0000
0000
,
2000
0000
3001
0000
,
0100
0000
0000
0010
0000
0000
1000
0000
1000
0000
0000
0000
0001
0000
0000
0000
,
0100
0000
0000
0010
0000
0000
1000
0000
1000
0000
0000
0000
0010
0000
0000
0000
,
0100
0000
0000
0001
0000
0000
0100
0000
0100
0000
0000
0000
0010
0000
0000
0000
,
1000
0000
0000
0001
0000
0000
0100
0000
0100
0000
0000
0000
0001
0000
0000
0000
,
0110
1000
0001
1000
,
1100
0001
0100
0010
,
1001
1100
0101
1010
,
0000
0100
0001
1001
,
1100
0000
0000
0010
0000
1000
0001
1000
,
0002
0000
0000
0103
0000
0100
0010
1000
,
0010
0000
0100
0001
0000
1000
0010
0000
,
0100
0101
1010
0000
,
0100
0000
0100
0001
0000
0001
1000
0010
,
1000
0001
1001
1100
,
0011
0000
0000
1001
0000
0000
0100
0000
,
0220
0000
0330
0001
,
1000
0000
0001
2000
0000
0000
3020
0000
,
0230
0000
0000
0301
0001
0000
0000
0000
,
1000
0000
0010
0200
0000
0000
0301
0000
,
0002
0000
1003
0000
,
0000
1000
1010
0101
,
2000
0000
0000
3100
0000
0000
0110
0000
,
0011
0000
0000
0000
0000
1000
0010
0100
,
0002
0000
0000
0000
,
0103
0000
0000
0100
0000
0000
0001
0000
1000
0000
0001
0000
0100
0000
0000
0000
,
0001
0110
1100
0000
,
0001
0000
0000
0001
0000
0000
1000
0000
0010
0000
1000
0000
0010
0000
0000
0000
,
0200
0000
0000
0301
0001
0000
0000
0000
,
1000
0000
0010
0100
0001
1000
0010
0000
,
0010
1000
0100
1000
0100
0000
0000
0000
,
0010
0001
0010
0001
0100
0010
1000
0000
,
2000
0001
3001
0000
,
0200
0302
2003
3010
,
1001
0000
0000
0100
0000
0001
0010
0100
,
1000
0000
0000
0010
0000
1000
0100
0010
,
0001
0000
0000
0100
0000
0001
0010
0100
,
2000
0000
0000
0010
3010
0000
0000
0000
,
1000
0000
0001
0001
0000
0100
0100
0000
,
0020
2030
3002
0103
,
0100
0000
0010
1000
0000
0000
1000
0000
,
0220
0000
0330
0001
,
2000
0000
0000
3100
0000
0000
0010
0000
,
0002
0000
0000
0100
0103
0000
0000
0000
,
0020
0000
0000
2030
0000
0000
3100
0000
,
0020
0000
0000
0031
0001
0000
0000
0000
,
1000
0100
1000
0001
,
0101
0000
0000
1010
0000
0000
0110
0000
,
1002
0000
0000
0000
0000
1003
0001
2000
,
0000
0000
0000
0000
0000
3000
0010
0000
,
0010
0000
1000
0002
0000
0000
0203
0000
,
0320
0000
0000
1000
1030
0000
0000
0000
,
0200
0000
0301
0001
0000
0000
1000
0000
,
2000
0000
0000
3010
0010
0000
0000
0000
,
0100
0001
0100
0010
1000
0010
0100
0001
,
0020
0000
0000
0230
0000
0000
1300
0000
,
1000
0100
0010
0001
0100
0010
1000
0001
,
0010
0100
1000
0010
1000
0000
2002
0000
,
0000
0000
0000
3003
;

//---------------dance-single - ----------------
#NOTES:
     dance-single:
     :
     Easy:
     4:
     0.293352,0.324615,0.123916,0.079660,0.000000,232.000000,218.000000,14.000000,9.000000,0.000000,0.000000,0.293352,0.324615,0.123916,0.079660,0.000000,232.000000,218.000000,14.000000,9.000000,0.000000,0.000000:
0000
0000
0000
0000
,
0000
0000
0000
0000
,
0000
0000
0000
0000
,
0000
0000
0000
0000
,
0000
0000
0000
0000
,
0000
0000
0000
0000
,
0000
0000
0000
0000
,
0000
0000
0000
0000
,
0010
0010
1000
1000
,
0001
0001
0100
0010
,
1000
0001
0100
0010
,
1000
0001
0001
0000
,
0100
0010
1000
0001
,
0100
0010
0010
1000
,
0001
0100
0010
1000
,
0001
1000
0001
0000
,
1000
0010
0100
0010
,
1000
0001
0001
0100
,
0010
1000
0001
0010
,
0100
1000
1000
0010
,
0200
0000
0301
0000
,
2000
0000
3010
0000
,
0100
0001
0000
1000
,
0010
0000
0110
0000
,
0001
0000
0011
0000
,
1100
0000
0010
0000
,
0100
0000
1010
0000
,
0101
0000
0000
0000
,
0010
0010
1000
1000
,
0001
0001
0100
0100
,
0010
0000
1000
1001
,
0000
0010
0100
0010
,
1000
0000
0000
0001
0000
0000
0100
0000
,
0010
0000
0000
1000
0000
0000
0001
0000
,
0100
0010
1000
0001
,
0100
0100
0100
0000
,
0001
0010
0001
0100
,
0010
0100
0001
0010
,
0100
0000
0000
1000
0000
0000
1000
0000
,
0010
0000
0000
0100
,
0001
0100
0010
1000
,
0010
0000
0110
0000
,
0001
0010
0100
1000
,
0010
0000
1010
0000
,
0000
1000
0100
0010
,
0001
0000
0000
0001
0000
0000
0001
0000
,
0100
0000
0000
0010
,
2020
0000
0000
3030
,
0100
0000
0001
0000
,
1000
0010
0100
0000
,
0001
0000
0001
0000
,
1000
0010
0100
0000
,
0001
0000
0010
0000
,
0100
0000
1000
0000
,
0010
0100
0001
1000
,
0010
0000
0010
0000
,
2000
0000
0000
3000
,
0001
0000
0100
0010
,
0100
0000
0001
0010
,
0001
0000
1000
0010
,
1000
0000
0110
0000
,
0001
0010
0100
1000
,
0010
0100
0010
1000
,
0001
0000
0000
1000
0000
0000
0001
0000
,
1001
0000
0000
0100
,
0010
0100
0001
1000
,
0010
0100
0001
0000
,
1000
0100
0010
0001
,
0100
0010
1000
0000
,
0000
0001
0010
0100
,
1000
0000
0000
0010
0000
0000
0100
0000
,
1001
0000
0000
0000
0000
0000
0000
0110
,
0000
0000
0000
0000
,
1000
0100
0010
0001
,
0100
0010
0100
0001
,
0010
0100
1000
0010
,
0100
0010
1000
0001
,
1000
0001
0100
0010
,
0100
0010
1000
0001
,
2000
0000
0000
0000
0000
0000
0000
3000
,
0002
0000
1003
2002
,
0000
0000
3003
0000
;

//---------------dance-single - Copied from----------------
#NOTES:
     dance-single:
     Copied from:
     Beginner:
     2:
     0.093569,0.142946,0.000000,0.000000,0.000000,74.000000,74.000000,0.000000,0.000000,0.000000,0.000000,0.093569,0.142946,0.000000,0.000000,0.000000,74.000000,74.000000,0.000000,0.000000,0.000000,0.000000:
0000
0000
0000
0000
,
0000
0000
0000
0000
,
0000
0000
0000
0000
,
0000
0000
0000
0000
,
0000
0000
0000
0000
,
0000
0000
0000
0000
,
0000
0000
0000
0000
,
0000
0000
0000
0000
,
1000
0000
0000
0000
,
1000
0000
0000
0000
,
1000
0000
0000
0000
,
1000
0000
0000
0000
,
0001
0000
0000
0000
,
0001
0000
0000
0000
,
0001
0000
0000
0000
,
0001
0000
0000
0000
,
0100
0000
0000
0000
,
0100
0000
0000
0000
,
0010
0000
0000
0000
,
0010
0000
0000
0000
,
1000
0000
0000
0000
,
1000
0000
0000
0000
,
1000
0000
0000
0000
,
1000
0000
0000
0000
,
0001
0000
0000
0000
,
0001
0000
0000
0000
,
0001
0000
0000
0000
,
0001
0000
0000
0000
,
0100
0000
0000
0000
,
0100
0000
0000
0000
,
0100
0000
0000
0000
,
0000
0000
0000
0000
,
0010
0000
0000
0000
,
0010
0000
0000
0000
,
0010
0000
0000
0000
,
0010
0000
0000
0000
,
1000
0000
0000
0000
,
1000
0000
0000
0000
,
1000
0000
0000
0000
,
1000
0000
0000
0000
,
0001
0000
0000
0000
,
0001
0000
0000
0000
,
0001
0000
0000
0000
,
0001
0000
0000
0000
,
0100
0000
0000
0000
,
0100
0000
0000
0000
,
0100
0000
0000
0000
,
0100
0000
0000
0000
,
0010
0000
0000
0000
,
1000
0000
0000
0000
,
0010
0000
0000
0000
,
1000
0000
0000
0000
,
0010
0000
0000
0000
,
1000
0000
0000
0000
,
0010
0000
0000
0000
,
1000
0000
0000
0000
,
0001
0000
0000
0000
,
0001
0000
0000
0000
,
0001
0000
0000
0000
,
0001
0000
0000
0000
,
0001
0000
0000
0000
,
0100
0000
0000
0000
,
0001
0000
0000
0000
,
0100
0000
0000
0000
,
0001
0000
0000
0000
,
1000
0000
0000
0000
,
0010
0000
0000
0000
,
1000
0000
0000
0000
,
0010
0000
0000
0000
,
0100
0000
0000
0000
,
0001
0000
0000
0000
,
0100
0000
0000
0000
0000
0000
0000
0001
,
0000
0000
0000
0000
,
1000
0000
0000
0000
,
1000
0000
0000
0000
,
0010
0000
0000
0000
,
0010
0000
0000
0000
,
1000
0000
0000
0000
,
1000
0000
0000
0000
,
0010
0000
0000
0000
,
0100
0000
0001
0001
;

//---------------dance-single - ----------------
#NOTES:
     dance-single:
     :
     Medium:
     6:
     0.327492,0.434148,0.097362,0.292087,0.000000,259.000000,248.000000,11.000000,33.000000,0.000000,0.000000,0.327492,0.434148,0.097362,0.292087,0.000000,259.000000,248.000000,11.000000,33.000000,0.000000,0.000000:
0000
0000
0000
0000
,
0000
0000
0000
0000
,
0000
0000
0000
0000
,
0000
0000
0000
0000
,
0000
0000
0000
0000
,
0000
0000
0000
0000
,
0000
0000
0000
0000
,
0000
0000
0000
0000
,
1000
0000
0010
0100
0000
0000
0100
0000
,
0001
0000
0001
1000
0000
0000
0010
0000
,
0010
0000
0100
0001
0000
0001
0000
0000
,
1000
0010
1000
0000
,
0001
0000
0001
0100
0000
0010
0000
0010
,
1000
0001
1000
0010
0000
0000
0100
0000
,
0010
0000
1000
0001
0000
0000
0100
0000
,
0010
0000
1000
0100
1000
0000
0000
0000
,
0010
0000
0100
0001
0000
0001
0000
0100
,
0000
0010
1000
0010
0100
0000
0001
0000
,
0001
0000
1000
0010
0000
0010
0000
1000
,
0000
0001
0100
0001
0100
0000
0010
0000
,
2000
0000
0000
3010
0000
0000
0010
0000
,
0200
0000
0300
0001
0000
0000
0001
0000
,
1000
0000
0000
0010
0000
0000
0010
0000
,
0200
0000
0301
0000
,
0001
0000
1000
0010
,
0100
0000
0001
0100
,
0010
1000
0100
0010
,
0001
0100
0010
1000
,
1010
0100
0001
0100
,
0101
0010
1000
0010
,
0100
0001
0100
0010
,
0000
1000
0001
1000
,
1001
0000
0000
0001
0000
0000
0100
0010
,
0100
0000
0000
0010
0000
0010
1000
0000
,
1000
0000
0010
0100
0000
0100
0001
0000
,
0001
1000
1001
0000
,
0010
0000
0010
0100
0000
0100
0000
0001
,
1000
0010
0100
0001
,
1001
0000
0000
0110
0000
0000
1000
0000
,
0022
0000
0033
0000
,
0100
0000
1000
0010
0000
0000
2000
0000
,
3002
0000
0000
0103
0100
0000
0000
0000
,
0010
0000
1000
2000
0000
0000
3100
0000
,
0200
0000
0310
0000
,
0000
0001
0001
0100
,
0200
0000
0000
0301
0000
0000
0001
0000
,
1001
0000
0000
0000
0000
1000
0100
1000
,
0020
0000
0000
0000
,
0230
0000
0302
0000
,
2003
0000
3000
0000
,
0020
0000
0230
0000
,
0302
0000
0000
1003
1000
0000
0000
0000
,
0010
0100
0001
1000
,
1000
0010
0010
0000
,
0100
0100
0001
1000
,
2000
0010
3010
0000
,
0200
0000
0000
0300
,
0011
0000
0000
0001
0000
1000
0010
1000
,
0010
0000
0000
0100
0000
0000
0001
0000
,
0001
0000
0000
0100
0000
0100
0010
1000
,
2000
0000
3010
0000
,
0010
0000
0000
0100
0000
0000
0001
0000
,
1000
0001
0100
0010
,
0010
0000
1000
0001
0000
0000
0001
0000
,
0220
0000
0330
1000
,
0002
0000
0000
0003
0000
0000
0100
0000
,
0020
0000
1030
0000
,
2000
0000
0000
3000
0002
0000
0000
0000
,
0203
0000
0301
0000
,
0001
0100
0010
1000
,
0001
0000
0000
0100
0000
0000
0001
0000
,
0020
0000
0000
0000
0000
0130
0100
2000
,
0000
0000
0000
0000
0000
3000
0010
0000
,
0010
0000
0100
0001
0000
0000
0001
0000
,
1000
0000
0000
0010
0010
0000
0000
0000
,
0100
0000
0001
0001
0000
0000
1000
0000
,
0010
0000
0000
0100
0100
0000
0000
0000
,
0001
1000
0100
0010
,
0002
0000
0000
0203
0000
0000
0301
0000
,
0001
1000
0100
1000
,
0001
0010
0100
1000
0010
0000
2002
0000
,
0000
0000
0000
3003
;
