#TITLE:Magic to Love;
#SUBTITLE:;
#ARTIST:TSUBASA;
#TITLETRANSLIT:;
#SUBTITLETRANSLIT:;
#ARTISTTRANSLIT:;
#GENRE:;
#CREDIT:SupremeX;
#BANNER:Magic to love.png;
#BACKGROUND:Magic to love-bg.png;
#LYRICSPATH:;
#CDTITLE:CDTitle.png;
#MUSIC:Magic to Love.ogg;
#OFFSET:-1.369;
#SAMPLESTART:72.260002;
#SAMPLELENGTH:12.000000;
#SELECTABLE:YES;
#BPMS:0.000000=139.970001
;
#STOPS:
;
#BGCHANGES:-2.500=Magic to Love.avi=1.000=0=0=1=====,
99999=-nosongbg-=1.000=0=0=0 // don't automatically add -songbackground-
;
#KEYSOUNDS:;
#ATTACKS:;

//---------------dance-single - ----------------
#NOTES:
     dance-single:
     :
     Hard:
     7:
     0.309189,0.427339,0.156568,0.128938,0.115124,235.000000,218.000000,17.000000,14.000000,0.000000,0.000000,0.309189,0.427339,0.156568,0.128938,0.115124,235.000000,218.000000,17.000000,14.000000,0.000000,0.000000:
0000
0000
0000
0000
,
0000
0000
0000
0000
,
0000
0000
0000
0000
,
0000
0000
0000
0000
,
0000
0000
0000
0000
,
0000
0000
0000
0000
,
0000
0000
0000
0000
,
0000
0000
0000
0000
,
2000
0000
0000
0010
0000
0000
0000
0010
,
3010
0000
0100
0001
,
1000
0000
0000
0000
1001
0000
0000
0010
,
0000
0010
0100
0000
0100
0000
0001
0000
,
1000
0000
0000
0001
0000
0000
1000
0000
,
1000
0000
0001
0001
,
0200
0000
0000
0300
0020
0000
0000
0000
,
1000
0000
1030
0000
,
2000
0000
0000
3000
,
0001
0000
1000
0001
1000
0000
0110
0000
,
0011
1001
0101
1000
,
0010
1000
0010
0100
0001
0000
1001
0000
,
0101
0000
1010
0000
0100
0001
1000
0010
,
0000
1000
0100
0010
0001
0000
0100
0000
,
0110
0000
0011
0000
1000
0001
1000
0000
,
0010
0100
0001
0100
0010
1000
0100
0010
,
0001
0000
1100
0000
0010
1000
0001
0100
,
0001
0000
0000
0000
0000
0000
1000
0000
0010
0000
0000
1000
0000
0000
0001
0000
,
0001
0000
0000
0000
0000
0000
1000
0000
0010
0000
0000
0010
0000
0000
0100
0000
,
0001
0000
1000
0002
0000
0000
0003
0000
0000
0000
0000
0000
0100
0000
0010
0000
,
0001
0000
0000
1000
0000
0000
1000
0000
0000
0000
0010
0000
0100
0000
0000
0000
,
0110
0000
0000
0000
0000
0000
0001
0000
1000
0000
0000
0001
0000
0000
1000
0000
,
0010
0000
0000
0000
0000
0000
0100
0000
0001
0000
0000
1000
0000
0000
0001
0000
,
1000
0000
0000
0000
0000
0000
0000
0000
0100
0000
0000
0100
0000
0000
0010
0000
,
0001
0000
0000
0001
0000
0000
0002
0000
0000
0000
0000
0000
0000
0000
0003
0000
,
1000
0000
0000
0100
0000
0000
0010
0000
0000
0000
0001
0000
0100
0000
0010
0000
,
1000
0000
0000
0100
0000
0000
0010
0000
0000
0000
0000
0000
0001
0000
0000
0000
,
0010
0000
0000
0100
0000
0000
1000
0000
0000
0000
0010
0000
0100
0000
0001
0000
,
1000
0000
0000
0010
0000
0000
1001
0000
0000
0000
0000
0000
0100
0000
0000
0000
,
0010
0000
0000
0001
0000
0000
0010
0000
0000
0000
0100
0000
1000
0000
0100
0000
,
0010
0000
0000
0001
0000
0000
0010
0000
0000
0000
0000
0000
0000
0000
0100
0000
,
1000
0000
0000
0010
0000
0000
1000
0000
0000
0000
0100
0000
0010
0000
0001
0000
,
0100
0000
0000
0001
0000
0000
2000
0000
0000
0000
0000
0000
3000
0000
0000
0000
,
2002
0000
0000
0000
0000
0000
0000
0000
0000
0000
0000
0000
0000
3003
0000
0000
,
0001
0000
0000
1000
0000
0000
0020
0000
0000
0000
0000
0030
0000
0000
1000
0000
,
1000
0000
0000
0000
0000
0000
0010
0100
0010
0000
0100
0000
0001
0000
0100
0000
,
0001
0000
0000
1000
0000
0000
1000
0000
0010
0000
0000
0010
0000
0000
0100
0000
,
0000
0100
0001
0000
0010
0100
1000
0010
,
0100
0001
0000
1000
0000
1000
0010
0000
,
1001
0000
0001
1000
,
0001
0000
0000
0100
0000
0000
0001
0000
0002
0000
0000
0000
0000
0000
0000
0000
,
0003
0000
0000
1000
0100
0010
0001
0100
,
0001
0000
0000
1000
0000
0000
1000
0000
0000
0000
0000
0000
0000
0000
0001
0000
,
0001
0000
0000
0100
0010
1000
0001
1000
,
0010
0000
0000
0100
0000
0000
0001
0000
1000
0000
0000
0010
0000
0000
1000
0000
,
0000
0001
0100
0000
0010
1000
0001
0010
,
0100
0000
0000
1000
0000
0000
0010
0000
0000
0000
1000
0000
0001
0000
0000
0000
,
1001
0000
1000
0001
,
0200
0000
0000
0300
2002
0000
0000
0000
,
0000
0000
0000
0000
,
3003
0000
0000
0000
;

//---------------dance-single - ----------------
#NOTES:
     dance-single:
     :
     Medium:
     5:
     0.203933,0.293795,0.082889,0.101309,0.000000,155.000000,146.000000,9.000000,11.000000,0.000000,0.000000,0.203933,0.293795,0.082889,0.101309,0.000000,155.000000,146.000000,9.000000,11.000000,0.000000,0.000000:
0000
0000
0000
0000
,
0000
0000
0000
0000
,
0000
0000
0000
0000
,
0000
0000
0000
0000
,
0000
0000
0000
0000
,
0000
0000
0000
0000
,
0000
0000
0000
0000
,
0000
0000
0000
0000
,
2000
0000
0000
0000
0000
0000
0000
3000
,
0001
0000
0000
0000
,
0010
0000
0000
0000
0100
0000
0000
1000
,
0000
0001
0000
0000
1000
0000
1000
0000
,
0010
0000
0000
0100
0000
0000
0001
0000
,
0001
0000
1000
0010
,
0200
0000
0000
0300
0002
0000
0000
0000
,
0000
0000
0000
0003
,
2002
0000
0000
3003
,
0010
0010
0100
0100
,
0001
1000
0001
1000
,
0010
0100
0010
0000
1000
0000
1000
0000
,
0001
0100
0001
0000
1000
0000
0010
0000
,
0000
0100
0100
0001
,
0001
1000
0010
1000
,
0001
0100
0001
0000
1000
0000
1000
0000
,
0010
0100
0010
0000
1000
0000
0001
0000
,
0100
0000
0010
0000
,
1010
0000
0001
0000
,
0101
0000
0000
1000
,
1000
0010
0100
0001
,
1010
0000
0100
0000
,
0101
0000
1000
0000
,
1001
0000
0010
0100
,
0001
0000
0000
1001
0000
0000
0000
0000
,
1000
1000
0010
0010
,
0100
0000
0000
0001
0000
0000
0000
0000
,
1000
0010
0100
0001
,
1000
0000
0000
1000
0000
0000
0010
0000
,
0100
0001
0001
1000
,
0010
0000
0000
0010
0000
0000
0100
0000
,
0001
1000
0010
0100
,
0001
0000
0000
1000
0000
0000
0000
0000
,
0220
0000
0000
0330
,
0001
0001
1000
0001
,
1000
0000
0010
0100
,
0001
1000
0001
1000
,
0010
0100
0001
1000
,
0010
0100
0001
1000
,
1000
0000
0001
0100
,
0020
0000
0000
0030
2000
0000
0000
0000
,
0000
3000
0000
0000
0001
0000
0001
0000
,
0100
0010
1000
1000
,
0001
0000
0100
0010
,
1000
0000
0001
0000
1000
0000
0000
0010
,
0000
0110
0001
0010
,
0100
0000
0000
1000
0000
0000
0010
0000
,
1000
0000
0001
0100
,
0020
0000
0000
0030
2000
0000
0000
0000
,
0000
0000
0000
0000
,
3000
0000
0000
0000
;

//---------------dance-single - ----------------
#NOTES:
     dance-single:
     :
     Easy:
     3:
     0.149990,0.240378,0.009210,0.082889,0.000000,114.000000,113.000000,1.000000,9.000000,0.000000,0.000000,0.149990,0.240378,0.009210,0.082889,0.000000,114.000000,113.000000,1.000000,9.000000,0.000000,0.000000:
0000
0000
0000
0000
,
0000
0000
0000
0000
,
0000
0000
0000
0000
,
0000
0000
0000
0000
,
0000
0000
0000
0000
,
0000
0000
0000
0000
,
0000
0000
0000
0000
,
0000
0000
0000
0000
,
0020
0000
0000
0000
,
0030
0000
0000
0000
,
0200
0000
0000
0000
,
0000
0000
0000
0300
0000
0000
0000
0000
,
0002
0000
0000
0000
,
0003
0000
0000
0000
,
2000
0000
0000
0000
,
3000
0000
0000
0000
,
2002
0000
0000
0000
0000
0000
0000
3003
,
0000
0010
0010
0010
,
0010
0100
0010
0100
,
0001
0001
0001
0001
,
0001
1000
0001
1000
,
0000
0010
0010
0010
,
0010
0100
0010
0100
,
0001
1000
0001
1000
,
1000
1000
0010
0100
,
0001
0000
1000
0000
,
1000
0000
0001
0000
,
0100
0100
0000
0010
,
1000
0001
0100
0010
,
1000
0000
0001
0000
,
1000
0000
0001
0100
,
0001
0000
1000
0000
,
0010
0000
0000
0010
0000
0000
0000
0000
,
0100
0001
1000
0000
,
0010
0000
0000
0100
0000
0000
0000
0000
,
0001
0001
1000
0010
,
0100
0001
0000
1000
,
0010
0100
0001
0000
,
1000
0000
0000
0010
0000
0000
0000
0000
,
0100
0100
0001
0000
,
1000
0000
0000
0010
0000
0000
0000
0000
,
0200
0000
0000
0300
,
0001
0000
0000
0001
0000
0000
0000
1000
,
1000
0000
0000
0000
,
0010
0000
0000
0000
0010
0000
0000
0100
,
0000
0100
0001
1000
,
0001
0000
0000
1000
0000
0000
0000
0000
,
0010
0000
0100
0000
,
0001
0000
0001
0000
,
0000
0000
0000
0000
,
1000
0000
0000
1000
0000
0000
0000
0010
,
0010
0000
0100
0001
,
0100
0000
0000
0000
0010
0000
0000
1000
,
0000
1000
0001
0100
,
0001
0000
0000
1000
0000
0000
0001
0000
,
0001
0000
0100
0000
,
0020
0000
2000
0000
,
0000
0000
0000
0000
,
3030
0000
0000
0000
;

//---------------dance-single - Copied from----------------
#NOTES:
     dance-single:
     Copied from:
     Beginner:
     1:
     0.067101,0.078745,0.000000,0.000000,0.000000,51.000000,51.000000,0.000000,0.000000,0.000000,0.000000,0.067101,0.078745,0.000000,0.000000,0.000000,51.000000,51.000000,0.000000,0.000000,0.000000,0.000000:
0000
0000
0000
0000
,
0000
0000
0000
0000
,
0000
0000
0000
0000
,
0000
0000
0000
0000
,
0000
0000
0000
0000
,
0000
0000
0000
0000
,
0000
0000
0000
0000
,
0000
0000
0000
0000
,
0001
0000
0000
0000
,
0001
0000
0000
0000
,
0001
0000
0000
0000
0000
0000
0000
0001
,
0000
0000
0000
0000
,
0001
0000
0000
0000
,
0001
0000
0000
0000
,
0001
0000
0000
0000
,
0001
0000
0000
0000
,
0001
0000
0000
0000
,
0100
0000
0000
0100
,
0000
0000
0000
0000
,
0100
0000
0000
0100
,
0000
0000
0100
0000
,
0000
0000
0010
0000
0000
0000
0000
0010
,
0000
0000
0000
0010
,
0000
0000
0010
0000
,
0000
0000
0010
0000
,
1000
0000
0000
0000
,
1000
0000
0000
0000
,
1000
0000
0000
0000
,
1000
0000
0000
0000
,
0001
0000
0000
0000
,
0001
0000
0000
0000
,
0001
0000
0000
0000
,
0001
0000
0000
0000
,
0100
0000
0000
0000
,
0100
0000
0000
0000
,
0100
0000
0000
0000
,
0100
0000
0000
0000
,
0010
0000
0000
0000
,
0010
0000
0000
0000
,
0010
0000
0000
0000
,
0010
0000
0000
0000
,
1000
0000
0000
0000
,
0001
0000
0000
0000
,
1000
0000
0000
0000
,
0001
0000
0000
0000
,
1000
0000
0000
0000
,
0010
0000
0000
0000
,
0100
0000
0000
0000
,
0010
0000
0000
0000
,
0000
0000
0000
0000
,
1000
0000
0000
0000
,
0001
0000
0000
0000
,
1000
0000
0000
0000
0000
0000
0000
0001
,
0000
0000
0000
0000
,
0100
0000
0000
0000
,
0010
0000
0000
0000
,
0100
0000
0000
0000
,
0010
0000
0000
0000
;
