#TITLE:MEET HER AT THE LOVEPARADE (Radio Edit);
#SUBTITLE:;
#ARTIST:DJ ALIGATOR PROJECT;
#TITLETRANSLIT:;
#SUBTITLETRANSLIT:;
#ARTISTTRANSLIT:;
#GENRE:;
#CREDIT:SupremeX;
#BANNER:Meet Her At The Loveparade (Radio Edit).png;
#BACKGROUND:Meet Her At The Loveparade (Radio Edit)-bg.png;
#LYRICSPATH:;
#CDTITLE:;
#MUSIC:Meet Her At The Loveparade (Radio Edit).ogg;
#OFFSET:-1.079956;
#SAMPLESTART:66.099998;
#SAMPLELENGTH:12.000000;
#SELECTABLE:YES;
#BPMS:0.000000=139.990005
;
#STOPS:108.000000=1.280000,
141.000000=3.000000
;
#BGCHANGES:16.000=bluey1a.avi=1.000=0=0=1=====,
32.000=boy7.avi=1.000=0=0=1=====,
48.000=circle10.avi=1.000=0=0=1=====,
64.000=bluey1a.avi=1.000=0=0=1=====,
80.000=boy7.avi=1.000=0=0=1=====,
96.000=face3.avi=1.000=0=0=1=====,
108.000=Meet Her At The Loveparade (Radio Edit)-bg.png=1.000=0=0=1=====,
109.000=circle10.avi=1.000=0=0=1=====,
125.000=boy7.avi=1.000=0=0=1=====,
141.000=film6.avi=1.000=0=0=1=====,
142.000=dance7.avi=1.000=0=0=1=====,
174.000=bluey1a.avi=1.000=0=0=1=====,
206.000=Meet Her At The Loveparade (Radio Edit)-bg.png=1.000=0=0=1=====,
99999=-nosongbg-=1.000=0=0=0 // don't automatically add -songbackground-
;
#KEYSOUNDS:;
#ATTACKS:;

//---------------dance-single - ----------------
#NOTES:
     dance-single:
     :
     Hard:
     7:
     0.434676,0.462455,0.040301,0.030226,0.166242,302.000000,298.000000,4.000000,3.000000,0.000000,0.000000,0.434676,0.462455,0.040301,0.030226,0.166242,302.000000,298.000000,4.000000,3.000000,0.000000,0.000000:
0000
0000
0000
0000
,
0000
0000
0000
0000
,
0000
0000
0000
0000
,
0000
0000
1000
0010
,
0101
0000
0010
0000
1000
0000
0010
0100
,
0010
0000
0010
0000
1000
0000
1000
0010
,
1000
0000
0100
0000
0010
0000
0001
0100
,
0001
0001
1000
0110
,
1001
0000
0100
0001
0100
0000
0010
1000
,
0010
0000
1000
0001
0100
0000
0100
0001
,
1000
0000
0001
0010
0100
0000
1000
0010
,
2000
0000
0000
0000
0000
0000
0000
3000
,
0010
0000
1000
0000
0100
0000
0010
0001
,
0010
0000
0100
0000
1000
0000
0001
0100
,
0010
0000
0010
0000
1000
0000
1000
0010
,
1000
0000
0100
0000
0010
0000
0001
0100
,
0001
0000
1000
0000
0010
0000
0010
1000
,
0010
0000
1000
0000
0100
0000
0010
0001
,
0010
0000
0100
0000
1000
0000
0010
0100
,
0002
0000
0000
0000
,
0103
0000
0100
0010
1000
0000
0001
0100
,
0010
0000
0010
0000
1000
0001
1000
0010
,
0100
0000
0100
0000
0001
1000
0010
0100
,
0001
0000
0001
0000
1000
0010
0100
0001
,
1000
0000
1000
0000
0010
0100
0001
0100
,
0010
0000
1000
0000
0001
1000
0100
0010
,
0001
0000
1000
0000
0010
0100
0010
1000
,
0001
0000
1000
0000
0001
0010
0100
1000
,
0010
0100
0001
0000
1000
0100
0010
0001
,
1000
0010
0100
0000
0010
1000
0010
0100
,
0001
1000
0010
0000
1000
0100
0010
0001
,
1000
0010
0100
0000
0001
0100
0010
1000
,
0001
1000
0010
0000
0100
0001
1000
0100
,
0010
0001
0100
0000
0100
0010
1000
0010
,
0100
0000
0100
0001
0010
0100
1000
0010
,
0100
0000
0001
0000
1001
0000
0000
0000
1000
0010
1000
0000
0100
0000
0010
0000
,
0001
0000
0000
0001
0000
0000
0001
0000
0000
0000
1000
0010
1000
0000
0010
0000
,
0100
0000
0000
0100
0000
0000
0001
0000
1000
0001
1000
0000
0010
0000
0100
0000
,
0010
0000
0000
1000
0000
0000
0010
0000
0000
0000
1000
0100
1000
0100
1000
0000
,
0100
0000
0000
0010
0000
0000
0001
0000
1000
0001
1000
0000
0100
0000
0010
0000
,
0001
0000
0000
0100
0000
0000
0001
0000
0000
0000
0010
1000
0010
0000
0100
0000
,
0001
0000
0000
1000
0000
0000
0010
0000
1000
0001
1000
0000
0001
0000
0010
0000
,
0100
0000
0000
0100
0000
0000
0100
0000
0000
0000
1000
0010
1000
0000
0010
0000
,
1000
0000
0000
1000
0000
0000
0001
0000
0100
0001
0100
0000
0001
0000
0010
0000
,
0100
0000
0000
1000
0000
0000
1000
0000
0000
0000
0010
0100
0010
0000
1000
0000
,
0001
0000
0000
0100
0000
0000
0001
0000
1000
0001
1000
0000
0001
0000
0100
0000
,
0010
0000
0000
1000
0000
0000
0010
0000
0000
0000
1000
0001
1000
0000
0001
0000
,
0010
0000
0000
0100
0000
0000
1000
0000
0001
1000
0001
0000
1000
0000
0100
0000
,
0010
0000
0000
0001
0000
0000
0100
0000
0000
0000
0010
1000
0010
0000
0100
0000
,
0001
0000
0000
1000
0000
0000
1000
0000
0001
0100
0001
0000
1000
0000
0010
0000
,
1000
0000
0000
0001
0000
0000
0001
0000
0000
0000
0100
0001
0100
0000
0001
0000
,
1000
0000
0000
1000
0000
0000
0001
0000
2000
0000
0000
0000
0000
0000
0000
0000
,
0000
0000
0000
0000
,
0000
0000
0000
0000
,
3000
0000
0000
0000
;

//---------------dance-single - ----------------
#NOTES:
     dance-single:
     :
     Challenge:
     9:
     0.569972,0.598471,0.322408,0.040301,0.357672,396.000000,364.000000,32.000000,4.000000,0.000000,0.000000,0.569972,0.598471,0.322408,0.040301,0.357672,396.000000,364.000000,32.000000,4.000000,0.000000,0.000000:
0000
0000
0000
0000
,
0000
0000
0000
0000
,
0000
0000
0000
0000
,
0000
0000
1000
0010
,
0101
0000
0000
0010
1000
0000
0010
0000
0100
0000
0000
0001
0010
0000
0001
0000
,
1000
0000
0000
0010
0100
0000
0001
0000
1000
0000
0000
0010
1000
0000
0001
0100
,
0000
0000
0000
0010
1000
0000
0001
0000
0100
0000
0000
0001
1000
0000
0001
0000
,
1000
0000
0000
0001
0100
0000
0010
0000
1000
0000
0000
0000
0110
0000
0000
0000
,
1001
0000
0000
0010
0100
0000
0001
0000
1000
0000
0000
0010
0100
0000
0001
0000
,
0100
0000
0000
0010
1000
0000
0001
0000
0100
0000
0000
0010
1000
0000
0010
0000
,
0100
0000
0000
0001
1000
0000
0001
0000
0100
0000
0000
0010
1000
0000
0010
0000
,
0200
0000
0000
0000
,
0301
0000
0001
0010
0100
1000
1001
0100
,
0001
0000
1000
0100
1000
0001
0101
0000
,
1000
0100
0010
0001
0010
0100
1100
0010
,
0001
0000
0000
1000
0100
0000
1000
0000
0010
0000
0100
0000
1001
0000
0010
0000
,
0010
0000
0000
0000
1000
0001
0000
0000
1000
0000
0001
0000
0101
0000
0010
0000
,
1000
0000
0000
0010
1000
0000
0001
0000
0100
0000
0001
0000
1001
0000
1000
0000
,
0010
0000
0000
0100
0001
0000
0100
0000
0001
0000
0100
0000
0101
0000
1000
0000
,
0020
0000
0000
0000
,
1030
1000
0001
0010
0100
1000
0001
0100
,
0010
1000
0001
1000
0010
0100
0010
1000
,
0001
0000
0000
0100
0000
0000
0001
0000
1000
0000
0100
0000
0010
0000
0001
0000
,
0100
0000
0000
0010
0000
0000
1000
0000
0001
0000
0100
0000
0010
0000
1000
0000
,
0001
0000
0000
0100
0000
0000
0001
0000
0010
0000
0100
0000
1000
0000
0010
0000
,
1000
0000
0000
0001
0000
0000
1000
0000
0100
0000
0010
0000
0001
0000
1000
0000
,
0001
0000
0000
1000
0000
0000
0010
0000
0100
0000
0001
0000
1000
0000
0001
0000
,
1001
0000
0000
0000
1000
0100
1000
0000
0001
0100
0001
0000
1000
0000
0010
0000
,
0100
0000
0001
0000
1000
0100
1000
0000
0100
1000
0100
0000
1000
0000
0100
0000
,
0010
0000
0001
0000
0100
0001
0100
0000
0001
0100
0001
0000
1000
0000
0010
0000
,
0100
0000
0001
0000
1000
0001
1000
0000
0001
1000
0001
0000
0100
0000
0010
0000
,
1000
0000
0001
0000
0010
0001
0010
0000
0001
0010
0001
0000
1000
0000
0100
0000
,
0010
0000
0001
0000
1000
0100
1000
0000
0100
1000
0100
0000
0010
0000
0001
0000
,
0100
0000
0010
0000
1000
0010
1000
0000
0010
1000
0010
0000
0100
0000
0001
0000
,
1000
0000
0010
0000
0100
0010
0100
0000
0010
0100
0010
0000
1000
0000
0001
0000
,
0100
0000
0001
0000
0101
0000
0000
0000
1000
0010
1000
0000
0100
0000
0010
0000
,
0001
0000
0000
0101
0000
0000
1001
0000
0000
0000
1000
0100
1000
0000
0001
0000
,
1000
0000
0000
1001
0000
0000
0101
0000
0001
1000
0001
0000
1000
0000
0100
0000
,
0010
0000
0000
0001
0000
0000
0011
0000
0000
0000
1000
0100
1000
0000
0100
0000
,
0010
0000
0000
0001
0000
0000
1000
0000
0001
1000
0001
0000
1000
0000
0010
0000
,
0100
0000
0000
1001
0000
0000
1001
0000
0000
0000
0010
0100
0010
0000
0100
0000
,
0001
0000
0000
1000
0000
0000
0001
0000
1000
0001
1000
0000
0001
0000
0010
0000
,
0100
0000
0000
1100
0000
0000
1001
0000
0000
0000
0100
0010
0100
0000
0010
0000
,
0001
0000
0000
0001
0000
0000
1000
0000
0010
1000
0010
0000
1000
0000
0001
0000
,
0010
0000
0000
1100
0000
0000
1100
0000
0000
0000
0001
0100
0001
0000
0100
0000
,
0010
0000
0000
1010
0000
0000
1000
0000
0001
1000
0001
0000
1000
0000
0010
0000
,
0100
0000
0000
0110
0000
0000
0101
0000
0000
0000
1000
0001
1000
0000
0001
0000
,
0010
0000
0000
0100
0000
0000
1000
0000
0001
1000
0001
0000
1000
0000
0100
0000
,
0010
0000
0000
0011
0000
0000
1001
0000
0000
0000
1000
0100
1000
0000
0100
0000
,
0010
0000
0000
0001
0000
0000
0100
0000
0001
0100
0001
0000
0010
0000
0100
0000
,
1000
0000
0000
1001
0000
0000
1001
0000
0000
0000
0100
0010
0100
0000
0010
0000
,
1000
0000
0000
1001
0000
0000
1000
0000
2002
0000
0000
0000
0000
0000
0000
0000
,
0000
0000
0000
0000
,
0000
0000
0000
0000
,
3003
0000
0000
0000
;

//---------------dance-single - ----------------
#NOTES:
     dance-single:
     :
     Medium:
     5:
     0.303697,0.353642,0.030226,0.030226,0.000000,211.000000,208.000000,3.000000,3.000000,0.000000,0.000000,0.303697,0.353642,0.030226,0.030226,0.000000,211.000000,208.000000,3.000000,3.000000,0.000000,0.000000:
0000
0000
0000
0000
,
0000
0000
0000
0000
,
0000
0000
0000
0000
,
0000
0000
0001
0010
,
0100
1000
1000
0010
,
0100
0001
0001
1000
,
0010
0100
0100
0001
,
1000
0010
0100
0001
,
1001
1000
1000
0010
,
0010
0100
0100
0001
,
0001
1000
0010
0100
,
0002
0000
0000
0000
0000
0000
0000
0003
,
1000
0010
0100
0001
,
1000
0010
0100
0001
,
1000
0100
0010
0001
,
1000
0100
0010
0001
,
1000
0010
0100
0001
,
1000
0010
0100
0001
,
1000
0100
0010
0001
,
2000
0000
0000
0000
,
3001
0001
0100
0100
,
0010
0010
1000
0001
,
0010
0010
0100
0100
,
1000
0001
1000
0010
,
0100
0100
0001
0001
,
1000
0010
0100
0001
,
1000
1000
0010
0010
,
0101
0001
0001
1000
,
1000
0010
0100
0001
,
1000
0010
0010
0100
,
0100
0001
1000
0010
,
0100
0001
0001
1000
,
1000
0010
0100
0001
,
1000
0010
0010
0100
,
0100
0001
0010
0100
,
1000
1001
1000
0001
,
0100
0000
0010
0000
0100
0000
0001
1000
,
0001
0000
0100
0000
0010
1000
0010
0000
,
0100
0000
0100
0000
0001
0000
1000
0010
,
1000
0000
0001
0000
0100
0010
0100
0000
,
0001
0000
0001
0000
1000
0100
1000
0000
,
0010
0000
0010
0000
1000
0001
1000
0010
,
0100
0000
0001
0000
0001
0000
1000
0010
,
0100
0000
0100
0000
0001
1000
0001
0100
,
0010
0000
0010
0000
0010
0000
1000
0010
,
1000
0000
1000
0000
0001
0100
0001
0000
,
1000
0000
0010
0000
1000
0001
0100
0000
,
0010
0000
0001
0000
1000
0010
0100
0001
,
0010
0000
0010
0000
0100
0001
1000
0001
,
0100
0000
0100
0000
0001
0100
0010
1000
,
0001
0000
0001
0000
1000
0100
0010
0001
,
1000
0001
2000
0000
,
0000
0000
0000
0000
,
0000
0000
0000
0000
,
3000
0000
0000
0000
;

//---------------dance-single - ----------------
#NOTES:
     dance-single:
     :
     Easy:
     3:
     0.260518,0.259438,0.020151,0.010075,0.000000,181.000000,179.000000,2.000000,1.000000,0.000000,0.000000,0.260518,0.259438,0.020151,0.010075,0.000000,181.000000,179.000000,2.000000,1.000000,0.000000,0.000000:
0000
0000
0000
0000
,
0000
0000
0000
0000
,
0000
0000
0000
0000
,
0000
0000
0001
0100
,
0010
0000
0000
1000
,
0010
0100
0001
0000
,
1000
0010
0100
0001
,
0000
0000
1000
0010
,
0100
0100
0100
0001
,
0001
0001
0001
1000
,
0010
0100
0100
0100
,
0002
0000
0000
0000
,
1003
1000
1000
1000
,
1000
0010
0010
0010
,
0100
0100
0100
0100
,
0001
0001
0001
0001
,
1000
1000
1000
1000
,
0010
0100
0001
1000
,
0010
0100
0001
1000
,
0001
0000
1000
0000
,
0110
0001
0001
0001
,
0001
0001
0001
0001
,
1000
1000
1000
1000
,
1000
1000
1000
1000
,
0010
0010
0010
0010
,
0010
0010
0010
0010
,
0100
0100
0100
0100
,
0100
0001
1000
0001
,
0100
0010
1000
0001
,
0100
0010
1000
0001
,
0100
0010
1000
0100
,
0010
0001
1000
0010
,
0100
0001
1000
0100
,
0010
0001
1000
0010
,
0100
0001
1000
0001
,
1000
1001
0001
0001
,
0010
0100
1000
1000
,
0010
0100
0001
0001
,
0100
0010
0000
1000
,
1000
0010
0100
0001
,
1000
1000
0010
0000
,
0100
0100
0001
0001
,
1000
0010
0100
0001
,
1000
0000
1000
1000
,
0010
0010
0100
0001
,
1000
0000
0010
0010
,
0100
0001
1000
0010
,
0010
0100
0001
0100
,
0010
1000
1000
0001
,
0100
0100
0001
1000
,
0010
0100
0001
1000
,
0010
0010
1000
0000
;

//---------------dance-single - Copied from----------------
#NOTES:
     dance-single:
     Copied from:
     Beginner:
     1:
     0.074845,0.103775,0.000000,0.000000,0.000000,52.000000,52.000000,0.000000,0.000000,0.000000,0.000000,0.074845,0.103775,0.000000,0.000000,0.000000,52.000000,52.000000,0.000000,0.000000,0.000000,0.000000:
0000
0000
0000
0000
,
0000
0000
0000
0000
,
0000
0000
0000
0000
,
0000
0000
0000
0000
,
0010
0000
0000
0000
,
0000
0000
0000
0000
,
0010
0000
0000
0000
,
0000
0000
0000
0000
,
1000
0000
0000
0000
,
0000
0000
0000
0000
,
1000
0000
0000
0000
,
0010
0000
0000
0000
,
0100
0000
0000
0000
,
0100
0000
0000
0000
,
0100
0000
0000
0000
,
0100
0000
0000
0000
,
0100
0000
0000
0000
,
0100
0000
0000
0000
,
0001
0000
0000
0000
,
0001
0000
0000
0000
,
0001
0000
0000
0000
,
0001
0000
0000
0000
,
0001
0000
0000
0000
,
0001
0000
0000
0000
,
1000
0000
0000
0000
,
1000
0000
0000
0000
,
1000
0000
0000
0000
,
1000
0010
0000
0000
,
0000
0010
0000
0000
,
0000
0010
0000
0000
,
0000
0010
0000
0000
,
0000
0100
0000
0000
,
0000
0100
0000
0000
,
0000
0100
0000
0000
,
0000
0100
0000
0000
,
0000
0100
0001
0000
,
0000
0000
0000
0000
,
0001
0000
0001
0000
,
0001
0000
0000
0000
,
0001
0000
0000
0000
,
1000
0000
0000
0000
,
1000
0000
1000
0000
,
1000
0000
0000
0000
,
1000
0000
0010
0000
,
0010
0000
0000
0000
,
0010
0000
0010
0000
,
0100
0000
0000
0000
,
0100
0000
0000
0000
,
0100
0000
0000
0000
,
0100
0000
0100
0000
,
0001
0000
0000
0000
,
0001
0000
1000
0000
;
