#TITLE:恋とメリーゴーランド;
#SUBTITLE:;
#ARTIST:ドーリィドルチ;
#TITLETRANSLIT:Love and a merry-go-round;
#SUBTITLETRANSLIT:;
#ARTISTTRANSLIT:DollyDolci;
#GENRE:;
#CREDIT:SupremeX;
#BANNER:Love and a merry-go-round.png;
#BACKGROUND:Love and a merry-go-round-bg.png;
#LYRICSPATH:;
#CDTITLE:CDTitle.png;
#MUSIC:Love and a merry-go-round.ogg;
#OFFSET:-1.971;
#SAMPLESTART:75.010002;
#SAMPLELENGTH:12.000000;
#SELECTABLE:YES;
#BPMS:0.000000=130.000000
;
#STOPS:
;
#BGCHANGES:16.000=city3.avi=1.000=0=0=1=====,
33.000=film1.avi=1.000=0=0=1=====,
64.000=smoke.avi=1.000=0=0=1=====,
96.000=city3.avi=1.000=0=0=1=====,
128.000=film1.avi=1.000=0=0=1=====,
160.000=7 Bird.avi=1.000=0=0=1=====,
189.500=smoke.avi=1.000=0=0=1=====,
203.000=Love and a merry-go-round-bg.png=1.000=0=0=1=====,
99999=-nosongbg-=1.000=0=0=0 // don't automatically add -songbackground-
;
#KEYSOUNDS:;
#ATTACKS:;

//---------------dance-single - ----------------
#NOTES:
     dance-single:
     :
     Beginner:
     1:
     0.109708,0.149161,0.009846,0.029537,0.000000,78.000000,77.000000,1.000000,3.000000,0.000000,0.000000,0.109708,0.149161,0.009846,0.029537,0.000000,78.000000,77.000000,1.000000,3.000000,0.000000,0.000000:
0000
0000
0000
0000
,
0000
0000
0000
0000
,
0000
0000
0000
0000
,
0000
0000
0000
0000
,
0001
0000
1000
0000
,
0001
0000
0000
0000
,
0100
0000
0010
0000
,
0100
0000
0000
0000
,
0001
0000
1000
0000
,
1000
0000
0000
0000
,
0000
0000
0001
0000
,
0001
0000
0001
0000
,
0100
0000
0100
0000
,
0100
0000
0000
0000
,
0000
0000
0000
0000
,
0000
0010
0000
0010
,
0000
1000
0000
0001
,
0000
1000
0000
0010
,
0000
0100
0000
0001
,
0000
1000
0000
0000
,
0010
0000
1000
0000
,
0001
0000
0100
0000
,
0001
0000
1000
0000
,
0100
0000
0010
0000
,
0001
0000
1000
0000
,
0010
0000
0010
0000
,
0100
0000
0100
0000
,
0001
0000
0001
0000
,
1000
0000
0001
0000
,
0100
0000
0010
0000
,
1000
0000
0000
0000
,
0200
0000
0300
0000
,
0010
0000
0001
0000
,
1000
0000
0000
0000
,
0010
0000
0100
0000
,
0001
0000
0000
0000
,
1000
0000
1000
0000
,
0001
0000
0000
0000
,
0100
0000
0100
0000
,
0010
0000
0000
0000
,
1000
0000
1000
0000
,
0001
0000
0000
0000
,
0010
0000
0010
0000
,
0100
0000
0000
0000
,
0001
0000
0001
0000
,
1000
0000
0100
0000
,
0010
0000
0001
0000
,
2002
0000
3003
0100
,
0000
0010
0000
1000
,
0000
0000
0001
0000
,
1000
0000
0010
0000
;

//---------------dance-single - ----------------
#NOTES:
     dance-single:
     :
     Easy:
     3:
     0.215197,0.249833,0.068919,0.078765,0.000000,153.000000,146.000000,7.000000,8.000000,0.000000,0.000000,0.215197,0.249833,0.068919,0.078765,0.000000,153.000000,146.000000,7.000000,8.000000,0.000000,0.000000:
0000
0000
0000
0000
,
0000
0000
0000
0000
,
0000
0000
0000
0000
,
0000
0000
0000
0000
,
1000
0001
1000
0100
,
0010
0000
0001
1000
,
0001
1000
0010
0100
,
0010
0000
0000
0000
,
1000
0002
0000
0000
,
0003
1000
0010
0100
,
0001
1000
0001
0100
,
0010
2000
0000
3000
,
0010
0020
0000
0000
,
0030
0100
0001
1000
,
0001
0100
0010
1000
,
0001
0100
0000
0000
,
0001
2000
0000
0000
,
3000
0100
0010
0001
,
0010
0100
1000
0010
,
0100
0001
0100
0010
,
0000
0200
0000
0000
,
0300
0001
0010
0100
,
1000
0001
0100
0010
,
1000
0001
0001
0001
,
1000
0100
1000
0010
,
1000
0010
0100
0001
,
1000
0100
0010
0001
,
0100
0010
0010
1000
,
0001
0000
0100
0100
,
0001
0000
1000
0000
0020
0000
0000
0130
,
0200
0000
0000
0300
,
0000
0000
0000
0001
,
0001
1000
0100
0010
,
0011
0000
1000
0010
,
1000
0001
0100
0010
,
1010
0000
0000
0001
,
0010
0100
1000
0010
,
0110
0000
1000
0001
,
0100
0010
1000
0001
,
0101
0000
0000
1000
,
1000
0001
0001
0100
,
0110
0000
0001
1000
,
0001
0100
0010
0100
,
0110
0000
0000
0001
,
0010
0100
1000
0010
,
1001
0000
0001
0010
,
0100
1000
0100
0010
,
0002
0000
0000
0003
,
1000
0010
1000
0010
,
0000
0100
0001
0100
,
0001
0010
0100
1000
;

//---------------dance-single - Copied from----------------
#NOTES:
     dance-single:
     Copied from:
     Medium:
     6:
     0.275677,0.324782,0.127993,0.108302,0.000000,196.000000,183.000000,13.000000,11.000000,0.000000,0.000000,0.275677,0.324782,0.127993,0.108302,0.000000,196.000000,183.000000,13.000000,11.000000,0.000000,0.000000:
0000
0000
0000
0000
,
0000
0000
0000
0000
,
0000
0000
0000
0000
,
0000
0000
0000
1000
,
0001
1000
0001
1001
,
0110
0000
0001
1000
,
0010
0000
0100
0001
0100
0000
0010
0000
,
1001
0000
0000
0000
,
1000
2000
0000
0000
,
3000
0000
0001
0000
1000
0000
0001
0100
,
0001
0000
1000
0000
1000
0000
0001
0010
,
0100
0000
1000
0000
0001
0100
0010
0000
,
1000
0200
0000
0000
,
0300
0000
0010
0000
0001
0000
1000
0100
,
1000
0000
0010
0000
0010
0000
1000
0100
,
0010
0001
0020
0000
0000
0030
0000
0000
,
0100
2000
0010
0010
,
3000
0000
0100
0000
0100
0000
0001
0100
,
0001
0000
1000
0000
1000
0000
0001
0010
,
0100
1000
2000
0000
0000
0000
3000
0000
,
0001
0002
0100
0100
,
0003
0000
1000
0000
1000
0000
0001
1000
,
0001
0000
0100
0000
0100
0000
0001
0020
,
0000
0030
0100
1000
0100
0000
0000
0000
,
0010
0001
1000
0010
,
0100
0001
0100
0000
0010
0000
0010
0000
,
1000
0001
0100
0010
,
1000
0100
0010
0001
,
2000
0000
3001
0001
,
0100
0010
1000
0001
,
1000
0100
0010
0001
,
0200
0000
0000
0300
0000
0001
0001
0001
,
1000
0010
0100
0001
,
1001
0000
0000
0000
1000
0100
0010
0000
,
0001
1000
0010
0100
,
0101
0000
0000
0000
0000
1000
1000
1000
,
0010
0100
0100
0001
,
1001
0000
0000
0000
1000
0000
1000
0010
,
1000
0001
0100
0001
,
1010
0000
0000
0000
0000
0100
0100
0100
,
0001
1000
0010
1000
,
1001
0000
0010
0100
,
0010
1000
0001
1000
,
0110
0000
0000
0000
0000
0001
0001
0001
,
1000
0000
0010
1000
0010
0000
0100
0000
,
1001
0000
0000
0000
0001
0010
0100
0000
,
1000
0010
0110
1001
,
0220
0000
0000
0000
0000
0000
0000
0330
,
1000
0000
1000
0000
0001
1000
0001
0000
,
0001
1000
0001
0001
,
1000
0001
1000
0000
0010
0000
0100
0000
;

//---------------dance-single - Copied from----------------
#NOTES:
     dance-single:
     Copied from:
     Hard:
     8:
     0.374134,0.424715,0.255986,0.393825,0.014768,266.000000,240.000000,26.000000,40.000000,0.000000,0.000000,0.374134,0.424715,0.255986,0.393825,0.014768,266.000000,240.000000,26.000000,40.000000,0.000000,0.000000:
0000
0000
0000
0000
,
0000
0000
0000
0000
,
0000
0000
0000
0000
,
0000
0000
0000
0000
0000
1000
1000
1000
,
0010
0000
0010
0100
0001
0000
1010
0000
,
0101
0000
0000
0000
1000
0100
0010
0001
,
0100
0000
0100
0010
1000
0000
1100
0000
,
0011
0000
0000
0000
1000
0000
0000
0000
0000
0001
1000
0001
1000
0000
0001
0000
,
1001
0220
0000
0000
,
0330
0000
1000
0100
0020
0030
0001
0010
,
0200
0300
1000
0010
2000
3000
0001
0010
,
0100
1000
0020
0000
1000
0000
1030
0000
,
0101
2010
0010
0010
,
3010
0000
0100
0001
0020
0030
0100
1000
,
0200
0300
0010
0001
2000
3000
0001
0010
,
0100
1000
0200
0000
0310
0001
1000
0001
,
1001
0210
0010
0010
,
0310
0000
1000
0100
0020
0030
0001
0010
,
0200
0300
1000
0001
2000
3000
0001
0010
,
0100
1000
2100
0000
0100
0000
3100
0000
,
0011
1002
1000
1000
,
1003
0000
0001
0010
0200
0300
1000
0100
,
0020
0030
0001
1000
0200
0300
0010
0002
,
0000
0103
0010
1000
0100
0010
0001
0000
,
2000
0000
3002
0000
0103
0001
0100
0000
,
0002
0000
2003
0000
3010
1000
0010
0000
,
0200
0000
0302
0000
1003
0100
0010
0000
,
0002
0000
0203
0000
0310
0100
0010
0000
,
2000
0000
3000
0010
0010
0100
0001
0010
,
0200
0000
1300
1000
0020
0000
0000
0130
,
0200
0000
0000
0000
0000
0000
0000
0300
,
0000
0001
0010
0100
1000
0010
0010
0010
,
0100
0000
0001
1000
0001
0000
1100
0000
,
0011
0000
0000
0000
1000
0100
0010
0001
,
0001
0000
1000
0010
1000
0000
0101
0000
,
1001
0000
0000
0000
0000
1000
1000
1000
,
0001
0000
0100
0010
1000
0000
0101
0000
,
1010
0000
0000
0000
0001
1000
0001
1000
,
0001
0000
0100
0010
0100
0000
0110
0000
,
1001
0000
0000
0000
0000
0100
0100
0100
,
0001
0000
1000
0100
0020
0000
0032
0000
,
0103
0000
0000
0000
0010
1000
0001
0100
,
0001
0000
1000
1000
0200
0000
0320
0000
,
0031
0000
0000
0000
0000
1000
1000
1000
,
0010
0000
0100
0001
0100
0000
1010
0000
,
0101
0000
0000
0000
0001
0010
0100
1000
,
0010
0000
0100
0001
2000
0000
3001
0000
,
0220
0000
0000
0000
0000
0000
0330
0001
,
1000
0000
0100
0000
0010
0000
0000
0000
0001
0000
0000
1001
0000
0000
0000
0000
,
0000
1000
1000
0100
0010
0001
0100
0000
,
0010
1000
0001
0010
0100
1000
1010
0000
;
