#TITLE:LOVE MACHINE;
#SUBTITLE:;
#ARTIST:MACHOMAN;
#TITLETRANSLIT:;
#SUBTITLETRANSLIT:;
#ARTISTTRANSLIT:;
#GENRE:;
#CREDIT:SupremeX;
#BANNER:LOVE MACHINE.png;
#BACKGROUND:LOVE MACHINE-bg.png;
#LYRICSPATH:;
#CDTITLE:CDTitle.png;
#MUSIC:LOVE MACHINE.ogg;
#OFFSET:-2.250;
#SAMPLESTART:66.019997;
#SAMPLELENGTH:12.000000;
#SELECTABLE:YES;
#BPMS:0.000000=124.000000
;
#STOPS:
;
#BGCHANGES:16.000=face3.avi=1.000=0=0=1=====,
32.000=LOVE MACHINE-bg.png=1.000=0=0=1=====,
36.000=heart1.avi=1.000=0=0=1=====,
52.000=face1.avi=1.000=0=0=1=====,
68.000=fire1.avi=1.000=0=0=1=====,
77.000=cards7.avi=1.000=0=0=1=====,
84.000=light2.avi=1.000=0=0=1=====,
100.000=beads3.avi=1.000=0=0=1=====,
116.000=Basket1AR.avi=1.000=0=0=1=====,
124.000=cards7.avi=1.000=0=0=1=====,
132.000=fire1.avi=1.000=0=0=1=====,
141.000=light2.avi=1.000=0=0=1=====,
148.000=heart1.avi=1.000=0=0=1=====,
156.000=beads3.avi=1.000=0=0=1=====,
164.000=face1.avi=1.000=0=0=1=====,
180.000=light2.avi=1.000=0=0=1=====,
188.000=fire1.avi=1.000=0=0=1=====,
196.000=LOVE MACHINE-bg.png=1.000=0=0=1=====,
99999=-nosongbg-=1.000=0=0=0 // don't automatically add -songbackground-
;
#KEYSOUNDS:;
#ATTACKS:;

//---------------dance-single - ----------------
#NOTES:
     dance-single:
     :
     Hard:
     8:
     0.427577,0.479653,0.172675,0.239827,0.187065,312.000000,294.000000,18.000000,25.000000,0.000000,0.000000,0.427577,0.479653,0.172675,0.239827,0.187065,312.000000,294.000000,18.000000,25.000000,0.000000,0.000000:
0000
0000
0000
0000
,
0000
0000
0000
0000
,
0000
0000
0000
0000
,
0000
0000
0000
0000
,
0100
0000
0000
0100
0001
0000
1000
0020
0000
0000
1030
0000
0000
0000
0000
0000
,
0000
0000
0100
0000
0001
0100
0001
0000
0100
0000
0000
0000
0010
0000
0000
0000
,
0000
0000
1000
0000
0100
0000
1000
0010
0000
0000
0010
0000
0100
0000
0001
0100
,
0000
0000
0100
0000
0010
0000
1000
0010
0000
0000
0000
0000
1001
0000
0000
0000
,
0220
0000
0000
0000
0000
0000
0000
0000
0000
0000
0000
0330
0000
0000
0000
0000
,
0001
0000
0010
0000
0100
0000
1000
0100
0000
1000
0000
0001
0100
0000
0001
0000
,
1000
0000
0100
0000
0010
0000
0001
0010
0000
0001
0000
1000
0010
0000
1000
0000
,
0001
0000
0100
0000
0010
0000
1000
0010
0000
0100
0000
0010
1000
0000
0001
0000
,
0100
0000
0010
0000
1000
0000
0100
1000
0000
0001
0000
0100
0001
0000
0100
0000
,
0010
0000
1000
0000
0001
0000
0100
0010
0000
1000
0000
0001
1000
0000
0010
0000
,
0100
0000
0001
0000
1000
0000
0010
0100
0000
0001
0000
0001
0100
0000
0010
0000
,
1000
0000
0100
0000
1000
0000
0001
0100
0000
0100
0000
0001
1000
0000
0010
0000
,
0100
0000
0001
0000
1000
0000
0010
0100
0000
0100
0000
0001
1000
0000
0010
0000
,
1010
0000
0101
0000
1000
0100
0010
0001
,
0200
0000
0000
0302
0000
0000
0103
0000
0000
0000
0010
0000
1000
0000
0020
0000
,
0000
0030
0000
0000
1000
0000
0100
0000
0010
0000
0001
0000
1000
0000
0100
0000
,
2000
0000
0000
3020
0000
0000
0230
0000
0000
0300
0000
0000
0001
0000
0000
0000
,
0001
0000
1000
0010
0100
0001
1000
0010
,
2000
0000
0000
3002
0000
0000
0103
0000
0100
0000
0000
0000
0010
0000
0000
0000
,
0100
0000
0001
0010
0100
1000
0010
1000
,
0001
0000
0000
0001
0000
0000
0100
0000
0100
0000
0000
0000
0001
0000
0000
0000
,
1000
0010
0100
0002
0000
0003
1000
1000
,
0010
0100
0001
1000
1001
0000
0110
0000
,
0001
0010
0100
2000
0000
0000
3100
0100
,
0000
0010
0001
0010
0110
0000
1100
0000
,
1000
0000
0100
0000
0010
0000
0002
0000
0000
0000
0000
0003
1000
0000
0001
0000
,
1000
0010
0100
0010
0110
0000
1001
0000
,
0001
0010
0100
1000
0010
0100
0010
1000
,
0100
0010
0001
1000
0100
1000
0001
0000
,
1010
0000
0101
0000
1000
0100
0010
0001
,
2000
0000
0000
3200
0000
0000
0310
0000
0000
0000
0010
0000
0001
0000
0002
0000
,
0000
0003
0000
0000
1000
0000
0100
0000
1000
0000
0001
0000
0100
0000
0001
0000
,
0100
0000
0000
0010
0000
0000
1001
0000
0000
0000
1000
0000
0100
0000
0010
0000
,
0001
0000
0100
0010
0100
0001
1000
0001
,
0100
0000
0010
0100
0010
0000
1000
0000
,
0001
0000
0100
0010
1000
0001
0100
0010
,
2000
0000
0000
3002
0000
0000
0203
0000
0000
0301
0000
0000
1000
0000
0100
0000
,
0010
0000
0001
0100
0001
1000
0100
1000
,
0010
0000
0100
0100
0000
0000
1001
0000
,
1001
0000
0010
0100
0001
1000
0100
1000
,
0020
0000
0130
0100
0000
0000
1001
0000
,
1001
0000
0100
0010
0100
0001
1000
0001
,
0100
0000
0010
0010
1000
0100
0010
0001
,
0100
0000
0010
0100
0001
1000
0010
0100
,
0002
0000
0000
2003
0000
0000
3010
0000
0010
0000
0100
0000
0001
0000
1000
0000
,
0220
0000
0000
0000
,
0330
0000
0000
0000
;

//---------------dance-single - ----------------
#NOTES:
     dance-single:
     :
     Medium:
     6:
     0.283681,0.311775,0.143896,0.057558,0.000000,207.000000,192.000000,15.000000,6.000000,0.000000,0.000000,0.283681,0.311775,0.143896,0.057558,0.000000,207.000000,192.000000,15.000000,6.000000,0.000000,0.000000:
0000
0000
0000
0000
,
0000
0000
0000
0000
,
0000
0000
0000
0000
,
0000
0000
0000
0000
,
0010
0100
0001
1000
,
0001
1000
0100
0010
,
0001
1000
0100
1000
,
0001
0100
0001
1000
,
0220
0000
0000
0330
,
0001
0001
0001
0000
1000
0000
1000
0000
,
0010
0010
0010
0000
0100
0000
0100
0000
,
0001
0001
0001
0000
0010
0000
0100
0000
,
1000
1000
1000
0000
0100
0000
0010
0000
,
0001
0100
0001
0000
1000
0000
1000
0000
,
0010
0100
0010
0000
0100
0000
0100
0000
,
0001
1000
0001
0000
1000
0000
1000
0000
,
0010
0100
0001
0000
0100
0000
0100
0000
,
0010
0000
0010
0000
1000
0001
0100
0010
,
1000
0000
0001
0000
0100
0000
0010
1000
,
0010
0100
0001
0001
,
1000
0000
0010
0000
1000
0000
0001
0010
,
0100
0000
1000
0100
0010
0001
0100
0000
,
0100
0000
0010
1000
0010
0000
1000
0001
,
1000
0010
0100
0001
,
1000
0000
0000
1001
0000
0000
0000
0000
,
0010
0000
0010
0100
0000
0000
0100
0001
,
0000
0001
1000
0010
0100
0000
0110
0000
,
0001
0000
1000
0010
0000
0000
0010
1000
,
0000
0001
1000
1001
,
0010
0100
0010
1000
0000
0000
0001
1000
,
0000
0010
0100
1001
,
0010
0010
0100
0100
,
0001
0010
0100
0000
1000
0001
1000
0000
,
0101
1010
0001
1000
,
0010
0000
1000
0000
0000
0001
0001
0001
,
0000
0100
0100
0010
,
0010
0000
0000
1001
0000
0000
0000
0000
,
0100
0100
0001
0001
,
1000
0000
0000
0110
0000
0000
0001
0000
,
1000
0001
0100
0010
,
0100
0000
0000
0220
0000
0000
0330
0000
,
0001
0010
0100
1000
,
0010
0000
0100
0010
0000
0000
1000
0000
,
1001
0010
0010
0100
,
0100
0000
0001
0001
0000
0000
1000
0000
,
1100
0010
0001
0010
,
0100
0000
1000
0010
0000
0010
1000
0000
,
0101
0001
0010
0100
,
1000
0000
0000
1100
0000
0000
0001
0000
,
2002
0000
0000
0000
,
3003
0000
0000
0000
;

//---------------dance-single - ----------------
#NOTES:
     dance-single:
     :
     Easy:
     4:
     0.228863,0.235030,0.038372,0.000000,0.000000,167.000000,163.000000,4.000000,0.000000,0.000000,0.000000,0.228863,0.235030,0.038372,0.000000,0.000000,167.000000,163.000000,4.000000,0.000000,0.000000,0.000000:
0000
0000
0000
0000
,
0000
0000
0000
0000
,
0000
0000
0000
0000
,
0000
0000
0000
0000
,
0010
1000
0001
0100
,
0010
1000
1000
0001
,
0100
0010
1000
0001
,
0001
0100
0010
1000
,
1001
0000
0000
0000
,
0010
0010
0100
0100
,
0001
0001
1000
1000
,
0010
0100
0001
1000
,
0010
0100
0001
1000
,
0010
0010
0100
0100
,
0001
0001
1000
1000
,
0010
0100
0001
1000
,
0010
0100
0001
1000
,
0010
0010
0100
0001
,
0100
0000
0000
0010
0000
0000
0000
1000
,
0000
0001
0100
0010
,
1000
0000
0000
1000
0000
0000
0001
0000
,
0001
0100
0010
1000
,
0001
0000
0000
0001
0000
0000
0100
0000
,
0100
0010
1000
0001
,
1000
0000
0000
1001
0000
0000
0000
0000
,
0010
0100
0001
1000
,
0010
0100
0001
0001
,
1000
0010
0100
0001
,
1000
0010
1000
1000
,
0001
0100
0010
1000
,
0001
1000
0001
0001
,
0100
0010
0100
0100
,
0001
1000
0010
0010
,
1000
1000
0001
0100
,
0100
0000
0000
0010
0000
1000
0000
1000
,
0000
0001
0100
0010
,
1000
0000
0000
1000
0000
0000
0001
0000
,
0001
0100
0010
0100
,
0001
0000
0000
1000
0000
0000
0010
0000
,
0100
0001
1000
0010
,
1000
0000
0000
1000
0000
0000
0000
0000
,
0001
0100
0010
0100
,
0010
0000
0000
0100
0000
0000
0010
0000
,
0010
1000
0001
1000
,
0001
0000
0000
0001
0000
0000
1000
0000
,
1000
0010
0100
0001
,
1000
0000
0000
1001
0000
0000
0000
0000
,
0100
0010
0100
0001
,
1000
0001
1000
0010
,
0110
0000
0000
0000
;

//---------------dance-single - Copied from----------------
#NOTES:
     dance-single:
     Copied from:
     Beginner:
     2:
     0.067151,0.094012,0.000000,0.000000,0.000000,49.000000,49.000000,0.000000,0.000000,0.000000,0.000000,0.067151,0.094012,0.000000,0.000000,0.000000,49.000000,49.000000,0.000000,0.000000,0.000000,0.000000:
0000
0000
0000
0000
,
0000
0000
0000
0000
,
0000
0000
0000
0000
,
0000
0000
0000
0000
,
0010
0000
0000
0000
,
0000
0000
0000
0000
,
0000
0000
0000
0000
,
0000
0000
0000
0000
,
0100
0000
0000
0000
,
0001
0000
0000
0000
,
0001
0000
0000
0000
,
0001
0000
0000
0000
,
0001
0000
0000
0000
,
1000
0000
0000
0000
,
1000
0000
0000
0000
,
1000
0000
0000
0000
,
1000
0000
0000
0000
,
0010
0000
0100
0000
,
0010
0000
0000
0000
,
0000
1000
0000
0001
,
0000
1000
0000
0000
,
0000
0010
0000
0100
,
0000
0010
0000
0000
,
0000
1000
0000
0001
,
0000
1000
0000
0000
,
0010
0000
0000
0000
,
0000
0000
0010
0000
,
0100
0000
0000
0000
,
0000
0000
0100
0000
,
0001
0000
0000
0000
,
0000
0000
1000
0000
,
0001
0000
0000
0000
,
0001
0000
0000
0000
,
0100
0000
0000
0000
,
0100
0000
0000
0000
,
0000
0010
0000
0000
,
0010
0000
0000
0000
,
0000
1000
0000
0000
,
1000
0000
0000
0000
,
0001
0000
0000
0000
,
0001
0000
0000
0000
,
0100
0000
0000
0000
,
0100
0000
0000
0000
,
0100
0010
0000
0000
,
0010
0000
0000
0000
,
1000
0001
0000
0000
,
0001
0000
0000
0000
,
1000
0000
0000
0000
,
0001
0000
0000
0000
,
1000
0000
0000
0000
;
