#TITLE:LOVE GENERATION;
#SUBTITLE:;
#ARTIST:SUZY LAZY;
#TITLETRANSLIT:;
#SUBTITLETRANSLIT:;
#ARTISTTRANSLIT:;
#GENRE:;
#CREDIT:SupremeX;
#BANNER:LOVE GENERATION.png;
#BACKGROUND:LOVE GENERATION-bg.png;
#LYRICSPATH:;
#CDTITLE:CDTitle.png;
#MUSIC:LOVE GENERATION.ogg;
#OFFSET:-1.990;
#SAMPLESTART:41.400002;
#SAMPLELENGTH:12.000000;
#SELECTABLE:YES;
#BPMS:0.000000=152.139999
;
#STOPS:
;
#BGCHANGES:16.000=beads1.avi=1.000=0=0=1=====,
24.000=heart2.avi=1.000=0=0=1=====,
32.000=hana160.avi=1.000=0=0=1=====,
64.000=bubble2.avi=1.000=0=0=1=====,
96.000=LOVE GENERATION-bg.png=1.000=0=0=1=====,
100.000=fabric1.avi=1.000=0=0=1=====,
108.500=bear2.avi=1.000=0=0=1=====,
116.000=fabric1.avi=1.000=0=0=1=====,
124.500=bear2R.avi=1.000=0=0=1=====,
132.000=fabric1.avi=1.000=0=0=1=====,
140.500=bear2.avi=1.000=0=0=1=====,
148.000=fabric1.avi=1.000=0=0=1=====,
156.500=bear2R.avi=1.000=0=0=1=====,
164.000=beads1.avi=1.000=0=0=1=====,
172.000=heart2.avi=1.000=0=0=1=====,
180.000=beads1.avi=1.000=0=0=1=====,
188.000=heart2.avi=1.000=0=0=1=====,
196.000=LOVE GENERATION-bg.png=1.000=0=0=1=====,
99999=-nosongbg-=1.000=0=0=0 // don't automatically add -songbackground-
;
#KEYSOUNDS:;
#ATTACKS:;

//---------------dance-single - ----------------
#NOTES:
     dance-single:
     :
     Hard:
     9:
     0.638569,0.713409,0.238399,0.011920,0.482758,375.000000,355.000000,20.000000,1.000000,0.000000,0.000000,0.638569,0.713409,0.238399,0.011920,0.482758,375.000000,355.000000,20.000000,1.000000,0.000000,0.000000:
0000
0000
0000
0000
,
0000
0000
0000
0000
,
0000
0000
0000
0000
,
0000
0000
0000
0000
,
1000
0000
0010
0000
0100
0000
0010
0100
0000
0000
0001
0000
1000
0000
0001
0000
,
0100
0010
0100
0010
0100
0010
0100
0001
1000
0001
1000
0001
1000
0001
0000
0000
,
1000
0000
0100
0000
0010
0000
0001
0010
0000
0000
0100
0000
1000
0000
0010
0000
,
0100
0001
0100
0001
0100
0001
0100
0001
1000
0010
1000
0010
1000
0010
1000
0000
,
0001
0100
0010
1000
0001
0100
0010
1000
,
0001
1000
0001
1000
0001
1000
0001
1000
0010
0100
0010
0100
0010
0100
0010
0000
,
1000
0100
0010
0001
1000
0100
1000
0001
,
1000
0100
1000
0100
1000
0100
1000
0100
0010
0001
0010
0001
0010
0001
0010
0000
,
0001
0100
0010
1000
0001
0010
0100
1000
,
0010
1000
0010
1000
0010
1000
0010
1000
0001
0100
0001
0100
0001
0100
0001
0000
,
1000
0001
1000
0010
0100
0001
1000
0001
,
0100
0010
0100
0010
0100
0010
0100
0010
1000
0001
1000
0001
1000
0001
1000
0000
,
0001
0000
1000
0000
0010
0100
0001
1000
,
0000
1001
0000
0110
0000
0001
1000
0010
,
0000
1000
0000
0110
0000
0001
0000
1001
,
0000
0110
0000
1001
0000
0000
0000
0000
,
1000
0000
1000
0000
0010
1000
0010
0100
,
0000
0101
0000
1010
0000
0001
0100
0001
,
0000
1100
0000
0011
0000
1001
0000
0000
,
1000
0000
0010
1000
0000
1000
0001
0000
,
0001
0000
0100
0020
0000
0030
0000
0000
,
1000
0000
0000
0000
0001
0000
0000
1000
0000
0000
1001
0000
0000
0000
0000
0000
,
0001
0010
0100
1000
0010
1000
0001
0000
,
0000
0100
0010
1000
0001
1000
0010
0100
,
0000
0101
0000
0000
0010
1000
0010
0000
,
1000
0000
0000
0000
0001
0000
0000
0100
0000
0000
1010
0000
0000
0000
0000
0000
,
1000
0001
0100
0010
1000
0001
0100
0000
,
0000
0010
1000
0001
0100
0010
1000
0010
,
0000
0100
0000
0000
0001
1000
0001
0000
,
0100
0000
0000
0000
0010
0000
0000
0100
0000
0000
0110
0000
0000
0000
0000
0000
,
0001
0010
0100
1000
0010
1000
0001
0000
,
0000
1000
0010
0100
0001
1000
0100
0010
,
0000
0011
0000
0000
0100
1000
0100
0000
,
0010
0000
0000
0000
0001
0000
0000
1000
0000
0000
1001
0000
0000
0000
0000
0000
,
0010
0100
0001
1000
0010
0100
0001
0000
,
0000
1000
0100
1000
0001
0100
0001
1000
,
0000
1100
0000
0000
0010
0001
0010
0000
,
0100
0000
1000
0000
0010
0000
1000
0010
0000
0000
0100
0000
0001
0000
0000
0000
,
1000
0100
1000
0100
1000
0100
1000
0001
0010
0001
0010
0001
0010
0001
0000
0000
,
1000
0000
0010
0000
0100
0000
0010
0100
0000
0000
0001
0000
1000
0000
0000
0000
,
0010
1000
0010
1000
0010
1000
0010
1000
0001
0100
0001
0100
0001
0100
0001
0000
,
0010
0000
0100
0000
1000
0000
0100
1000
0000
0000
0001
0000
1000
0000
0000
0000
,
0010
0100
0010
0100
0010
0100
0010
1000
0001
1000
0001
1000
0001
1000
0000
0000
,
0010
0000
0100
0000
0001
0000
1000
0001
0000
0000
1000
0000
0100
0000
0000
0000
,
0010
0001
0010
0001
0010
0001
0010
0001
1000
0100
1000
0100
1000
0100
1000
0000
,
0010
0000
0000
0000
0100
0000
0000
0001
0000
0000
1100
0000
0000
0000
1001
0000
;

//---------------dance-single - ----------------
#NOTES:
     dance-single:
     :
     Medium:
     7:
     0.384844,0.386430,0.023840,0.000000,0.029800,226.000000,224.000000,2.000000,0.000000,0.000000,0.000000,0.384844,0.386430,0.023840,0.000000,0.029800,226.000000,224.000000,2.000000,0.000000,0.000000,0.000000:
0000
0000
0000
0000
,
0000
0000
0000
0000
,
0000
0000
0000
0000
,
0000
0000
0000
0000
,
1000
0000
0001
0000
1000
0010
0100
0000
,
0100
0001
1000
0001
0100
0010
1000
0000
,
1000
0000
0001
0000
0100
0001
0100
0000
,
0010
1000
0001
0100
0010
1000
0001
0000
,
0100
0001
1000
0010
,
0100
0001
1000
0010
0100
0001
1000
0100
,
0010
0010
0100
0100
,
0001
0100
0010
1000
0100
0010
0001
0000
,
0010
0010
1000
1000
,
0010
0100
0010
0100
0001
1000
0001
0000
,
0100
0100
0001
0001
,
1000
0100
0010
0001
1000
0010
1000
0000
,
0001
0000
0100
0000
0010
0000
1000
0010
,
0000
1000
0000
1000
0000
0000
0000
0010
,
0000
0100
0000
0001
0000
1000
0000
0010
,
0000
0100
0000
0001
0000
0000
0000
0000
,
1000
0000
1000
0000
0100
0010
0001
0100
,
0000
0010
0000
0010
0000
1000
0000
0010
,
0000
0100
0000
0001
0000
1000
0000
0000
,
0010
0000
0000
0100
0000
0000
0000
0000
,
0001
0000
0000
1001
0000
0000
0000
0000
,
1000
0000
0000
0000
0001
0000
0000
0100
0000
0000
0001
0000
0000
0000
0000
0000
,
0010
0000
0010
0000
0100
1000
0100
0000
,
0000
0010
0001
0000
0010
0000
0100
1000
,
0000
1000
0000
0000
0100
0000
0010
0000
,
0001
0000
0000
0000
1000
0000
0000
0010
0000
0000
1000
0000
0000
0000
0000
0000
,
0100
0000
0010
0000
0001
1000
0001
0000
,
0000
1000
0010
0000
0010
1000
0100
1000
,
0000
0010
0000
0000
0100
0001
0100
0000
,
0010
0000
0000
0000
1000
0000
0000
0001
0000
0000
1000
0000
0000
0000
0000
0000
,
0010
0000
0010
0000
0100
0001
0100
0000
,
0000
0010
1000
0000
0010
0000
1000
0001
,
0000
0001
0000
0000
1000
0000
0100
0000
,
0010
0000
0000
0000
0001
0000
0000
1000
0000
0000
0001
0000
0000
0000
0000
0000
,
1000
0000
0010
0000
0100
0001
0100
0000
,
0000
0001
0010
0000
0100
1000
0100
0010
,
0000
0001
0000
0000
1000
0001
1000
0000
,
0010
0000
0100
0000
0001
1000
0001
0000
,
1000
0100
0010
0001
0100
0010
1000
0000
,
0001
1000
0010
0100
,
0001
1000
0001
1000
0010
0100
0010
0100
,
0001
1000
0010
0100
,
0001
0100
0010
1000
0001
0100
0010
0000
,
1000
0000
1000
0000
0001
0100
0001
0000
,
1000
0100
0010
0001
1000
0001
0100
0000
,
0010
0000
0000
0000
1000
0000
0000
0001
0000
0000
1000
0000
0000
0000
1001
0000
;

//---------------dance-single - ----------------
#NOTES:
     dance-single:
     :
     Easy:
     3:
     0.291187,0.267528,0.047680,0.000000,0.000000,171.000000,167.000000,4.000000,0.000000,0.000000,0.000000,0.291187,0.267528,0.047680,0.000000,0.000000,171.000000,167.000000,4.000000,0.000000,0.000000,0.000000:
0000
0000
0000
0000
,
0000
0000
0000
0000
,
0000
0000
0000
0000
,
0000
0000
0000
0000
,
1000
0001
1000
0010
,
0100
0010
0100
0010
,
1000
0001
1000
0001
,
0100
0010
0100
0010
,
1000
0001
0100
0010
,
1000
1000
0001
0001
,
0100
0010
1000
0001
,
0100
0100
0010
0010
,
1000
0001
0100
0010
,
1000
1000
0001
0001
,
0100
0010
1000
0001
,
0100
0100
0010
0010
,
1000
0001
1000
0010
,
0100
0010
0100
0001
,
0001
0010
0010
0100
,
0100
1000
1000
0000
,
0010
0000
0100
0000
0001
0000
1000
0010
,
0000
0100
0000
0100
0000
0001
0000
0001
,
0000
1000
0000
1000
0000
0010
0000
0000
,
0100
0000
0000
0110
0000
0000
0000
0000
,
0001
0000
0000
1001
0000
0000
0000
0000
,
1000
1000
0010
0000
,
0100
0010
0100
0100
,
0000
0001
1000
0010
,
0100
0000
0001
0001
,
1000
0010
0100
0000
,
0001
0001
1000
1000
,
0000
0010
0100
0010
,
0000
0100
0000
0000
0010
0000
0010
0000
,
1000
0001
0001
0000
,
1000
0010
1000
0010
,
0000
0100
0100
0001
,
1000
0010
0100
0100
,
0001
0010
0100
0000
,
1000
1000
0010
0010
,
0000
0100
0001
1000
,
0010
0000
0100
0100
,
0010
0010
1000
1000
,
0001
1000
0001
1000
,
0010
0010
0100
0100
,
0001
0010
0100
1000
,
0010
0010
0100
0100
,
0001
1000
0010
0100
,
0001
0001
1000
1000
,
0010
0100
0001
1000
,
0010
0000
0000
0000
1010
0000
0000
1001
;

//---------------dance-single - Copied from----------------
#NOTES:
     dance-single:
     Copied from:
     Beginner:
     1:
     0.074925,0.089176,0.000000,0.000000,0.000000,44.000000,44.000000,0.000000,0.000000,0.000000,0.000000,0.074925,0.089176,0.000000,0.000000,0.000000,44.000000,44.000000,0.000000,0.000000,0.000000,0.000000:
0000
0000
0000
0000
,
0000
0000
0000
0000
,
0000
0000
0000
0000
,
0000
0000
0000
0000
,
0001
0000
0000
0000
,
0001
0000
0000
0000
,
1000
0000
0000
0000
,
1000
0000
0000
0000
,
0010
0000
0000
0000
,
0010
0000
0000
0000
,
0100
0000
0000
0000
,
0100
0000
0000
0000
,
0010
0000
0000
0000
,
0010
0000
0000
0000
,
0100
0000
0000
0000
,
0100
0000
0000
0000
,
0001
0000
0000
0000
0000
0000
0000
1000
,
0000
0000
0000
0000
0000
0000
0000
0001
,
0000
0000
0000
0000
0000
0000
0000
1000
,
0000
0000
0000
0000
,
0010
0000
0000
0000
0000
0000
0000
0010
,
0000
0000
0000
0000
0000
0000
0000
0100
,
0000
0000
0000
0000
,
0001
0000
0000
0000
,
1000
0000
0000
0000
,
0010
0000
0000
0000
,
1000
0000
0000
0000
,
0001
0000
0000
0000
,
0000
0000
0000
0000
,
1000
0000
0000
0000
,
0010
0000
0000
0000
,
0100
0000
0000
0000
,
0000
0000
0000
0000
,
0001
0000
0000
0000
,
1000
0000
0000
0000
,
0010
0000
0000
0000
,
0000
0000
0000
0000
,
1000
0000
0000
0000
,
0001
0000
0000
0000
,
0100
0000
0000
0000
,
0000
0000
0010
0000
,
1000
0000
0000
0000
,
1000
0000
0000
0000
,
0100
0000
0000
0000
,
0100
0000
0000
0000
,
0010
0000
0000
0000
,
0010
0000
0000
0000
,
0001
0000
0000
0000
,
0001
0000
0000
0000
,
1000
0000
0000
0000
0000
0000
0000
0010
;
