#TITLE:LET IT SNOW;
#SUBTITLE:;
#ARTIST:ROSE & JOHN;
#TITLETRANSLIT:;
#SUBTITLETRANSLIT:;
#ARTISTTRANSLIT:;
#GENRE:;
#CREDIT:SupremeX;
#BANNER:LET IT SNOW.png;
#BACKGROUND:LET IT SNOW-bg.png;
#LYRICSPATH:;
#CDTITLE:U4m7uXJ.png;
#MUSIC:LET IT SNOW.ogg;
#OFFSET:-0.257944;
#SAMPLESTART:33.490002;
#SAMPLELENGTH:12.000000;
#SELECTABLE:YES;
#BPMS:0.000000=170.690994
;
#STOPS:
;
#BGCHANGES:16.000=bubble1r.avi=1.000=0=0=1=====,
32.000=snow3.avi=1.000=0=0=1=====,
47.000=bubble4r.avi=1.000=0=0=1=====,
63.500=snow3.avi=1.000=0=0=1=====,
79.500=bubble4r.avi=1.000=0=0=1=====,
96.000=mikeneko2.avi=1.000=0=0=1=====,
112.000=mikeneko1.avi=1.000=0=0=1=====,
120.000=LET IT SNOW-bg.png=1.000=0=0=1=====,
128.000=bubble1r.avi=1.000=0=0=1=====,
135.750=snow4.avi=1.000=0=0=1=====,
144.000=bubble1r.avi=1.000=0=0=1=====,
151.750=snow4.avi=1.000=0=0=1=====,
160.000=snow3.avi=1.000=0=0=1=====,
175.000=bubble4r.avi=1.000=0=0=1=====,
192.000=snow3.avi=1.000=0=0=1=====,
207.000=bubble4r.avi=1.000=0=0=1=====,
223.000=mikeneko2.avi=1.000=0=0=1=====,
240.000=mikeneko1.avi=1.000=0=0=1=====,
256.000=LET IT SNOW-bg.png=1.000=0=0=1=====,
99999=-nosongbg-=1.000=0=0=0 // don't automatically add -songbackground-
;
#KEYSOUNDS:;
#ATTACKS:;

//---------------dance-single - ----------------
#NOTES:
     dance-single:
     :
     Hard:
     8:
     0.485867,0.552808,0.280723,0.140361,0.064782,315.000000,289.000000,26.000000,13.000000,0.000000,0.000000,0.485867,0.552808,0.280723,0.140361,0.064782,315.000000,289.000000,26.000000,13.000000,0.000000,0.000000:
0000
0000
0000
0000
,
0000
0000
0000
0000
,
0000
0000
0000
0000
,
0000
0000
0000
0000
,
1000
0000
0001
0010
0100
1000
0100
0000
,
0010
0000
0000
0000
0101
0000
0000
0000
1010
0000
0000
0000
0000
0000
0000
0100
,
0001
0000
0000
0001
0100
0000
0000
0100
0010
0000
0000
0010
1000
0000
0100
0000
,
1000
0010
0100
0001
1000
0000
0000
0000
,
0010
0100
0001
1000
,
1001
0000
1001
0000
0010
0000
0100
0010
,
0100
0000
0001
0100
0001
0000
1000
0010
,
1000
0000
1010
0000
0000
0000
0001
0010
,
0000
0100
1000
0100
0000
0010
0000
0001
,
0000
0100
0000
0010
0000
1000
0100
1000
,
0000
0010
0100
0010
0000
1000
0100
1000
,
0010
0000
0010
0000
0100
0000
0100
0001
,
0010
0100
1000
0000
0010
0000
0100
0000
,
0101
0000
0101
0000
0000
0000
1000
0010
,
2000
0000
3000
0001
0200
0000
0300
0010
,
1000
0000
1010
0000
0000
0000
0001
0010
,
0000
0100
1000
0100
0000
0010
0000
0011
,
0000
1000
0000
0001
0000
0100
0010
0100
,
0000
0010
1000
0010
0000
0100
0001
0100
,
0010
0000
1000
0000
0010
0000
0100
0001
,
1000
0001
0100
0000
0010
0000
0101
0000
,
2020
0000
3030
0000
0000
0000
0100
0010
,
0100
0001
1000
0001
,
1001
0100
0010
0001
,
0100
0010
0100
0001
0010
0001
0000
2000
,
0000
3000
0000
0000
0000
0000
0000
0000
,
0010
0100
0010
0100
0000
0001
1000
0002
,
0000
0000
0000
0003
0000
0000
0000
0000
,
0100
0010
0100
0010
1000
0100
1000
0010
,
0100
0000
0010
0000
1000
0000
0001
0000
2000
0000
0000
0000
3000
0000
0000
0010
,
0100
0000
0000
0100
0001
0000
0000
0001
1000
0000
0000
1000
0100
0000
0000
0000
,
0010
0001
0010
0100
2000
0000
3000
0000
,
0010
0000
0100
0001
0100
0010
1000
0000
,
0001
0000
0000
0000
1001
0000
0000
0000
1001
0000
0000
0000
0000
0000
0000
0100
,
0001
0000
0000
0001
1000
0000
0000
1000
0010
0000
0000
0010
0100
0000
0001
0000
,
1000
0001
0100
0010
0200
0000
0300
0000
,
0001
0010
0100
1000
,
0110
0000
0110
0000
0001
0000
1000
0100
,
1000
0000
0010
1000
0010
0000
0100
0001
,
0100
0000
1001
0000
0000
0000
0010
0100
,
0000
0010
1000
0010
0000
0100
0000
0001
,
0000
0010
0000
0100
0000
1000
0100
1000
,
0000
0010
0100
0010
0000
1000
0001
1000
,
0010
0000
0100
0000
0001
0000
0100
0010
,
1000
0010
0100
0000
0001
0000
1000
0000
,
1010
0000
0101
0000
0000
0000
1000
0010
,
1000
0000
0000
0001
1000
0000
0000
0010
,
0100
0000
0110
0000
0000
0000
0001
0010
,
0000
0100
1000
0100
0000
0010
0000
0011
,
0000
0110
0000
1000
0000
1000
0010
1000
,
0000
0010
0100
0010
0000
1000
0100
1000
,
0001
0000
0010
0000
0100
0000
1000
0100
,
0010
0001
0100
0000
0001
0000
1010
0000
,
0202
0000
0303
0000
0000
0000
0010
0100
,
0010
1000
0100
1000
,
1001
0001
0010
0001
,
1000
0100
0010
0001
0100
0010
0000
2000
,
0000
3000
0000
0000
0000
0000
0000
0000
,
0001
0010
0100
1000
0000
0010
0100
0002
,
0000
0000
0003
0000
,
1001
0000
0000
0000
;

//---------------dance-single - ----------------
#NOTES:
     dance-single:
     :
     Medium:
     6:
     0.393321,0.445648,0.259129,0.043188,0.000000,255.000000,231.000000,24.000000,4.000000,0.000000,0.000000,0.393321,0.445648,0.259129,0.043188,0.000000,255.000000,231.000000,24.000000,4.000000,0.000000,0.000000:
0000
0000
0000
0000
,
0000
0000
0000
0000
,
0000
0000
0000
0000
,
0000
0000
0000
0000
,
1000
1000
0010
0010
,
0100
0001
0100
0000
,
0011
0011
0011
1000
,
1000
0010
0100
0000
,
0001
0100
0010
1000
,
1001
1001
0010
0100
,
0100
0000
0001
0000
0001
0000
0000
0010
,
0100
0000
0110
0000
0000
0000
1000
1000
,
0000
0100
0000
0010
0000
0001
0000
0100
,
0000
0010
0000
1000
0000
0010
0100
0010
,
0000
0100
0010
0100
0000
0001
0100
0001
,
1000
1000
0100
0100
,
0010
0010
0001
0001
,
1000
1001
0000
0010
,
0010
0100
0100
0001
,
0001
0000
0101
0000
0000
0000
0010
0100
,
0000
0010
0000
1000
0000
0010
0000
0100
,
0000
0001
0000
1000
0000
0010
0100
0010
,
0000
0100
0010
0100
0000
0001
0100
0001
,
1000
0001
1000
0010
,
0010
0100
0001
0101
,
1010
0000
0000
0100
,
0100
0001
1000
0001
,
0101
0010
1000
0010
,
0100
0000
0001
0000
1000
0000
0000
1000
,
0000
0000
0000
0000
,
0010
0000
0100
0010
0000
1000
0001
2000
,
0000
0000
0000
3000
0000
0000
0000
0000
,
0010
0010
1000
1000
,
0001
0100
0001
0000
,
1010
1010
0100
0001
,
0100
0010
2000
3000
,
0001
0100
0001
1000
,
0001
1000
1001
0000
,
0011
0011
0110
0110
,
1000
0010
0100
0000
,
0001
0010
0100
1000
,
0010
0100
0001
1000
,
1000
0010
0010
0100
,
0100
0000
1001
0000
0000
0000
0001
0100
,
0000
0100
0000
0010
0000
1000
0000
0001
,
0000
0010
0000
0100
0000
1000
0100
1000
,
0000
0010
1000
0010
0000
1000
0010
1000
,
0010
0100
0001
1000
,
0010
0010
0100
0001
,
0101
0000
1001
0000
0000
0000
0100
0010
,
0100
0000
0000
0001
1000
0000
0000
0010
,
0100
0000
0110
0000
0000
0000
0001
0010
,
0000
0100
0000
1000
0000
0100
0000
0010
,
0000
0001
0000
0100
0000
0010
1000
0010
,
0000
0100
0001
0100
0000
0010
0100
0010
,
1000
0000
0001
0000
1000
0010
0100
0000
,
0001
0010
0100
1000
,
1010
0000
0000
0001
,
0001
0100
0100
0010
,
0110
1000
0100
0010
,
0001
0000
0010
0000
0001
1000
0000
2000
,
0000
3000
0000
0000
0000
0000
0000
0000
,
0010
0000
0100
0010
0000
1000
0010
0200
,
0000
0000
0300
0000
;

//---------------dance-single - ----------------
#NOTES:
     dance-single:
     :
     Easy:
     3:
     0.265299,0.305489,0.118767,0.053985,0.000000,172.000000,161.000000,11.000000,5.000000,0.000000,0.000000,0.265299,0.305489,0.118767,0.053985,0.000000,172.000000,161.000000,11.000000,5.000000,0.000000,0.000000:
0000
0000
0000
0000
,
0000
0000
0000
0000
,
0000
0000
0000
0000
,
0000
0000
0000
0000
,
0010
0010
0100
0100
,
0001
0001
0001
0000
,
1000
1000
1000
0010
,
0100
0010
0200
0300
,
0001
0001
0001
0001
,
1000
0001
0000
0000
,
0100
0100
0100
0010
,
0100
0000
0010
0000
0000
0000
0000
1000
,
0000
0000
0000
0001
0000
0000
0000
1001
,
0000
0000
0000
0000
0000
0100
0000
0010
,
0000
0100
0000
0010
0000
0100
0000
0010
,
0000
0000
0000
0000
,
1000
1000
1000
0001
,
1000
0001
0000
0000
,
0100
0100
0100
0100
,
0010
0000
0100
0000
0000
0000
0000
0001
,
0000
0000
0000
0001
0000
0000
0000
1001
,
0000
0000
0000
0110
0000
0000
0000
1000
,
0000
0010
0000
1000
0000
0010
0000
0100
,
0000
0000
0000
0000
,
0001
0100
0001
0100
,
0020
0000
0000
0030
0000
0000
0000
0000
,
1000
0010
1000
0010
,
0200
0000
0300
0000
,
0001
0000
1000
0001
,
1000
0010
0100
0000
,
0001
0000
0000
1001
0000
0000
0000
0110
,
0000
0000
0000
0000
,
1000
0010
0100
0001
,
1000
1000
1000
0000
,
0010
0010
0010
0010
,
0100
0001
0100
0000
,
0010
1000
0100
0010
,
0001
0100
0010
0000
,
1000
1000
1000
0001
,
0100
0010
0100
0000
,
0001
0001
0001
0001
,
1000
0001
0000
0000
,
0100
0100
0100
0100
,
0010
0000
0100
0000
0000
0000
0000
0010
,
0000
0000
0000
1000
0000
0000
0000
1001
,
0000
0000
0000
0000
0000
0000
0000
0010
,
0000
0100
0000
0010
0000
0100
0000
0010
,
0000
0000
0000
0000
,
1000
0100
0010
0001
,
0100
0010
0000
0000
,
1000
0100
0010
0001
,
0100
0000
0010
0000
0000
0000
0000
1000
,
0000
0000
0000
0001
0000
0000
0000
0110
,
0000
0000
0000
1001
0000
0000
0000
0010
,
0000
0100
0000
0010
0000
0100
0000
0010
,
0000
0000
0000
0000
,
1000
0100
0010
0001
,
0200
0000
0000
0300
0000
0000
0000
0000
,
0001
0010
0100
1000
,
0020
0000
0030
0000
,
0100
0000
0001
0000
0100
0000
0000
0110
,
0000
0000
0000
0000
,
0001
0000
0000
1001
0000
0000
0000
1010
;

//---------------dance-single - Copied from----------------
#NOTES:
     dance-single:
     Copied from:
     Beginner:
     2:
     0.106428,0.135773,0.010797,0.000000,0.000000,69.000000,68.000000,1.000000,0.000000,0.000000,0.000000,0.106428,0.135773,0.010797,0.000000,0.000000,69.000000,68.000000,1.000000,0.000000,0.000000,0.000000:
0000
0000
0000
0000
,
0000
0000
0000
0000
,
0000
0000
0000
0000
,
0000
0000
0000
0000
,
0010
0000
0000
0000
,
0010
0000
0000
0000
,
0010
0000
0000
0000
,
0010
0000
0000
0000
,
0100
0000
0000
0000
,
0100
0000
0000
0000
,
0100
0000
0000
0000
,
0100
0000
0000
0000
,
0001
0000
0000
0000
0000
0000
0000
0001
,
0000
0000
0000
0000
0000
0000
0000
0001
,
0000
0000
0000
0001
0000
0000
0000
0001
,
0000
0000
0000
0000
,
1000
0000
0000
0000
,
1000
0000
0000
0000
,
1000
0000
0000
0000
,
1000
0000
0000
0000
,
0010
0000
0000
0000
0000
0000
0000
0010
,
0000
0000
0000
0000
0000
0000
0000
0010
,
0000
0000
0000
0010
0000
0000
0000
0010
,
0000
0000
0000
0000
,
0100
0000
0000
0000
,
0100
0000
0000
0000
,
0100
0000
0000
0000
,
0100
0000
0000
0000
,
0001
0000
0000
0000
0000
0000
0000
0001
,
0000
0000
0000
0000
,
0001
0000
0000
0000
,
1001
0000
0000
0000
,
1000
0000
0000
0000
,
1000
0000
0000
0000
,
1000
0000
0000
0000
,
1000
0000
0000
0000
,
0010
0000
0000
0000
,
0010
0000
0000
0000
,
0010
0000
0000
0000
,
0010
0000
0000
0000
,
0100
0000
0000
0000
,
0100
0000
0000
0000
,
0100
0000
0000
0000
,
0100
0000
0000
0000
0000
0000
0000
0001
,
0000
0000
0000
0000
0000
0000
0000
0001
,
0000
0000
0000
0000
0000
0000
0000
0001
,
0000
0000
0000
0001
0000
0000
0000
0001
,
0000
0000
0000
0000
,
0100
0000
0000
0000
,
0100
0000
0000
0000
,
0010
0000
0000
0000
,
0010
0000
0000
0000
0000
0000
0000
1000
,
0000
0000
0000
0000
0000
0000
0000
1000
,
0000
0000
0000
0000
0000
0000
0000
0001
,
0000
0000
0000
0001
0000
0000
0000
1000
,
0000
0000
0000
0000
,
0010
0000
0100
0000
,
0010
0000
0000
0000
,
1000
0000
0001
0000
,
1000
0000
0000
0000
,
0010
0000
0000
0000
0100
0000
0000
0010
,
0000
0000
0000
0000
,
1000
0000
0000
0000
0001
0000
0000
1000
;

//---------------dance-single - ----------------
#NOTES:
     dance-single:
     :
     Challenge:
     9:
     0.579955,0.691010,0.367099,0.161956,0.145760,376.000000,342.000000,34.000000,15.000000,0.000000,0.000000,0.579955,0.691010,0.367099,0.161956,0.145760,376.000000,342.000000,34.000000,15.000000,0.000000,0.000000:
0000
0000
0000
0000
,
0000
0000
0000
0000
,
0000
0000
0000
0000
,
0000
0000
0000
0000
,
1000
0000
0001
0010
0100
1000
0001
0000
,
1000
0000
0010
1000
0010
1000
0010
1000
0010
0000
0000
0000
0000
0000
0000
0100
,
0001
0000
0000
0001
1000
0000
0000
1000
0010
0000
0000
0010
0100
0000
0001
0000
,
1000
0010
0100
0001
1000
0000
0000
0010
,
0100
0010
0100
0000
0001
0000
1000
0000
,
1001
0000
1001
0000
0010
0000
1000
0010
,
2000
0000
3001
0100
0002
0000
0000
1003
,
1000
0000
1001
0000
0000
0000
1000
0100
,
0000
1000
0001
0100
0000
0001
0000
0101
,
0000
0010
0000
1000
0000
0010
0100
0010
,
0000
1000
0001
1000
0000
0001
0010
0100
,
1000
0010
1000
0001
0100
0010
1000
0001
,
0010
0100
1000
0000
0001
0000
1000
0000
,
0101
0000
1010
0000
0000
0000
1000
0100
,
2000
0000
3000
0010
0200
0000
0300
0001
,
1000
0000
1001
0000
0000
0000
0010
0100
,
0000
0001
1000
0001
0000
1000
0000
1010
,
0000
0001
0000
0101
0000
1000
0100
1000
,
0000
0001
1000
0001
0000
1000
0100
0010
,
0001
0100
0001
0100
0001
0100
0001
0100
0001
0100
0000
0000
0010
0000
1000
0000
,
0001
1000
0010
0000
1000
0000
1100
0000
,
0022
0000
0033
0000
0000
0000
1000
0100
,
1000
0001
0101
1010
,
1001
0100
0010
1000
0010
1000
0001
0000
,
0100
0010
1000
0001
1000
0010
0000
1001
,
1000
0001
1000
0100
0010
0001
0100
0001
,
1000
0010
1000
0001
0000
0001
0100
0200
,
0000
0000
0000
0300
0000
0000
0000
0000
,
0001
0010
0100
1000
0010
1000
0100
0010
,
0001
0000
1000
0001
1000
0001
1000
0001
0200
0000
0000
0000
0300
0000
0000
0010
,
1000
0000
0000
1000
0001
0000
0000
0001
0100
0000
0000
0100
0010
0000
0000
0000
,
1000
0001
0010
0100
2000
0000
3000
0000
,
0001
0000
0001
0100
0010
1000
0001
0000
,
1000
0100
1000
0100
1000
0100
1000
0100
1000
0000
0000
0000
0000
0000
0000
0001
,
0100
0000
0000
0100
0010
0000
0000
0010
1000
0000
0000
1000
0001
0000
0100
0000
,
0001
1000
0100
0010
0002
0000
0003
0000
,
1000
1100
0001
0011
,
1000
0000
1001
0000
0100
0000
0001
0001
,
2000
0000
3000
0100
0020
0000
0030
0001
,
1000
0000
1001
0000
0000
0000
0100
0001
,
0000
0001
1000
0010
0000
0101
0000
1010
,
0000
0001
0000
0001
0000
1000
0010
1000
,
0000
0010
1000
0010
0000
0100
0001
0100
,
0010
1000
0001
1000
0001
0100
0010
1000
,
0001
0100
0010
0000
1000
0000
0101
0000
,
1010
0000
0101
0000
0000
0000
1000
0010
,
2000
0000
0000
3001
0002
0000
0000
0103
,
0100
0000
1010
0000
0000
0000
0001
0100
,
0000
0100
0010
1000
0000
1000
0000
0011
,
0000
0110
0000
1100
0000
0001
1000
0001
,
0000
1000
0100
1000
0000
0010
0100
0001
,
1000
0100
0010
0001
1000
0100
1000
0001
,
1000
0010
0100
0000
0001
0000
1100
0000
,
0011
0000
1000
1000
0000
0000
0001
0100
,
0001
1000
1100
0011
,
1000
0100
0010
0001
0010
0100
1000
0000
,
0010
0100
0010
1000
0001
1000
0000
0101
,
0010
1000
0010
1000
0100
0010
0001
0010
,
0100
1000
0010
1000
0000
0001
0010
0200
,
0000
0000
0300
0000
,
1001
0000
0000
0000
;
