#TITLE:LADIES NIGHT;
#SUBTITLE:;
#ARTIST:ATOMIC KITTEN;
#TITLETRANSLIT:;
#SUBTITLETRANSLIT:;
#ARTISTTRANSLIT:;
#GENRE:;
#CREDIT:SupremeX;
#BANNER:LADIES NIGHT.png;
#BACKGROUND:LADIES NIGHT-bg.png;
#LYRICSPATH:;
#CDTITLE:CDTitle.png;
#MUSIC:LADIES NIGHT.ogg;
#OFFSET:-0.038654;
#SAMPLESTART:28.990000;
#SAMPLELENGTH:12.000000;
#SELECTABLE:YES;
#BPMS:0.000000=128.000000
,3.000000=132.000000
,6.000000=128.000000
,9.000000=132.001007
,12.000000=128.001007
,15.000000=132.000000
,18.000000=128.000000
,21.000000=132.000000
,24.000000=128.000000
,27.000000=132.000000
,30.000000=128.000000
;
#STOPS:
;
#BGCHANGES:16.000=afro1.avi=1.000=0=0=1=====,
32.000=12 Night.avi=1.000=0=0=1=====,
48.000=discoball1.avi=1.000=0=0=1=====,
64.000=Tracy3.avi=1.000=0=0=1=====,
78.500=6 Disco.avi=1.000=0=0=1=====,
95.000=dance12.avi=1.000=0=0=1=====,
108.000=afro1.avi=1.000=0=0=1=====,
127.000=12 Night.avi=1.000=0=0=1=====,
144.000=blinds1.avi=1.000=0=0=1=====,
160.000=Tracy3.avi=1.000=0=0=1=====,
176.000=6 Disco.avi=1.000=0=0=1=====,
192.000=discoball1.avi=1.000=0=0=1=====,
199.750=LADIES NIGHT-bg.png=1.000=0=0=1=====,
99999=-nosongbg-=1.000=0=0=0 // don't automatically add -songbackground-
;
#KEYSOUNDS:;
#ATTACKS:;

//---------------dance-single - ----------------
#NOTES:
     dance-single:
     :
     Hard:
     8:
     0.403446,0.436173,0.329966,0.097049,0.164983,291.000000,257.000000,34.000000,10.000000,0.000000,0.000000,0.403446,0.436173,0.329966,0.097049,0.164983,291.000000,257.000000,34.000000,10.000000,0.000000,0.000000:
0000
0000
0000
0000
,
0000
0000
0000
0000
,
0000
0000
0000
0000
,
0000
0000
0000
0000
,
0010
1000
0010
1000
0001
0000
1001
0000
,
0100
0010
0100
0010
0001
0000
0011
0000
,
0001
0010
0100
1000
0100
0000
1100
0000
,
0001
1000
0010
0100
0001
0000
1001
0000
,
0002
0000
2003
3000
,
0010
0000
0000
0100
0000
0000
0220
0000
0000
0000
0330
0000
0001
0000
0000
0000
,
1000
0000
0000
0000
0010
0000
0100
0000
0010
0000
0000
0000
1000
0000
0000
1001
,
0000
0000
0000
0000
0001
0000
0000
1001
0000
0000
0000
0000
0000
0000
0100
0000
,
0020
0000
2030
0000
3100
0010
0001
0000
,
1000
0000
0000
0001
0000
0000
1000
0000
0100
0000
1000
0000
0001
0000
0100
0000
,
0001
0000
0000
0000
1000
0000
0000
1001
0000
0000
0000
0000
0000
0000
0010
0000
,
0100
0000
0010
0000
1000
0000
0000
1100
0000
0000
0001
0000
0100
0000
0001
0000
,
1000
0000
0000
0010
0000
0000
1010
0000
0000
0000
0000
0000
1000
0000
0100
0000
,
0010
0000
0000
0001
0000
0000
0011
0000
0000
0000
1000
0000
0100
0000
1000
0000
,
0010
0000
0000
0100
0000
0000
0110
0000
0000
0000
0001
0000
0100
0000
0001
0100
,
0001
0000
1010
0000
1010
1000
0100
0010
,
0001
0000
0000
0100
0000
0000
0101
0000
0000
0000
0000
0000
0010
0000
1000
0000
,
0010
0000
0000
1000
0000
0000
1001
0000
0000
0000
0001
0000
0100
0000
0010
0000
,
0100
0000
0000
0010
0000
0000
0110
0000
0000
0000
1000
0000
0100
0000
0010
0001
,
0010
0000
0001
0100
0010
0000
1000
0010
,
1000
0000
0001
0000
0001
0000
1000
0100
,
1000
0000
0010
0000
0100
0001
0100
0000
,
0010
0000
1000
0000
0001
0100
0001
0000
,
0100
0010
0100
0000
0010
1000
0010
0100
,
0010
0000
0100
0000
0001
0010
0001
0000
,
1000
0010
1000
0000
0100
0000
0010
0000
,
0001
0100
0001
0000
1000
0010
1000
0000
,
0001
0000
0010
0000
0100
0000
0000
2200
0000
0000
3300
0000
0001
0000
0100
0000
,
0020
0000
0000
0000
1030
0000
0000
1000
0000
0000
0100
0000
0010
0000
0001
0000
,
0100
0000
0001
0000
1000
0000
0100
0000
1000
0000
0000
0000
0010
0000
0000
0010
,
0100
0000
0000
0001
0000
0000
1000
0000
0000
0001
0000
0000
0100
0000
0100
0000
,
0010
0000
0000
0010
0000
0000
0010
0000
1000
0000
0001
0000
2000
0000
0000
0000
,
3000
0000
0001
0000
0010
0000
0100
0000
1000
0000
0010
0100
0000
0000
0010
0000
,
1000
0000
0010
0000
0100
0000
0001
0100
0000
0000
0000
0000
0010
0000
0000
0000
,
1000
0000
0010
0000
1000
0000
0000
0000
0001
0000
0000
0101
0000
0000
0100
0000
,
0010
0000
0000
0000
1000
0000
0000
1001
0000
0000
0001
0000
0010
0000
0100
0000
,
1000
0000
0000
0010
0000
0000
1010
0000
0000
0000
0000
0000
0100
0000
0001
0000
,
0100
0000
0000
0001
0000
0000
0101
0000
0000
0000
1000
0000
0100
0000
0010
0000
,
0001
0000
0000
0100
0000
0000
0110
0000
0000
0000
0010
0000
1000
0000
0010
1000
,
0000
0000
0101
0000
1001
0001
0010
0100
,
1000
0000
0000
0010
0000
0000
1010
0000
0000
0000
0000
0000
1000
0000
0010
0000
,
0100
0000
0000
0001
0000
0000
0101
0000
0000
0000
0001
0000
0010
0000
0100
0000
,
1000
0000
0000
0010
0000
0000
0110
0000
0000
0000
0001
0000
0100
0000
0001
1000
,
0000
1010
0101
0010
,
1000
0000
0000
0000
0001
0000
0000
0000
0100
0000
0000
0000
0110
0000
0000
0110
,
0000
0000
0000
0000
1000
0000
0000
0000
0001
0000
0000
0000
1001
0000
0000
1001
;

//---------------dance-single - ----------------
#NOTES:
     dance-single:
     :
     Medium:
     6:
     0.289760,0.315014,0.009705,0.038819,0.131016,209.000000,208.000000,1.000000,4.000000,0.000000,0.000000,0.289760,0.315014,0.009705,0.038819,0.131016,209.000000,208.000000,1.000000,4.000000,0.000000,0.000000:
0000
0000
0000
0000
,
0000
0000
0000
0000
,
0000
0000
0000
0000
,
0000
0000
0000
0000
,
0010
0010
1000
1000
,
0001
0001
0100
0100
,
0010
1000
0010
0100
,
0001
0000
1000
1000
0001
0000
0100
0000
,
0002
0000
2003
3000
,
0010
0000
0000
0010
0000
0000
0020
0000
0000
0000
0030
0000
0100
0000
0000
0000
,
0100
0010
0010
1000
,
1000
0000
0001
0000
0001
0000
0000
0100
,
0010
1000
1000
0010
,
0100
0000
0000
0100
0000
0000
0100
0000
0001
0000
0000
0000
1000
0000
0000
0000
,
0001
0000
0000
0000
1000
0000
0000
1001
0000
0000
0000
0000
0000
0000
0010
0000
,
0010
0000
0010
0000
0100
0000
0000
0100
0000
0000
0001
0000
0001
0000
0001
0000
,
1000
0000
0000
1000
0000
0000
1000
0000
0000
0000
0000
0000
0010
0000
0000
0000
,
0100
0000
0000
0001
0000
0000
0001
0000
0000
0000
1000
0000
0010
0000
1000
0000
,
0010
0000
0000
0010
0000
0000
0010
0000
0000
0000
0100
0000
0001
0000
0000
0000
,
0001
0000
1000
0000
1000
0010
0100
0010
,
0100
0000
0000
0100
0000
0000
0100
0000
0000
0000
0000
0000
0001
0000
0000
0000
,
1000
0000
0000
0001
0000
0000
1000
0000
0000
0000
0010
0000
0100
0000
0010
0000
,
1000
0000
0000
1000
0000
0000
1000
0000
0000
0000
0000
0000
0001
0000
0000
0000
,
0010
0000
0100
0000
1000
0000
0010
0100
,
0010
1000
1000
0001
,
0001
0100
0100
0010
,
0010
1000
1000
0001
,
0001
0100
0100
0010
,
0010
1000
0001
1000
,
0010
0100
0010
1000
,
0001
0100
0001
0000
1000
0010
1000
0000
,
0001
0000
0000
0000
0100
0000
0000
0100
0000
0000
0000
0000
0010
0000
1000
0000
,
0002
0000
0000
0000
0103
0000
0000
0100
0000
0000
0000
0000
0001
0000
0000
0000
,
1000
0000
0000
0000
0010
0000
0000
0000
1000
0000
0000
0000
0001
0000
0000
0001
,
0000
0000
0000
0000
0000
0000
0000
0100
,
0100
0000
0000
0000
0000
0010
0010
0000
,
0000
0000
0000
0000
1000
0000
0000
0000
0001
0000
0000
0001
0000
0000
0100
0000
,
0010
0000
0100
0000
0010
0000
0000
0010
0000
0000
0000
0000
1000
0000
0000
0000
,
0001
0000
1000
0000
0001
0000
0000
0000
0100
0000
0000
0100
0000
0000
0000
0000
,
0010
0000
0000
0000
1000
0000
0000
1000
0000
0000
0001
0000
0100
0000
0001
0000
,
0100
0000
0000
0010
0000
0000
0010
0000
0000
0000
0000
0000
1000
0000
0010
0000
,
1000
0000
0000
0100
0000
0000
0100
0000
0000
0000
0000
0000
0010
0000
0000
0000
,
0001
0000
0000
0001
0000
0000
0001
0000
0000
0000
0100
0000
0000
0000
0100
0010
,
0000
0000
1000
0000
1000
0010
0100
0010
,
0100
0000
0000
0001
0000
0000
0001
0000
0000
0000
0000
0000
1000
0000
1000
0000
,
1000
0000
0000
0010
0000
0000
0010
0000
0000
0000
0100
0000
0001
0000
0100
0000
,
0001
0000
0000
0001
0000
0000
0001
0000
0000
0000
1000
0000
0000
0000
0100
1000
,
0000
1000
0010
0100
,
0001
0000
0000
0000
1000
0000
0000
0000
0010
0000
0000
0000
0100
0000
0000
0100
,
0000
0000
0000
0000
0001
0000
0000
0000
1000
0000
0000
0000
0001
0000
0000
1000
;

//---------------dance-single - ----------------
#NOTES:
     dance-single:
     :
     Easy:
     4:
     0.231531,0.241409,0.097049,0.048524,0.000000,167.000000,157.000000,10.000000,5.000000,0.000000,0.000000,0.231531,0.241409,0.097049,0.048524,0.000000,167.000000,157.000000,10.000000,5.000000,0.000000,0.000000:
0000
0000
0000
0000
,
0000
0000
0000
0000
,
0000
0000
0000
0000
,
0000
0000
0000
0000
,
1000
1000
0010
0010
,
0100
0100
0001
0001
,
1000
1000
0010
0010
,
0100
0100
0001
0001
,
2000
0000
0000
0000
0000
3000
0000
0000
,
0020
0000
0000
0030
,
0200
0000
0000
0000
0000
0300
0000
0000
,
0002
0000
0000
0003
,
1000
1000
0010
0010
,
0100
0100
0001
0001
,
1000
0010
1000
0000
,
0001
0000
0000
0001
0000
0000
0000
0000
,
0100
0010
0100
0010
,
1000
0010
0100
0001
,
0100
0010
1000
0001
,
1001
0000
1001
0010
,
0100
0010
0100
0001
,
1000
0001
1000
0010
,
0100
0010
0100
0001
,
1001
0000
1001
0000
,
0010
0010
0100
0100
,
0001
0001
1000
1000
,
0010
0100
0010
1000
,
0010
0100
0001
0100
,
0010
0010
1000
1000
,
0001
0001
0100
0010
,
0100
0001
1000
0001
,
0100
0010
1000
0001
,
0100
0000
0000
0000
0020
0000
0000
0030
,
0000
1000
1000
0001
,
0001
0100
0100
0010
,
1000
0001
0100
0010
,
1000
1000
0001
0001
,
0100
0010
0010
0100
,
0010
1000
1000
0001
,
0001
0100
0010
1000
,
0001
0000
0000
1001
0000
0000
0100
0000
,
0010
0000
0000
0110
0000
0000
0001
0000
,
1000
0000
0000
1001
0000
0000
0100
0000
,
0010
0001
0001
1000
,
0010
0000
0000
1010
0000
0000
0100
0000
,
0100
0000
0000
0101
0000
0000
0010
0000
,
0010
0000
0000
1010
0000
0000
0100
0000
,
0001
0100
0010
1000
,
0001
0010
0100
1000
,
0001
1000
0010
0100
;

//---------------dance-single - Copied from----------------
#NOTES:
     dance-single:
     Copied from:
     Beginner:
     2:
     0.067934,0.120704,0.000000,0.038819,0.000000,49.000000,49.000000,0.000000,4.000000,0.000000,0.000000,0.067934,0.120704,0.000000,0.038819,0.000000,49.000000,49.000000,0.000000,4.000000,0.000000,0.000000:
0000
0000
0000
0000
,
0000
0000
0000
0000
,
0000
0000
0000
0000
,
0000
0000
0000
0000
,
0010
0000
0000
0000
,
0010
0000
0000
0000
,
0010
0000
0000
0000
,
0010
0000
0000
0000
,
0200
0000
0000
0000
,
0000
0000
0300
0000
,
0200
0000
0000
0000
,
0000
0000
0300
0000
,
0002
0000
0000
0000
0000
0003
0000
0000
,
0002
0000
0000
0003
,
0000
1000
0000
0000
,
1000
0000
0000
0000
,
0010
0000
0000
0000
,
0010
0000
0000
0000
,
0010
0000
0000
0000
,
0010
0000
0000
0000
,
1000
0000
0000
0000
,
1000
0000
0000
0000
,
1000
0000
0000
0000
,
1000
0000
0000
0000
,
0001
0000
0000
0000
,
0001
0000
0000
0000
,
0001
0000
0000
0000
,
0001
0000
0000
0000
,
0100
0000
0000
0000
,
0100
0000
0000
0000
,
0100
0000
0000
0000
,
0100
0000
0000
0000
,
0010
0000
0000
0000
,
1000
0000
0000
0000
,
0010
0000
0000
0000
,
1000
0000
0000
0000
,
0001
0000
0000
0000
,
0100
0000
0000
0000
,
0001
0000
0000
0000
,
0100
0000
0000
0000
,
0010
0000
0000
0010
0000
0000
0000
0000
,
0010
0000
0000
0010
0000
0000
0000
0000
,
0010
0000
0000
0010
0000
0000
0000
0000
,
0000
0000
0000
0000
,
1000
0000
0000
1000
0000
0000
0000
0000
,
1000
0000
0000
1000
0000
0000
0000
0000
,
1000
0000
0000
1000
0000
0000
0000
0000
,
0000
0000
0000
0000
,
0001
0000
0000
0100
,
0000
0000
0000
0001
;
