#TITLE:L'esprit;
#SUBTITLE:;
#ARTIST:Cosine;
#TITLETRANSLIT:;
#SUBTITLETRANSLIT:;
#ARTISTTRANSLIT:;
#GENRE:;
#CREDIT:SupremeX;
#BANNER:L'esprit.png;
#BACKGROUND:L'esprit-bg.png;
#LYRICSPATH:;
#CDTITLE:CDtitle.png;
#MUSIC:L'esprit.ogg;
#OFFSET:-2.942;
#SAMPLESTART:57.380001;
#SAMPLELENGTH:11.980000;
#SELECTABLE:YES;
#BPMS:0.000000=185.02
;
#STOPS:
;
#BGCHANGES:32.000=wave2.avi=1.000=0=0=1=====,
48.000=8 Bubble.avi=1.000=0=0=1=====,
64.000=wave2.avi=1.000=0=0=1=====,
80.000=8 Bubble.avi=1.000=0=0=1=====,
96.000=letters1.avi=1.000=0=0=1=====,
128.000=cards4.avi=1.000=0=0=1=====,
160.000=cube13.avi=1.000=0=0=1=====,
168.000=thunder1.avi=1.000=0=0=1=====,
200.000=spiral3.avi=1.000=0=0=1=====,
232.000=thunder1.avi=1.000=0=0=1=====,
264.000=spiral3.avi=1.000=0=0=1=====,
296.000=8 Bubble.avi=1.000=0=0=1=====,
304.000=cards4.avi=1.000=0=0=1=====,
320.000=cube13.avi=1.000=0=0=1=====,
337.000=L'esprit-bg.png=1.000=0=0=1=====,
99999=-nosongbg-=1.000=0=0=0 // don't automatically add -songbackground-
;
#KEYSOUNDS:;
#ATTACKS:;

//---------------dance-single - Copied from----------------
#NOTES:
     dance-single:
     Copied from:
     Medium:
     6:
     0.329242,0.442298,0.127097,0.288087,0.000000,272.000000,257.000000,15.000000,34.000000,0.000000,0.000000,0.329242,0.442298,0.127097,0.288087,0.000000,272.000000,257.000000,15.000000,34.000000,0.000000,0.000000:
0000
0000
0000
0000
,
0000
0000
0000
0000
,
0000
0000
0000
0000
,
0000
0000
0000
0000
,
2000
0000
0000
0000
,
3002
0000
0000
0000
,
0203
0000
0000
0000
,
0320
0000
2030
0000
,
3001
1000
0001
1000
,
0100
0010
0100
0010
,
0001
0100
0001
0100
,
0010
1000
0010
1000
,
0100
0010
0100
0010
,
0001
0010
0001
0010
,
0001
1000
0001
0100
,
0010
1000
0100
0010
,
0001
1000
0100
1000
,
0010
0100
0010
0100
,
0001
0100
0001
0100
,
0010
0100
0010
1000
,
0001
0100
0001
0000
0010
0000
0010
0000
,
1000
0100
1000
0000
0010
0000
0010
0000
,
0100
0010
0100
0000
0001
0000
0001
0000
,
2000
3200
0320
0032
,
1003
0000
0001
0001
,
0100
0000
0010
0010
,
1000
0000
1000
0010
,
0100
0000
0100
0001
,
0010
0000
0100
1000
,
0010
0000
0100
0001
,
0010
0000
1000
0001
,
1000
0000
0010
0100
,
1001
0000
0010
0100
,
1010
0000
1000
0001
,
0101
0000
0010
0001
,
0110
0000
0010
1000
,
0011
0000
0000
0000
0100
0010
0100
0000
,
1010
0000
0000
0000
0100
0001
0100
0000
,
1001
0000
0000
0000
1000
0010
1000
0000
,
0110
0000
0000
0000
0010
0100
0010
0000
,
2000
3200
0320
0032
,
0203
0301
0020
0031
,
1000
0010
1000
0010
,
0100
0010
0100
0010
,
1000
0100
0010
0100
,
1000
0100
0010
0100
,
0010
0001
0010
0001
,
1000
1000
0001
0001
,
0100
0100
0100
0010
,
2000
0000
0000
0000
,
3001
0100
0001
0100
,
0010
1000
0010
1000
,
0001
0010
0100
1000
,
0002
0000
0000
0000
,
0103
0010
0100
0010
,
1000
0010
1000
0010
,
0100
0001
0100
0010
,
1000
1000
0001
1000
,
0010
0010
0100
0010
,
1000
0001
0010
0001
,
0100
0010
1000
0010
,
0001
0010
0100
1000
,
0020
0000
0000
0000
,
0230
0000
0000
0000
,
1300
0000
1001
0000
,
0220
0000
0000
0000
,
0330
0001
0001
0001
,
1000
1000
1000
1000
,
0010
0100
0010
0100
,
0002
0000
0000
0000
,
1003
1000
0100
0100
,
0010
0010
0001
0001
,
1000
0010
1000
0010
,
0100
0001
0100
0001
,
1000
0010
1000
1001
,
0001
0000
0100
0000
,
2200
0000
0000
0000
,
3300
2020
0000
0000
,
3030
2002
0000
0000
,
3003
0001
0010
0100
,
2000
0000
0000
0000
,
3020
0000
0000
0000
,
0230
0000
0000
0000
,
0302
0000
0000
0000
,
1003
2020
0000
0000
,
0000
0000
0000
0000
,
0000
0000
0000
0000
,
3030
0000
0000
0000
;

//---------------dance-single - ----------------
#NOTES:
     dance-single:
     :
     Easy:
     4:
     0.355872,0.336013,0.016946,0.042366,0.000000,294.000000,292.000000,2.000000,5.000000,0.000000,0.000000,0.355872,0.336013,0.016946,0.042366,0.000000,294.000000,292.000000,2.000000,5.000000,0.000000,0.000000:
0000
0000
0000
0000
,
0000
0000
0000
0000
,
0000
0000
0000
0000
,
0000
0000
0000
0000
,
0010
1000
0010
0100
,
0001
1000
0010
0000
,
0100
0001
1000
0010
,
0100
0001
1000
0000
,
0010
0010
0100
0100
,
0001
0001
1000
1000
,
0010
0010
0100
0100
,
0001
0001
1000
1000
,
0010
0100
0001
0100
,
0010
1000
0010
1000
,
0001
0100
0010
1000
,
0001
0100
0010
0010
,
1000
0001
1000
0010
,
0100
0001
0001
0001
,
1000
0010
0100
0001
,
1000
0001
0100
0100
,
0010
1000
0001
0100
,
0001
1000
1000
1000
,
0010
0100
0010
1000
,
0001
0100
0010
0010
,
1000
0100
1000
0100
,
1000
0100
0010
0001
,
0010
0001
0010
0001
,
0010
0100
1000
0010
,
0100
0010
0100
0010
,
1000
0001
1000
0001
,
1000
0010
0100
1000
,
0100
0010
0001
0010
,
0100
0010
0100
0001
,
0001
1000
1000
0010
,
0100
0001
1000
0010
,
0100
0100
0010
0010
,
1000
0001
0100
0010
,
1000
0001
0100
0010
,
1000
0001
0100
0010
,
1000
1000
0001
0001
,
0200
0000
0000
0000
,
0000
0000
0000
0300
,
0010
0010
1000
0010
,
0100
0000
0001
0000
,
1000
0010
0100
0001
,
1000
0000
1001
0000
,
0010
0100
0010
1000
,
0001
0000
0100
0000
,
0010
1000
0010
0100
,
0002
0000
0000
0000
0000
0000
0000
0003
,
1000
0010
0100
0001
,
1000
0000
0010
0000
,
1000
0001
0010
0100
,
1000
0000
0010
0000
,
0100
0001
0100
0010
,
1000
0010
0100
0001
,
0100
0010
1000
0010
,
0100
0001
1000
0010
,
0100
0100
0001
0001
,
1000
0010
0100
0001
,
1000
0010
0100
0100
,
0001
0001
1000
0010
,
0100
0001
1000
1000
,
0010
0010
0100
0100
,
0001
0001
1000
0010
,
0200
0000
0000
0300
,
0001
1000
0010
0100
,
0001
1000
1000
0010
,
0100
0001
1000
0010
,
1000
0000
0001
0000
,
1000
0010
1000
0010
,
1000
0001
1000
0001
,
0100
0010
0100
0010
,
0100
0001
1000
0010
,
0100
0001
1000
0010
,
0100
0000
0001
0000
,
1000
1000
0010
0010
,
0100
0100
0001
0001
,
1000
1000
0010
0010
,
0100
0100
0001
1000
,
0010
0010
0100
0100
,
0001
0001
1000
1000
,
0010
0010
0100
0100
,
0001
1000
0010
0100
,
0000
2002
0000
0000
,
0000
0000
0000
0000
,
0000
0000
0000
0000
,
0000
0000
0000
0000
,
0000
3003
0000
0000
0000
0000
0000
0000
;

//---------------dance-single - ----------------
#NOTES:
     dance-single:
     :
     Hard:
     8:
     0.492653,0.597356,0.169463,0.067785,0.084731,407.000000,387.000000,20.000000,8.000000,0.000000,0.000000,0.492653,0.597356,0.169463,0.067785,0.084731,407.000000,387.000000,20.000000,8.000000,0.000000,0.000000:
0000
0000
0000
0000
,
0000
0000
0000
0000
,
0000
0000
0000
0000
,
0000
0000
0000
0000
,
2000
0000
0000
0000
3100
0000
0100
0010
,
0001
0000
1000
0000
0100
0000
1000
0100
,
0010
0000
0001
0000
0010
0000
0100
1000
,
0100
0010
0101
1000
,
0100
1000
0100
0010
0001
0010
0000
0000
,
0100
1000
0100
0000
0010
0000
0110
0000
,
0001
0010
0100
1000
0010
0100
0001
0000
,
1000
0001
0110
0110
,
1000
0010
0100
0001
1000
0100
0010
0000
,
0001
0010
1100
1100
,
0001
0010
0100
1000
0010
0100
0001
0000
,
0001
1000
0100
1100
,
0010
0001
0010
0100
1000
0100
0010
0000
,
0001
1000
1001
1001
,
0010
0100
0001
0100
0010
1000
0010
0000
,
0100
0100
0101
1010
,
0001
1000
0100
0010
0001
0100
0010
0000
,
1000
0010
0100
1001
,
0010
0100
1000
0001
0100
0001
1000
0000
,
0010
0100
1001
1001
,
0100
0001
0010
0100
,
1000
0100
1000
0010
,
0100
0001
0010
0100
1000
0000
0001
0000
,
1000
0100
1000
0100
1000
0000
0001
0000
,
0010
0100
1000
0010
,
0100
0010
1000
1000
,
0010
0100
0010
0000
0100
0001
0100
0000
,
0010
1000
0100
0010
0001
1000
0100
0000
,
0100
1000
0010
0010
,
1000
0001
1000
0000
0001
0000
0010
0000
,
0100
1000
0100
1000
,
0010
0100
0001
0100
0010
0100
0001
0100
,
0010
1000
0100
0010
,
0001
1000
0010
1000
,
0001
0100
0010
1000
0010
0000
0100
0000
,
0001
1000
0100
1000
0100
0010
0001
0000
,
0200
0000
0000
0000
,
0000
0000
0000
0000
0000
0300
0000
0000
,
0001
0000
0000
0000
0001
0000
0000
0000
1000
0000
0000
0100
0000
0000
1000
0000
,
1000
0100
0010
1001
,
1000
0000
0000
0000
0001
0000
0000
0000
0100
0000
0000
0010
0000
0000
0100
0000
,
0100
0000
0001
0010
0100
1000
0010
0000
,
0100
0000
0000
0000
0001
0000
0000
0000
1000
0000
0000
0010
0000
0000
1000
0000
,
1000
0001
0001
0010
,
0110
1000
1010
0101
,
0020
0000
0000
0030
,
1000
0000
0000
0000
1000
0000
0000
0000
0001
0000
0000
0010
0000
0000
0001
0000
,
0001
0010
0100
1000
,
0001
0000
0000
0000
1000
0000
0000
0000
0001
0000
0000
0010
0000
0000
0100
0000
,
0200
0000
1300
1000
,
0001
0000
0000
0000
1000
0000
0000
0000
0010
0000
0000
0100
0000
0000
0001
0000
,
0001
1000
0001
0100
,
0001
0000
0000
0000
1000
0000
0000
0000
0010
0000
0000
0100
0000
0000
0010
0000
,
0010
0000
0000
0000
1000
0000
0000
0000
0010
0000
0000
0100
0000
0000
0001
0000
,
0001
0000
0000
0000
0010
0000
0000
0000
0010
0000
0000
0100
0000
0000
1000
0000
,
1000
0010
0100
0001
,
1000
0000
0000
0000
0001
0000
0000
0000
0100
0000
0000
0100
0000
0000
0010
0000
,
0010
0000
1000
0100
0010
0001
0100
0000
,
0010
1000
0010
0100
0001
0100
0010
0000
,
1000
0010
0100
0001
1000
0010
1000
0000
,
0100
0010
0001
1001
,
2000
0000
0000
3000
,
0010
0000
0000
0000
0100
0000
0000
0000
0001
0000
0000
1000
0000
0000
0010
0000
,
0010
1000
0100
0010
,
0001
0000
0000
0000
1000
0000
0000
0000
0100
0000
0000
0010
0000
0000
0001
0000
,
0200
0000
0301
0001
,
1000
0010
1000
0001
0100
0010
0100
0000
,
0001
1000
0001
0100
0010
1000
0001
0100
,
0001
0000
0000
0000
1000
0000
0000
0000
0010
0000
0000
0010
0000
0000
0100
0000
,
0100
0000
0000
0000
0001
0000
0000
0000
1000
0000
0000
1000
0000
0000
0010
0000
,
0010
0100
0001
1000
,
0001
0000
0100
0000
,
0010
0000
0000
0000
1000
0000
0000
0100
0000
0000
0010
0000
0000
0000
0001
0000
,
0001
0000
0000
0000
0010
0000
0000
0000
0100
0000
0000
1000
0000
0000
0100
0000
,
0100
0000
0000
0000
1000
0000
0000
0000
0001
0000
0000
0100
0000
0000
0010
0000
,
0010
1000
0001
1000
,
0011
0000
0000
0000
0100
0000
0000
1000
0000
0000
1000
0000
0000
0000
0001
0000
,
0001
0000
0000
0000
0010
0000
0000
0000
0100
0000
0000
1000
0000
0000
0010
0000
,
0010
0000
0000
0000
0100
0000
0000
0000
0001
0000
0000
1000
0000
0000
0010
0000
,
0100
0001
1000
0001
,
2000
0002
0000
0000
,
0000
0000
0000
0000
,
0000
0000
0000
0000
,
0000
0000
0000
0000
,
0000
3003
0000
0000
0000
0000
0000
0000
;

//---------------dance-single - ----------------
#NOTES:
     dance-single:
     :
     Challenge:
     9:
     0.692377,0.746696,0.482969,0.110151,0.241485,572.000000,515.000000,57.000000,13.000000,0.000000,0.000000,0.692377,0.746696,0.482969,0.110151,0.241485,572.000000,515.000000,57.000000,13.000000,0.000000,0.000000:
0000
0000
0000
0000
,
0000
0000
0000
0000
,
0000
0000
0000
0000
,
0000
0000
0000
0000
,
2000
0000
0000
0000
3100
0000
1000
0100
,
0010
0000
0011
0000
1100
0000
0001
0010
,
0100
0000
1010
0000
0101
0000
1000
0010
,
1000
0010
1001
0100
,
0001
0100
0001
1000
0100
0010
0001
1000
,
0010
1010
0101
1001
,
0001
0010
0100
1000
0001
0100
0001
1000
,
0100
0010
0001
0000
0101
0000
1001
0000
,
1000
0010
0100
0001
1000
0100
0010
0001
,
1000
1100
0011
1100
,
0001
0010
0100
1000
0010
0100
0001
0100
,
0010
1000
0010
1000
0101
0000
1001
0000
,
0100
0010
1000
0001
1000
0010
0100
0001
,
1000
1100
0011
0110
,
1000
0100
1000
0100
0010
0001
1000
0010
,
0100
0001
1000
0000
1001
0000
0101
0000
,
0010
1000
0100
0010
0001
1000
0010
1000
,
0001
0101
1001
1010
,
0001
0010
0100
1000
0010
0100
0001
1000
,
0010
1000
0100
0010
1001
0000
1001
0000
,
0010
1000
0010
1000
0001
0010
0100
1000
,
0010
0100
0001
1000
0010
1000
0010
0100
,
0001
0010
0100
1000
0100
1000
0010
0100
,
0001
1000
0010
1000
0100
0010
0001
0010
,
0100
1000
0100
0010
0001
1000
0010
0100
,
0001
1000
0010
1000
0001
1000
0001
0000
,
1000
0001
0010
0100
1000
0010
1000
0100
,
0010
0001
1000
0100
1000
0100
1000
0000
,
0010
0100
0001
1000
0010
0100
0010
0100
,
0001
1000
0001
0010
0100
1000
0010
1000
,
0001
0100
0001
0100
0010
1000
0100
0010
,
0001
0100
0010
0100
0010
1000
0010
1000
,
0001
0010
0100
1000
0010
1000
0001
0100
,
0010
1000
0001
1000
0010
0100
0001
0100
,
0010
1000
0100
0010
0001
1000
0100
1000
,
0001
1000
0001
0100
0010
1000
0001
0000
,
0200
0000
0000
0000
,
0301
0000
0000
0000
0001
0000
1000
0010
1000
0010
1000
0010
1000
0000
0000
0000
,
0001
0000
0000
0000
0100
0000
0000
0000
0010
0000
0000
0010
0000
0000
1000
0000
,
1000
0000
0000
0000
0001
0100
0001
0100
0001
0000
0000
0000
1010
0000
0000
0000
,
0001
0000
0000
0000
0010
0000
0000
0000
0100
0000
0000
1000
0000
0000
0100
0000
,
0020
0000
0031
0100
0010
1000
0010
0000
,
0100
0000
0000
0000
0001
0000
0000
0000
0001
0000
0000
1000
0000
0000
0001
0000
,
0001
0100
0101
0001
,
1100
0110
0011
1001
,
2000
0000
0000
0000
0000
3000
0010
1000
0010
1000
0010
1000
0010
0000
0000
0000
,
0100
0000
0000
0000
0100
0000
0000
0000
0001
0000
0000
1000
0000
0000
0010
0000
,
0010
0000
0000
0000
0100
0001
0100
0001
0100
0000
0000
0000
1001
0000
0000
0000
,
0010
0000
0000
0000
1000
0000
0000
0000
0010
0000
0000
0100
0000
0000
0001
0000
,
0200
0000
0000
0000
0310
0100
0010
0100
0010
0100
0010
0000
1000
0000
0000
0000
,
1001
0000
0000
0000
1010
0000
0000
0000
0001
0000
0000
0010
0000
0000
0100
0000
,
0100
1000
0001
0110
,
1001
0000
0000
0000
0010
0000
0000
0000
1000
0000
0000
0010
0000
0000
1000
0000
,
1000
0000
0000
0000
0001
0000
0000
0000
0100
0000
0000
0100
0000
0000
0010
0000
,
0010
0000
0000
0000
1000
0000
0000
0000
1000
0000
0000
0001
0000
0000
0100
0000
,
0100
0000
0000
0000
0010
1000
0001
0100
0010
1000
0001
0000
1000
0000
0000
0000
,
0110
0000
0000
0000
0001
0000
0000
0000
1000
0000
0000
1000
0000
0000
0010
0000
,
0010
0000
0100
0001
1000
0010
1000
0000
,
0001
0100
0001
1000
0010
1000
0001
0010
,
0100
1000
0010
0100
0001
1000
0010
0000
,
1010
0101
1001
0110
,
0002
0000
0003
0000
1000
0010
0100
0001
1000
0010
0100
0001
0000
0000
0000
0000
,
1100
0000
0000
0000
0110
0000
0000
0000
0001
0000
0000
0010
0000
0000
0100
0000
,
0100
0000
0000
0000
1000
0100
1000
0100
1000
0100
0000
0000
1000
0000
0000
0000
,
1001
0000
0000
0000
1001
0000
0000
0000
0100
0000
0000
0010
0000
0000
0001
0000
,
0020
0000
0000
0000
0031
0010
0001
0010
0001
0010
0001
0010
0001
0000
0000
0000
,
1000
0010
1000
0001
0010
0100
1000
0100
,
1000
0100
0010
0001
0010
0100
1000
0100
,
1100
0000
0000
0000
0011
0000
0000
0000
0001
0000
0000
0001
0000
0000
0100
0000
,
0101
0000
0000
0000
0001
0000
0000
0000
1000
0000
0000
1000
0000
0000
0010
0000
,
2010
3020
0230
0302
,
1003
0000
1100
0000
,
0001
0000
0000
0000
1000
0100
1000
0100
1000
0000
0010
0000
0000
0000
1000
0000
,
1000
0000
0000
0000
0001
0010
0001
0010
0001
0000
0000
1000
0000
0000
0010
0000
,
0010
0000
0000
0000
0100
0001
0100
0001
0100
0000
0000
0010
0000
0000
1000
0000
,
1000
0101
1010
0101
,
1001
0000
0000
0000
0100
0010
0100
0010
0100
0000
0010
0000
0000
0000
0100
0000
,
0100
0000
0000
0000
0001
1000
0010
0100
0001
0000
0000
1000
0000
0000
0010
0000
,
0010
0000
0000
0000
1000
0001
0100
0010
1000
0000
0000
0001
0000
0000
1000
0000
,
1000
0101
1010
0101
,
2000
0002
0000
0000
,
0000
0000
0000
0000
,
0000
0000
0000
0000
,
0000
0000
0000
0000
,
0000
3003
0000
0000
0000
0000
0000
0000
;

//---------------dance-single - Copied from----------------
#NOTES:
     dance-single:
     Copied from:
     Beginner:
     2:
     0.096836,0.107079,0.000000,0.008473,0.000000,80.000000,80.000000,0.000000,1.000000,0.000000,0.000000,0.096836,0.107079,0.000000,0.008473,0.000000,80.000000,80.000000,0.000000,1.000000,0.000000,0.000000:
0000
0000
0000
0000
,
0000
0000
0000
0000
,
0000
0000
0000
0000
,
0000
0000
0000
0000
,
0010
0000
0000
0000
,
0010
0000
0000
0000
,
0010
0000
0000
0000
,
0010
0000
0000
0000
,
0100
0000
0000
0000
,
0100
0000
0000
0000
,
0100
0000
0000
0000
,
0100
0000
0000
0000
,
0010
0000
0000
0000
,
0010
0000
0000
0000
,
0010
0000
0000
0000
,
0010
0000
0000
0000
,
0100
0000
0000
0000
,
0100
0000
0000
0000
,
0100
0000
0000
0000
,
0100
0000
0000
0000
,
0001
0000
0000
0000
,
0001
0000
0000
0000
,
0001
0000
0000
0000
,
0001
0000
0000
0000
,
1000
0000
0000
0000
,
1000
0000
0000
0000
,
1000
0000
0000
0000
,
1000
0000
0000
0000
,
0010
0000
0000
0000
,
0010
0000
0000
0000
,
0010
0000
0000
0000
,
0010
0000
0000
0000
,
1000
0000
0000
0000
,
1000
0000
0000
0000
,
1000
0000
0000
0000
,
1000
0000
0000
0000
,
0001
0000
0000
0000
,
0001
0000
0000
0000
,
0001
0000
0000
0000
,
0001
0000
0000
0000
,
0200
0000
0000
0000
,
0000
0000
0000
0300
,
0010
0000
0000
0000
,
0010
0000
0000
0000
,
0010
0000
0000
0000
,
0010
0000
0000
0000
,
1000
0000
0000
0000
,
1000
0000
0000
0000
,
1000
0000
0000
0000
,
1000
0000
0000
0000
,
0001
0000
0000
0000
,
0001
0000
0000
0000
,
0001
0000
0000
0000
,
0001
0000
0000
0000
,
0100
0000
0000
0000
,
0100
0000
0000
0000
,
0100
0000
0000
0000
,
0100
0000
0000
0000
,
0010
0000
0000
0000
,
0010
0000
0000
0000
,
0010
0000
0000
0000
,
0010
0000
0000
0000
,
1000
0000
0000
0000
,
1000
0000
0000
0000
,
1000
0000
0000
0000
,
1000
0000
0000
0000
,
0001
0000
0000
0000
,
0001
0000
0000
0000
,
0001
0000
0000
0000
,
1000
0000
0000
0000
,
1000
0000
0000
0000
,
1000
0000
0000
0000
,
0010
0000
0000
0000
,
1000
0000
0000
0000
,
0010
0000
0000
0000
,
1000
0000
0000
0000
,
0001
0000
0000
0000
,
0100
0000
0000
0000
,
0001
0000
0000
0000
,
0100
0000
0000
0000
,
0001
0000
0000
0000
,
0100
0000
0000
0000
,
0001
0000
0000
0000
,
0100
0000
0000
0000
,
0000
0001
0000
0000
;
