#TITLE:KING STUN;
#SUBTITLE:;
#ARTIST:JUPITRIS;
#TITLETRANSLIT:;
#SUBTITLETRANSLIT:;
#ARTISTTRANSLIT:;
#CREDIT:SupremeX;
#BANNER:KING STUN.png;
#BACKGROUND:KING STUN-bg.png;
#LYRICSPATH:;
#CDTITLE:;
#MUSIC:KING STUN.ogg;
#OFFSET:-2.773;
#SAMPLESTART:55.140;
#SAMPLELENGTH:12.000;
#SELECTABLE:YES;
#BPMS:0.000=165.000;
#STOPS:;
#BGCHANGES:16.000=letters1.avi=1.000=0=0=1,
32.000=fireworks1.avi=1.000=0=0=1,
48.000=letters1r.avi=1.000=0=0=1,
64.000=gradius2.avi=1.000=0=0=1,
96.000=ants.avi=1.000=0=0=1,
128.500=gradius4.avi=1.000=0=0=1,
144.000=fireworks1.avi=1.000=0=0=1,
176.000=letters1.avi=1.000=0=0=1,
208.000=gradius2.avi=1.000=0=0=1,
223.000=gradius4.avi=1.000=0=0=1,
240.000=ants.avi=1.000=0=0=1,
272.000=KING STUN-bg.png=1.000=0=0=1,
99999=-nosongbg-=1.000=0=0=0 // don't automatically add -songbackground-
;

//---------------dance-single - ----------------
#NOTES:
     dance-single:
     :
     Hard:
     9:
     0.618,0.618,0.177,0.158,0.135: // measure 1
0000
0000
0000
0000
,  // measure 2
0000
0000
0000
0000
,  // measure 3
0000
0000
0000
0000
,  // measure 4
0000
0000
0000
0000
,  // measure 5
1000
0000
0010
0000
1000
0100
1000
0000
0100
0000
0010
0000
0001
0000
0100
0000
,  // measure 6
0010
0000
0100
0000
0010
0100
0010
0000
1000
0000
0100
0000
0010
0000
0001
0000
,  // measure 7
0100
0000
0010
0000
1000
0000
0000
0000
0010
0000
0000
1000
0010
0000
1000
0000
,  // measure 8
0000
0000
0001
0000
0010
0000
0100
0000
1000
0000
0000
0100
0000
0000
1000
0000
,  // measure 9
0010
0000
1000
0000
0010
1000
0010
0000
0100
0000
0010
0000
1000
0000
0001
0000
,  // measure 10
0100
0000
0010
0000
0100
0010
0100
0000
0001
0000
0010
0000
0100
0000
1000
0000
,  // measure 11
0010
0000
0100
0000
0000
0000
0100
0000
0001
0000
0000
1000
0000
0000
0001
0000
,  // measure 12
0000
0000
0100
0000
0010
0000
0100
0000
0010
0000
0000
1000
0000
0000
0100
0000
,  // measure 13
1000
0000
0010
0000
0100
0010
0100
0000
0010
0000
1000
0000
0100
0000
0010
0000
,  // measure 14
0001
0000
0010
0000
0001
0010
0001
0000
0010
0000
0100
0000
1000
0000
0100
0000
,  // measure 15
0010
0000
0001
0000
0100
0000
0000
0000
0010
0000
0000
1000
0010
0000
1000
0000
,  // measure 16
0000
0000
0001
0000
0100
0000
0001
0000
0100
0000
0000
0010
0000
0000
1000
0000
,  // measure 17
2000
0000
0000
0000
0000
0000
0000
0000
0000
0000
0000
0000
3000
0000
0010
0100
,  // measure 18
0020
0000
0000
0000
0000
0000
0230
0000
0000
0000
0000
0300
0002
0000
0000
0000
,  // measure 19
2003
0000
0000
0000
0000
0000
0000
0000
0000
0000
0000
0000
3000
0000
0010
1000
,  // measure 20
0020
0000
0000
0030
0200
0000
0000
0000
,  // measure 21
0301
0010
0100
1000
0010
0100
0001
1000
,  // measure 22
0010
0100
0001
0010
0001
0010
0100
1000
,  // measure 23
0100
0010
0001
0010
0100
1000
0010
0100
,  // measure 24
0010
0000
1000
0000
0100
0000
0010
0000
0001
0000
0100
0000
0010
0000
1000
0010
,  // measure 25
1000
0010
0100
0001
0010
0100
1000
0010
,  // measure 26
0200
0000
0000
0302
0000
0000
1003
0000
,  // measure 27
0010
0100
0001
1000
0010
0100
0001
0000
,  // measure 28
2000
0000
0000
3020
0000
0000
0130
0000
,  // measure 29
0010
1000
0100
0010
0001
0100
0010
1000
,  // measure 30
0001
0010
0001
0010
0100
1000
0100
1000
,  // measure 31
0010
0100
0010
1000
0001
0100
0010
1000
,  // measure 32
0001
0100
0010
1000
,  // measure 33
0000
1100
0000
0000
0110
0000
0000
0011
,  // measure 34
0000
0000
1010
0000
0000
0101
0000
0001
,  // measure 35
0000
1001
0000
0000
1100
0000
0000
0110
,  // measure 36
0000
0001
0010
0100
1000
0100
1000
0001
,  // measure 37
0100
0000
0001
0000
0110
0000
1000
1000
,  // measure 38
0000
0010
0000
0100
0000
0001
1000
0001
,  // measure 39
0000
0000
0100
0000
0110
0000
0001
1000
,  // measure 40
0000
0010
0100
0010
0000
1000
0100
0010
,  // measure 41
0001
0010
0001
1000
0100
0010
0001
1000
,  // measure 42
0010
0100
0010
1000
0100
0010
0001
1000
,  // measure 43
0010
0100
0000
0010
0100
0000
0010
0100
0000
0000
0001
0000
0010
0000
0100
0000
,  // measure 44
1000
0100
0000
1000
0100
0000
1000
0100
0000
0000
0010
0000
0001
0000
0010
0000
,  // measure 45
0100
0000
1000
0000
1001
0000
0100
0010
,  // measure 46
0000
0100
0000
0010
0000
1000
0001
1000
,  // measure 47
0000
0000
0100
0000
0110
0000
0001
0100
,  // measure 48
0000
0010
0000
1000
0000
1000
0100
1000
,  // measure 49
0100
0010
0001
0010
0100
1000
0001
0100
,  // measure 50
0001
1000
0010
0100
0010
0100
0001
1000
,  // measure 51
0200
0000
0000
0320
0000
0000
0032
0000
,  // measure 52
2003
0000
0000
3020
0000
0000
0230
0000
,  // measure 53
0301
0010
0100
1000
0100
0010
0001
0010
,  // measure 54
0001
1000
0010
1000
0100
0010
0001
1000
,  // measure 55
0010
0100
0010
1000
0001
0100
0010
1000
,  // measure 56
0001
0010
0100
1000
0001
1000
0010
0100
,  // measure 57
0001
0000
1000
0010
1000
1000
0001
0010
,  // measure 58
0100
1000
0010
0010
0100
0001
0100
0000
,  // measure 59
0010
1000
0010
0100
0001
0100
0010
1000
,  // measure 60
0001
1000
0010
0100
0001
0100
0010
0000
,  // measure 61
1000
0000
0010
0000
1000
0000
0010
0000
0100
0000
0000
0100
0000
0000
0001
0000
,  // measure 62
1000
0000
0001
0000
0010
0000
0100
0000
1000
0000
0000
1100
0000
0000
0010
0000
,  // measure 63
0001
0000
0010
0000
0001
0000
0010
0000
0001
0000
0000
0011
0000
0000
0100
0000
,  // measure 64
1000
0000
0100
0000
0010
0000
0001
0000
0010
0000
0000
0110
0000
0000
1000
0000
,  // measure 65
0100
0000
0010
0000
0001
0000
0100
0000
0001
0000
0000
0101
0000
0000
1000
0000
,  // measure 66
0010
0000
0100
0000
0001
0000
1000
0000
0010
0000
0000
1010
0000
0000
0001
0000
,  // measure 67
0010
0000
0100
0000
1000
0000
0010
0000
1000
0000
0000
0110
0000
0000
0001
0000
,  // measure 68
0010
0100
1000
0010
0100
0001
1000
0010
,  // measure 69
0100
0000
0001
0000
0010
0000
0100
0000
1000
0000
0000
1001
0000
0000
0001
0000
,  // measure 70
0010
0001
0010
0100
1000
0100
1000
0010
;

//---------------dance-single - ----------------
#NOTES:
     dance-single:
     :
     Easy:
     4:
     0.331,0.325,0.093,0.084,0.000:
0000
0000
0000
0000
,
0000
0000
0000
0000
,
0000
0000
0000
0000
,
0000
0000
0000
0000
,
0010
1000
0001
0100
,
0010
1000
0001
0100
,
0010
0010
1000
1000
,
0001
0001
0100
0100
,
0010
0010
1000
1000
,
0001
0001
0100
0010
,
1000
0001
0100
0100
,
0010
1000
0010
0100
,
0001
0001
1000
1000
,
0010
0100
0001
1000
,
0010
0100
0001
0000
,
1000
0000
1001
0000
,
0220
0000
0000
0000
0000
0330
0000
0000
,
0001
0000
0000
1000
0000
0000
0001
0000
,
0220
0000
0000
0330
,
1000
0000
0000
0010
0000
0000
0000
0000
,
0100
0000
0001
1000
,
0001
0100
0010
1000
,
0001
0100
0010
1000
,
0001
0100
0001
1000
,
0010
1000
0010
0100
,
0010
0100
0001
1000
,
0020
0100
0100
0130
,
0001
1000
0010
0100
,
0001
1000
0010
0100
,
0001
1000
0010
0100
,
0002
0000
0000
0003
,
2000
0000
0000
3000
,
0000
0110
0000
0000
0000
0001
0000
1000
,
0000
0000
0010
0000
0000
0100
0000
0010
,
0000
1000
0000
0000
0010
0000
0000
0100
,
0000
0001
0000
1000
0000
0010
0000
0000
,
0100
0000
0010
0000
0100
0000
0000
0001
,
0000
1000
0000
0001
0000
0000
1001
0000
,
0000
0000
0010
0000
0100
0000
0000
0010
,
0000
1000
0000
0010
0000
0000
0110
0000
,
0001
0010
0100
1000
,
0010
0100
0010
1000
,
1000
0001
0001
0100
,
0100
0010
0010
1000
,
0001
0000
1001
0000
0010
0000
0000
0100
,
0000
0010
0000
0100
0000
0000
0001
0000
,
1000
0000
0010
0000
0110
0000
0000
1000
,
0000
0001
0000
0100
0000
0000
0010
0000
,
1000
1000
0001
0001
,
0100
0100
0010
0010
,
2000
0000
0000
0000
0000
3000
0000
0000
,
0002
0000
0000
0000
0000
0003
0000
0000
,
0100
0010
1000
0001
,
0100
0010
1000
0001
,
0100
0010
1000
0001
,
0100
0010
1000
0001
,
1000
0100
0010
0001
,
1000
0100
0010
0001
,
0100
0010
1000
0001
,
0100
0001
0010
0100
,
1000
0010
0010
0100
,
0001
1000
0010
0010
,
0100
0001
1000
1000
,
0010
0100
0001
0001
,
1000
0010
0100
0100
,
0001
1000
0010
0010
,
0100
0001
1000
1000
,
0010
0100
0001
0001
,
1000
0010
0100
0001
,
1000
0001
0101
1001
;

//---------------dance-single - Copied from----------------
#NOTES:
     dance-single:
     Copied from:
     Beginner:
     1:
     0.068,0.096,0.000,0.000,0.000:
0000
0000
0000
0000
,
0000
0000
0000
0000
,
0000
0000
0000
0000
,
0000
0000
0000
0000
,
0010
0000
0000
0000
,
0010
0000
0000
0000
,
0010
0000
0000
0000
,
0010
0000
0000
0000
,
0100
0000
0000
0000
,
0100
0000
0000
0000
,
0100
0000
0000
0000
,
0100
0000
0000
0000
,
0001
0000
0000
0000
,
0001
0000
0000
0000
,
0001
0000
0000
0000
,
0001
0000
0000
0000
,
1000
0000
0000
0000
,
1000
0000
0000
0000
,
1000
0000
0000
0000
,
1000
0000
0000
0000
,
1000
0000
0000
0000
,
0000
0000
0000
0000
,
0010
0000
0000
0000
,
0000
0000
0000
0000
,
0100
0000
0000
0000
,
0000
0000
0000
0000
,
0100
0000
0000
0000
,
0000
0000
0000
0000
,
0010
0000
0000
0000
,
0000
0000
0000
0000
,
0010
0000
0000
0000
,
0000
0000
0000
0000
,
1000
0000
0000
0000
,
0000
0000
0000
0000
,
0000
0000
0000
0000
,
0000
0000
0000
0000
,
0001
0000
0000
0000
,
0000
0000
0000
0000
,
0001
0000
0000
0000
,
0000
0000
0000
0000
,
0100
0000
0000
0000
,
0000
0000
0000
0000
,
0100
0000
0000
0000
,
0000
0000
0000
0000
,
0000
0000
0010
0000
,
0000
0000
0000
0000
,
0000
0000
0010
0000
,
0000
0000
0000
0000
,
1000
0000
0000
0000
,
1000
0000
0000
0000
,
1000
0000
0000
0000
,
1000
0000
0000
0000
,
0001
0000
0000
0000
,
0001
0000
0000
0000
,
0001
0000
0000
0000
,
0001
0000
0000
0000
,
0100
0000
0000
0000
,
0100
0000
0000
0000
,
0100
0000
0000
0000
,
0100
0000
0000
0000
,
0010
0000
0000
0000
,
0010
0000
0000
0000
,
0010
0000
0000
0000
,
0010
0000
0000
0000
,
1000
0000
0000
0000
,
1000
0000
0000
0000
,
1000
0000
0000
0000
,
1000
0000
0000
0000
,
0001
0000
0000
0000
,
0100
0000
0000
0000
;

//---------------dance-single - ----------------
#NOTES:
     dance-single:
     :
     Medium:
     6:
     0.374,0.390,0.019,0.084,0.037:
0000
0000
0000
0000
,
0000
0000
0000
0000
,
0000
0000
0000
0000
,
0000
0000
0000
0000
,
1000
0000
0010
1000
0010
0000
1000
0000
,
0001
0000
0100
0000
0001
0010
0100
1000
,
0010
1000
0001
0100
,
0001
0100
0010
1000
,
0010
0000
1000
0000
0001
0010
0100
0000
,
1000
0000
0010
0000
1000
0100
0010
0000
,
0001
1000
0001
0100
,
0100
0010
1000
1000
,
0001
0000
0100
0000
0001
0100
0001
0000
,
1000
0000
1000
0000
0010
0100
0010
0100
,
0010
1000
0001
1000
,
0010
0100
0010
1000
,
0002
0000
0000
0003
,
1000
0000
0000
1000
0000
0000
0010
0000
,
0200
0000
0000
0000
0000
0000
0000
0300
,
0001
0000
1000
0000
,
0020
0000
0000
0000
,
0000
0000
1030
0100
,
0010
0001
0100
0010
,
1000
0001
0100
0010
,
1000
1000
0001
0001
,
0010
0100
1000
0010
,
2000
0100
0100
3100
,
0010
0001
1000
0010
,
0200
0010
0010
0010
,
0010
0310
1000
0001
,
1000
0010
0100
0001
,
0010
0100
1000
0001
,
0000
1000
0000
0000
0001
0000
0000
0100
,
0000
0000
0010
0000
0000
1000
0000
1000
,
0000
0010
0000
0000
0100
0000
0000
0000
,
0001
0000
0010
0000
0100
0000
1000
0000
0010
0000
0000
0110
0000
0000
0110
0000
,
1000
0000
0001
0000
1000
0010
0000
0010
,
0000
1000
0000
1000
0000
0010
0100
0010
,
0000
0000
0100
0000
0100
0001
0000
0001
,
0000
1000
0000
0010
0000
1000
0010
1000
,
0001
0100
0010
1000
,
0010
0100
0001
1000
,
0010
0000
0000
1000
0000
0000
0000
0010
0000
0000
1000
0000
0000
0000
0000
0000
,
0001
0000
0000
0000
0100
0000
0000
0001
0000
0000
0100
0000
0000
0000
0000
0000
,
0010
0000
1000
0000
0001
0100
0000
0100
,
0000
0010
0000
0010
0000
1000
0010
1000
,
0000
0000
0001
0000
0001
1000
0000
0010
,
0000
0100
0000
0001
0000
1000
0010
1000
,
0010
0100
0001
0010
,
0100
1000
0010
1000
,
0002
0000
0203
0000
,
0320
0000
0000
0000
2030
0000
0000
3000
,
0001
0010
0100
1000
,
0010
0000
1000
0000
0001
0100
0001
0100
,
0000
0010
1000
0100
,
0010
0000
0001
0000
0100
0010
0100
0000
,
0001
1000
0010
1000
,
0001
0100
0001
0100
0010
0000
1000
0000
,
0001
0100
0010
1000
,
0001
0010
0100
1000
0010
0100
0001
0000
,
0001
1000
1000
0010
,
0100
0010
1000
0001
,
0100
0010
1000
0001
,
1000
0010
0100
0001
,
1000
0000
0000
0000
0010
0000
0000
0000
0100
0000
0000
0100
0000
0000
0000
0000
,
0001
0000
0000
0000
1000
0000
0000
0000
0010
0000
0000
0010
0000
0000
0000
0000
,
0100
0000
0000
0000
0001
0000
0000
0000
1000
0000
0000
1000
0000
0000
0000
0000
,
0010
0000
0100
0000
0001
0100
0001
0100
,
0010
0000
0000
0000
1000
0000
0000
0000
0001
0000
0000
0001
0000
0000
0000
0000
,
1000
0000
0001
0000
1000
0001
0010
0100
;
