#TITLE:Istanbul;
#SUBTITLE:;
#ARTIST:REVen-G;
#TITLETRANSLIT:;
#SUBTITLETRANSLIT:;
#ARTISTTRANSLIT:;
#GENRE:;
#CREDIT:SupremeX;
#BANNER:Istanbul.png;
#BACKGROUND:Istanbul-bg.png;
#LYRICSPATH:;
#CDTITLE:CDTitle.png;
#MUSIC:Istanbul.ogg;
#OFFSET:-1.053148;
#SAMPLESTART:70.930000;
#SAMPLELENGTH:12.000000;
#SELECTABLE:YES;
#BPMS:0.000000=120.000000
,140.000000=240.000000
,204.000000=120.000000
;
#STOPS:
;
#BGCHANGES:16.000=tripbox.avi=1.000=0=0=1=====,
32.000=circle9.avi=1.000=0=0=1=====,
48.000=twist.avi=1.000=0=0=1=====,
64.500=web1.avi=1.000=0=0=1=====,
96.000=pikapika.avi=1.000=0=0=1=====,
128.000=circle9.avi=1.000=0=0=1=====,
140.000=wave145.avi=1.000=0=0=1=====,
204.000=Istanbul-bg.png=1.000=0=0=1=====,
99999=-nosongbg-=1.000=0=0=0 // don't automatically add -songbackground-
;
#KEYSOUNDS:;
#ATTACKS:;

//---------------dance-single - ----------------
#NOTES:
     dance-single:
     :
     Hard:
     10:
     0.694482,0.745128,0.743005,0.010614,0.233516,458.000000,388.000000,70.000000,1.000000,0.000000,0.000000,0.694482,0.745128,0.743005,0.010614,0.233516,458.000000,388.000000,70.000000,1.000000,0.000000,0.000000:
0100
0000
1000
0000
0100
0000
0010
0000
0001
0100
0010
0100
0010
0000
1000
0000
,
0001
0100
0110
1000
0001
1000
1001
0000
,
0010
0000
1000
0000
0010
0000
1000
0000
0001
0100
0001
0100
0001
0000
0010
0000
,
0110
1000
0100
1100
0000
0001
1001
0000
,
0100
0010
0100
0000
0010
0100
0010
0000
1000
0001
0100
0010
1000
0000
0000
0000
,
0001
0100
0001
0000
1000
0001
1000
0000
0010
1000
0001
0100
0010
0000
1000
0000
,
1001
0001
0010
0100
1100
1000
0010
0100
,
0101
0010
1010
1000
0100
0010
0001
0010
,
0011
0010
0100
1000
0100
0010
1001
0100
,
0010
1000
0001
0100
1001
1000
1010
0100
,
0010
1000
0001
0100
0110
1000
1001
0010
,
0100
1000
0010
1000
0110
0001
1001
0100
,
0101
0000
0010
1000
0010
0000
0100
0001
0100
0000
0010
0000
0110
0000
0001
0000
,
1000
0010
1000
0000
0010
1000
0010
0000
0101
0000
1000
0000
0001
0000
0010
0000
,
0100
1000
0100
0000
0010
0001
0010
0000
1100
0000
0010
0000
0001
0000
1000
0000
,
1001
1000
0110
0001
0011
0100
1000
0100
,
1100
0001
0010
0100
1000
0010
1000
0001
,
0100
0010
1000
0001
0100
0010
1000
0001
,
0100
0010
1000
0001
0100
0001
1000
0010
,
0100
0001
0100
0001
1000
0010
1000
0010
0100
0001
0100
0000
0010
0000
1000
0000
,
1001
1000
0010
0100
0010
1000
0001
1000
,
0010
0100
0001
0100
0010
1000
0100
0010
,
0001
1000
0010
0100
0001
1000
1001
0100
,
1100
1000
0001
0010
0100
1000
0010
0100
,
0001
0000
1000
0010
1010
0000
0001
0100
,
0101
0000
0010
1000
0001
1000
0100
0010
,
0110
0000
0001
1000
0010
1000
0110
0001
,
0010
0100
1000
0100
0010
0001
0010
0100
,
1100
0000
0010
0001
1001
0000
0010
0100
,
0110
0000
1000
0001
0010
0100
1000
0001
,
1001
0000
0100
0001
1000
0001
0100
0010
,
1000
0001
0100
0001
1000
0010
1000
0100
,
1100
0000
0000
0101
0000
0000
1010
0000
0000
1001
0000
0000
0010
0000
1000
0000
,
0110
0000
0000
0101
0000
0000
1010
0000
0000
1001
0000
0000
0100
0000
0010
0000
,
1000
0001
0100
0010
1000
0001
0100
0010
1000
0001
0100
0010
1000
0001
1000
0000
,
0010
0100
0010
1000
,
0110
0001
0010
0100
,
1001
1000
0110
0001
,
1001
1000
0101
0010
,
1010
1000
0110
0001
,
0110
1000
1001
0010
,
0101
0100
1010
1000
,
1100
0010
0011
0100
,
0110
1000
0001
0100
,
0110
1000
0001
1000
,
1001
1000
0110
0001
,
0110
1100
0110
0011
,
1001
1000
0101
0010
,
1010
1000
0100
0010
,
1001
1000
0010
1000
0001
0100
0010
1000
,
0001
0100
0010
0100
0001
1000
0010
1000
,
0010
0000
0000
0100
0000
0000
0110
0000
0000
1000
0001
0100
0010
0000
1000
0001
,
1000
0000
0010
0100
0000
0010
1000
0000
0000
0001
1000
0001
1000
0010
0100
0010
,
0200
0000
0000
0000
,
0300
0000
0000
0000
;

//---------------dance-single - ----------------
#NOTES:
     dance-single:
     :
     Easy:
     3:
     0.230483,0.286588,0.010614,0.074301,0.000000,152.000000,151.000000,1.000000,7.000000,0.000000,0.000000,0.230483,0.286588,0.010614,0.074301,0.000000,152.000000,151.000000,1.000000,7.000000,0.000000,0.000000:
0000
0000
0000
0000
,
0000
0000
0000
0000
,
1000
0010
0100
0001
,
1000
0010
0100
0001
,
1000
1000
0010
0010
,
0100
0100
0001
0001
,
1000
0010
1000
0010
,
0100
0001
0100
0001
,
1000
1000
0010
0010
,
0100
0100
0001
0001
,
1000
0100
1000
0010
,
1000
0010
0100
0001
,
0100
0100
0010
0010
,
1000
1000
0001
0001
,
0100
0010
0100
0001
,
0100
0001
1000
0010
,
0100
0001
0001
0001
,
0001
0001
0001
0001
,
1000
1000
1000
1000
,
1000
1000
1000
1000
,
0002
0000
0000
0000
0000
0000
0000
0003
,
0200
0000
0000
0000
0000
0000
0000
0300
,
0020
0000
0000
0000
0000
0000
0000
0030
,
1000
1000
0010
0010
,
0200
0000
0001
0000
,
0001
0000
0001
0000
,
0301
0000
0001
0000
,
0010
0000
0100
0000
,
2000
0000
0001
0000
,
0001
0000
0001
0000
,
3001
1000
0001
1000
,
0010
0100
0010
0100
,
0001
0001
0001
0001
,
1000
1000
1000
1000
,
0010
0100
0001
1000
,
0001
0000
1000
0000
,
0001
0000
1000
0000
,
0010
0000
0100
0000
,
0001
0000
1000
0000
,
0010
0000
0100
0000
,
0001
0000
1000
0000
,
1000
0000
0010
0000
,
0100
0000
0001
0000
,
1000
0000
0010
0000
,
0100
0000
0001
0000
,
1000
0000
0010
0000
,
0100
0000
0001
0000
,
1000
0000
1000
0000
,
1000
0000
0000
0000
,
0010
0000
0100
0000
,
0001
0000
0100
0000
,
0001
0001
1000
1000
,
0010
0100
0001
1000
,
2002
0000
0000
0000
,
3003
0000
0000
0000
;

//---------------dance-single - Copied from----------------
#NOTES:
     dance-single:
     Copied from:
     Beginner:
     2:
     0.078850,0.140640,0.000000,0.000000,0.000000,52.000000,52.000000,0.000000,0.000000,0.000000,0.000000,0.078850,0.140640,0.000000,0.000000,0.000000,52.000000,52.000000,0.000000,0.000000,0.000000,0.000000:
0000
0000
0000
0000
,
0000
0000
0000
0000
,
0000
0000
0000
0000
,
0000
0000
0000
0000
,
0010
0000
0000
0000
,
0010
0000
0000
0000
,
0010
0000
0000
0000
,
0010
0000
0000
0000
,
1000
0000
0000
0000
,
1000
0000
0000
0000
,
1000
0000
0000
0000
,
1000
0000
0000
0000
,
0100
0000
0000
0000
,
0100
0000
0000
0000
,
0100
0000
0000
0000
,
0100
0000
0000
0000
,
0010
0000
0000
0000
,
0010
0000
0000
0000
,
0010
0000
0000
0000
,
0010
0000
0000
0000
,
0001
0000
0000
0000
,
0001
0000
0000
0000
,
0001
0000
0000
0000
,
0001
0000
0000
0000
,
0010
0000
0000
0000
,
0010
0000
0000
0000
,
0010
0000
0000
0000
,
0010
0000
0000
0000
,
0100
0000
0000
0000
,
0100
0000
0000
0000
,
0100
0000
0000
0000
,
1000
0000
0000
0000
,
1000
0000
0000
0000
,
1000
0000
0000
0000
,
1000
0000
0000
0000
,
0010
0000
0000
0000
,
0010
0000
0000
0000
,
0010
0000
0000
0000
,
0010
0000
0000
0000
,
0010
0000
0000
0000
,
0010
0000
0000
0000
,
0100
0000
0000
0000
,
0100
0000
0000
0000
,
0100
0000
0000
0000
,
0100
0000
0000
0000
,
0001
0000
0000
0000
,
0001
0000
0000
0000
,
0001
0000
0000
0000
,
0001
0000
0000
0000
,
0001
0000
0000
0000
,
0001
0000
0000
0000
,
1000
0000
1000
0000
,
1000
0000
1000
0000
,
1000
0000
0000
0000
;

//---------------dance-single - ----------------
#NOTES:
     dance-single:
     :
     Medium:
     9:
     0.518587,0.515858,0.000000,0.010614,0.068993,342.000000,342.000000,0.000000,1.000000,0.000000,0.000000,0.518587,0.515858,0.000000,0.010614,0.068993,342.000000,342.000000,0.000000,1.000000,0.000000,0.000000:
0010
0100
0010
1000
0100
0010
0001
0100
,
0001
1000
0010
1000
0001
0100
0001
0000
,
1000
0100
1000
0010
0100
0010
1000
0010
,
0100
0001
0100
0001
0000
1000
1000
0000
,
0010
0010
0100
0100
0001
1000
0001
0000
,
1000
1000
0010
0010
0100
0001
0100
0010
,
0010
1000
0100
0010
0001
0100
0010
1000
,
1000
0001
0001
1000
0100
0010
0001
0100
,
0001
0010
0100
1000
0100
0010
0001
0100
,
0010
1000
0010
1000
0100
0010
0001
0100
,
0010
1000
0001
0100
0010
1000
0001
0010
,
0100
1000
0010
0100
0010
1000
0001
0100
,
0100
0001
0001
1000
1000
0010
0100
0001
,
0100
0100
0010
0010
1000
0001
0010
0100
,
1000
0100
0010
0100
0010
1000
0001
0100
,
0001
1000
0010
0100
0001
0100
0010
1000
,
1000
0001
0010
0100
1000
0010
1000
0001
,
0100
0010
0100
0001
0100
0010
1000
0010
,
0100
0010
1000
0010
0100
0001
0100
0010
,
0100
0100
0001
0001
1000
1000
0010
0100
,
0001
0100
0010
1000
0010
0100
0001
0100
,
0010
1000
0001
1000
0010
1000
0100
0010
,
0001
0100
0010
0100
0001
1000
1000
0010
,
0010
0100
0001
0010
0100
1000
0010
0100
,
0001
0000
1000
0010
0100
0000
0001
1000
,
0001
0000
0100
0010
0100
0001
0100
0010
,
0010
0000
0001
0100
0010
0000
1000
0001
,
1000
0000
0100
0010
0001
0010
0100
1000
,
1000
0000
0010
0100
0010
0000
1000
0100
,
1000
0000
0010
0100
0001
0100
0010
1000
,
1000
0000
0010
0100
0010
0000
1000
0100
,
1000
0000
0001
0100
0001
0010
0100
1000
,
0010
0000
0000
0010
0000
0000
0100
0000
0000
0100
0000
0000
0001
0000
1000
0000
,
0001
0000
0000
0100
0000
0000
0100
0000
0000
0010
0000
0000
1000
0000
0010
0000
,
0100
0001
0100
0010
1000
0010
0100
0100
,
0001
1000
0001
0100
,
0010
0100
0001
1000
,
0001
0100
0010
0100
,
0001
0010
0100
1000
,
0010
0100
0001
1000
,
0001
0100
0010
1000
,
0001
0100
0001
1000
,
0010
1000
0001
0010
,
0100
1000
0010
0100
,
0010
1000
0100
0010
,
0001
0100
0010
1000
,
0001
0010
0100
1000
,
0001
0100
0001
1000
,
0010
0100
0001
1000
,
0010
0100
0001
0100
,
0010
1000
0010
0100
,
0001
0000
0000
1000
0000
0000
1000
0000
0000
0010
0100
0010
0100
0000
0000
0001
,
0000
0000
1000
0000
0000
0001
0000
0000
0000
1000
0001
1000
0001
0100
0010
0100
,
0020
0000
0000
0000
,
0030
0000
0000
0000
;
