#TITLE:I'm Just a DJ (Eko's Bootleg Mix);
#SUBTITLE:;
#ARTIST:Ekowraith feat. Kyrn;
#TITLETRANSLIT:;
#SUBTITLETRANSLIT:;
#ARTISTTRANSLIT:;
#GENRE:;
#CREDIT:SupremeX;
#BANNER:I'm Just a DJ.png;
#BACKGROUND:I'm Just a DJ-bg.png;
#LYRICSPATH:;
#CDTITLE:CDTitle.png;
#MUSIC:I'm Just a DJ.ogg;
#OFFSET:-0.072763;
#SAMPLESTART:0.890000;
#SAMPLELENGTH:12.000000;
#SELECTABLE:YES;
#BPMS:0.000000=142.000000
;
#STOPS:
;
#BGCHANGES:20.000=gear.avi=1.000=0=0=1=====,
66.500=nyev2piano.avi=1.000=0=0=1=====,
96.000=I'm Just a DJ-bg.png=1.000=0=0=1=====,
104.000=gradius1.avi=1.000=0=0=1=====,
120.000=gradius4.avi=1.000=0=0=1=====,
136.000=lines4.avi=1.000=0=0=1=====,
152.000=robot8.avi=1.000=0=0=1=====,
168.500=nyev2piano.avi=1.000=0=0=1=====,
200.000=star7.avi=1.000=0=0=1=====,
216.000=lines4.avi=1.000=0=0=1=====,
232.000=star7.avi=1.000=0=0=1=====,
248.000=lines4.avi=1.000=0=0=1=====,
260.000=I'm Just a DJ-bg.png=1.000=0=0=1=====,
99999=-nosongbg-=1.000=0=0=0 // don't automatically add -songbackground-
;
#KEYSOUNDS:;
#ATTACKS:;

//---------------dance-single - ----------------
#NOTES:
     dance-single:
     :
     Hard:
     8:
     0.458339,0.524273,0.134429,0.035848,0.031367,358.000000,343.000000,15.000000,4.000000,0.000000,0.000000,0.458339,0.524273,0.134429,0.035848,0.031367,358.000000,343.000000,15.000000,4.000000,0.000000,0.000000:
0000
0000
0000
0000
,
0000
0000
0000
0000
,
0000
0000
0000
0000
,
0000
0000
0000
0000
,
0000
0000
0000
0000
,
0100
0000
0010
0000
1000
0001
1000
0000
,
0010
0000
0010
0100
0000
0100
0001
0000
,
1000
0000
0010
1000
0010
0000
0100
0001
,
0000
1000
0000
0100
0010
0001
0010
0100
,
0000
1001
0000
0000
1000
0010
0100
0000
,
0200
0000
0301
1000
0000
1000
0010
0000
,
0010
0000
0100
0001
0000
0001
0000
1000
,
0000
0010
0000
0100
0000
0001
0100
0001
,
0000
1001
0000
0000
1000
0100
0010
0000
,
0001
0000
0001
0100
0000
0010
0010
0000
,
1000
0001
0100
0000
0100
0001
0010
0100
,
1000
0000
0000
0000
0000
0000
0000
0000
0000
0000
0001
0000
0100
0000
0010
1000
,
0000
0000
0001
0000
0001
0000
0001
0000
0001
0000
0100
0000
0001
0000
1000
0010
,
0000
0000
0100
0000
0100
0000
0100
0000
0100
0000
0010
0000
1000
0000
0010
1000
,
0000
0000
0001
0000
0100
0000
0001
0100
0000
0000
0010
0000
1000
0000
0001
0000
,
0010
0000
0100
0000
1000
0000
0010
0000
0100
0000
0001
0000
1000
0000
0001
1000
,
0000
0000
0010
0000
0010
0000
0010
0000
0010
0000
0100
0000
0001
0000
1000
0010
,
0000
0000
0100
0000
0001
0000
0010
0000
0100
0000
1000
0000
0010
0000
1000
0010
,
0000
0100
0001
1000
0010
1000
0001
0100
,
0020
0000
0000
0000
,
0000
0000
1030
0000
,
1000
0100
0010
0001
0000
1000
0010
0100
,
0001
1000
1000
1000
1000
0001
0010
0100
,
1000
0000
0010
0100
0001
0000
1000
0010
,
0100
0001
1000
0010
1000
0001
0100
0001
,
1000
0010
0010
0010
0010
1000
0100
0010
,
0001
1000
1000
1000
1000
0001
0100
0010
,
0010
1000
0100
0010
0001
1000
0010
1000
,
0001
0100
0001
1000
0010
0100
0001
1000
,
1100
0010
0001
0010
0100
1000
0010
0100
,
0100
0000
0001
0000
0001
1000
0100
0010
,
0001
0000
1000
0010
1000
0001
0010
0100
,
1000
0010
1000
0001
0100
0010
1000
0010
,
0010
1000
0001
0100
0010
0000
1000
0100
,
0010
0001
0001
0001
0001
1000
0100
0010
,
0001
0000
1000
0010
1000
0100
0010
0001
,
1000
0010
1000
0001
0100
0010
1000
0001
,
0000
1001
0000
0000
1000
0010
0100
0000
,
0100
0000
0001
1000
0000
0000
0000
0000
,
0100
0000
0100
0010
0000
0000
0001
1000
,
0000
0100
0000
1100
0000
0010
0001
0010
,
0000
1100
0000
0000
0001
0100
0010
0000
,
0010
0000
1000
1000
0000
0000
0000
0001
,
0010
0000
0100
1000
0000
1001
0000
0220
,
0000
0000
0000
0000
,
0330
0000
0001
0000
1000
0010
0100
0000
,
0100
0000
0001
0000
1000
0100
1000
0000
,
1000
0000
0001
0000
0001
0100
0001
0000
,
0010
0000
0100
0000
1000
0010
1000
0000
,
0001
0000
0100
0000
0010
1000
0010
0000
,
1000
1000
0001
0101
,
1000
0000
1000
0010
0100
0010
0100
0000
,
0001
0000
1000
0000
0001
0100
0010
1000
,
0001
0000
1000
0000
0100
0010
0001
0000
,
0100
0010
1000
1001
,
0001
0000
1001
0000
1000
0100
1000
0000
,
0010
0000
0100
0000
0001
1000
0010
0000
,
1000
0000
1010
0000
0100
0001
0100
0000
,
0010
0000
0110
0000
0000
1000
1000
0000
,
0001
0000
0110
0000
1000
0100
0010
0000
,
1001
0000
0000
0000
;

//---------------dance-single - ----------------
#NOTES:
     dance-single:
     :
     Medium:
     5:
     0.317509,0.378642,0.035848,0.008962,0.000000,248.000000,244.000000,4.000000,1.000000,0.000000,0.000000,0.317509,0.378642,0.035848,0.008962,0.000000,248.000000,244.000000,4.000000,1.000000,0.000000,0.000000:
0000
0000
0000
0000
,
0000
0000
0000
0000
,
0000
0000
0000
0000
,
0000
0000
0000
0000
,
0000
0000
0000
0000
,
1000
1000
0010
0010
,
0100
0000
0000
0101
0000
0000
0000
0000
,
0001
0010
0100
1000
,
0010
0000
0100
0000
0001
0000
1000
0010
,
0000
0010
0000
0000
0100
0000
0100
0000
,
0001
0000
0000
1001
0000
0000
0000
0000
,
1000
0000
0010
0100
0000
0000
0001
1000
,
0000
1000
0000
0010
0000
0010
0100
0010
,
0000
1000
0000
0000
0001
0000
0001
0000
,
0100
0000
0100
0010
0000
0000
0000
0000
,
0010
0000
0000
1000
0000
0001
0000
0110
,
0000
0000
0000
0000
0000
1000
0100
0010
,
0001
0000
0000
0000
0000
0100
0010
1000
,
0010
0000
0000
0000
0000
0100
0001
0100
,
0000
0000
0010
0000
0010
0000
1000
0100
,
1000
0000
1000
0000
1000
0001
0100
0001
,
0100
0000
0001
0000
0001
1000
0001
1000
,
0001
0000
0001
0000
0001
0100
0010
0100
,
0010
0010
0010
0010
,
1001
0000
0000
0000
,
0000
0000
0000
0000
,
1000
0000
0100
0000
0010
0000
0001
0100
,
0001
0000
1000
0000
0001
0000
1000
0100
,
0010
0000
0001
1000
0001
0000
1000
0000
,
0010
0000
0010
0000
0100
0000
0001
0100
,
0001
0000
1000
0000
1000
0000
0100
0010
,
0001
0000
1000
0000
1000
0000
0010
0100
,
0010
0000
1000
0001
1000
0000
0010
0000
,
0100
0001
1000
0010
,
0100
0000
0100
0000
0100
0000
0001
1000
,
0010
0000
0010
0000
1000
0000
0001
0010
,
0100
0000
1000
0100
0010
0000
0001
0000
,
1000
0000
0001
0000
0100
0010
1000
0001
,
0100
0000
0100
0000
0010
1000
0100
0010
,
0001
0000
0100
0000
0100
0000
0010
1000
,
0010
0000
1000
0010
0100
0000
0100
0000
,
0001
0000
1000
0001
1000
0000
0001
0000
,
1000
0000
0001
0000
0100
0010
0100
0000
,
0010
0000
1000
1000
0000
0000
0000
0000
,
0001
0000
0000
0001
0000
0000
0000
0100
,
0000
0100
0000
0010
0000
0010
1000
0010
,
0000
1000
0000
0000
0001
0000
0001
0000
,
0100
0000
0010
0010
0000
0000
0000
1000
,
0100
0000
0000
1000
0000
0001
0000
0200
,
0000
0000
0000
0000
,
0310
0010
1000
0001
,
0000
0000
0100
0000
0000
0010
0100
0000
,
0000
0001
0001
1000
,
0100
0010
0001
1000
,
0010
0000
1000
0000
0000
0001
0100
0000
,
0010
0000
0010
0000
0000
1000
0001
0000
,
1000
0000
1000
0000
0001
0010
0100
0000
,
1000
0010
1000
0001
,
0100
0000
0100
0000
0000
0010
1000
0000
,
0000
0000
1000
0000
0000
0010
0100
0000
,
0000
0000
0100
0000
0001
0010
0100
0000
,
1000
0010
1000
0001
,
0001
0000
0100
0000
0000
0010
1000
0000
,
0000
0000
1000
0000
0000
0001
0001
0000
,
0000
0000
1000
0000
0010
1000
0001
0000
,
0100
0000
0000
0000
;

//---------------dance-single - ----------------
#NOTES:
     dance-single:
     :
     Easy:
     3:
     0.235571,0.262137,0.008962,0.035848,0.000000,184.000000,183.000000,1.000000,4.000000,0.000000,0.000000,0.235571,0.262137,0.008962,0.035848,0.000000,184.000000,183.000000,1.000000,4.000000,0.000000,0.000000:
0000
0000
0000
0000
,
0000
0000
0000
0000
,
0000
0000
0000
0000
,
0000
0000
0000
0000
,
0000
0000
0000
0000
,
0001
1000
0000
0000
,
0010
0000
0000
0010
0000
0000
0000
0000
,
0100
0000
0001
0000
1000
0000
0000
0010
,
0000
0000
0000
0100
0000
0000
0000
0001
,
0000
0001
0000
0000
1000
0000
0010
0000
,
0100
0000
0000
0100
0000
0000
0000
0000
,
0001
0000
0000
1000
0000
0000
0000
0010
,
0000
0000
0000
0100
0000
0000
0000
0001
,
0000
0001
0000
0000
1000
0000
0010
0000
,
0100
0000
0000
0100
0000
0000
0000
0000
,
0001
0000
0000
1000
0000
0010
0000
0100
,
0000
0000
0000
0000
,
0001
1000
1000
0001
,
0100
0100
0100
0010
,
1000
0010
0100
0001
,
1000
0010
0100
0001
,
1000
0010
0010
0100
,
0001
1000
1000
0010
,
0100
0100
0001
1000
,
0020
0000
0000
0000
,
0000
0000
0000
0000
,
0130
0000
0000
0001
,
1000
0000
0000
0010
,
0100
0001
1000
0010
,
0100
0100
0100
0001
,
1000
0000
0000
0010
,
0100
0000
0000
0001
,
0001
1000
1000
0010
,
0200
0000
0000
0000
,
0301
1000
1000
0001
,
0100
0100
0100
0010
,
1000
0010
0100
0001
,
0100
0010
0010
1000
,
1000
0001
0001
0100
,
0100
0010
0010
1000
,
0001
0100
0010
1000
,
0001
0001
0001
0100
,
0010
0010
1000
0001
,
0100
0000
0000
0100
0000
0000
0000
0000
,
0010
0000
0000
1000
0000
0000
0001
0100
,
0000
0010
0000
0010
0000
0000
0000
1000
,
0000
1000
0000
0000
0001
0000
0100
0000
,
0010
0000
0000
0010
0000
0000
0000
0000
,
1000
0000
0000
0001
0000
1000
0000
0220
,
0000
0000
0000
0000
0000
0000
0000
0330
,
0000
0001
0001
1000
,
0000
0010
0010
0100
,
0000
0001
0001
1000
,
0010
1000
0010
0100
,
0001
1000
1000
0010
,
0000
0100
0000
0001
,
0000
1000
1000
0010
,
0100
0001
0100
0010
,
1000
0001
0001
0100
,
0000
0010
0000
1000
,
0001
0100
0010
0010
,
1000
0001
0100
0010
,
1000
0100
0010
0010
,
0000
0001
0000
0100
,
0000
0010
1000
0001
,
0100
0000
0000
0000
;

//---------------dance-single - Copied from----------------
#NOTES:
     dance-single:
     Copied from:
     Beginner:
     2:
     0.085779,0.145632,0.000000,0.000000,0.000000,67.000000,67.000000,0.000000,0.000000,0.000000,0.000000,0.085779,0.145632,0.000000,0.000000,0.000000,67.000000,67.000000,0.000000,0.000000,0.000000,0.000000:
0000
0000
0000
0000
,
0000
0000
0000
0000
,
0000
0000
0000
0000
,
0000
0000
0000
0000
,
0000
0000
0000
0000
,
0000
0010
0000
0010
,
0000
0010
0000
0010
,
0000
0100
0000
0100
,
0000
0100
0000
0000
,
0001
0000
0001
0000
,
0001
0000
0000
0000
,
1000
0000
1000
0000
,
1000
0000
0000
0000
,
0010
0000
0010
0000
,
0010
0000
0000
0000
,
0100
0000
0100
0000
,
0100
0000
0000
0000
,
0001
0000
0000
0000
,
0001
0000
0000
0000
,
1000
0000
0000
0000
,
1000
0000
0000
0000
,
0010
0000
0000
0000
,
0010
0000
0000
0000
,
0100
0000
0000
0000
,
0100
0000
0000
0000
,
0000
0000
0000
0000
,
0001
0000
0000
0000
,
0001
0000
0000
0000
,
0001
0000
0000
0000
,
0001
0000
0000
0000
,
1000
0000
0000
0000
,
1000
0000
0000
0000
,
1000
0000
0000
0000
,
1000
0000
0000
0000
,
0010
0000
0000
0000
,
0010
0000
0000
0000
,
0010
0000
0000
0000
,
0010
0000
0000
0000
,
0100
0000
0000
0000
,
0100
0000
0000
0000
,
0100
0000
0000
0000
,
0100
0000
0000
0000
,
0001
0000
0000
0000
,
0001
0000
0000
0000
,
0100
0000
0000
0000
,
0100
0000
0000
0000
,
0010
0000
0000
0000
,
0010
0000
0000
0000
,
1000
0000
0000
0000
,
1000
0000
0000
0000
,
0010
0000
0000
0000
,
0010
0000
0000
0000
,
0100
0000
0000
0000
,
0100
0000
0000
0000
,
0001
0000
0000
0000
,
0001
0000
0000
0000
,
0001
0000
0000
0000
,
1000
0000
0000
0000
,
1000
0000
0000
0000
,
0010
0000
0000
0000
,
0010
0000
0000
0000
,
0100
0000
0000
0000
,
0100
0000
0000
0000
,
0001
0000
0000
0000
,
0001
0000
0000
0000
,
1000
0000
0000
0000
;
