#TITLE:I WANT THAT MAN (Almighty Definitive Radio Mix);
#SUBTITLE:;
#ARTIST:Deborah harry;
#TITLETRANSLIT:;
#SUBTITLETRANSLIT:;
#ARTISTTRANSLIT:;
#GENRE:;
#CREDIT:SupremeX;
#BANNER:I WANT THAT MAN-bn.png;
#BACKGROUND:I WANT THAT MAN-bg.png;
#LYRICSPATH:;
#CDTITLE:CDTitle.png;
#MUSIC:I WANT THAT MAN.ogg;
#OFFSET:-0.501281;
#SAMPLESTART:42.049999;
#SAMPLELENGTH:12.000000;
#SELECTABLE:YES;
#BPMS:0.000000=134.000000
;
#STOPS:
;
#BGCHANGES:16.000=blinds1.avi=1.000=0=0=1=====,
32.000=ring3.avi=1.000=0=0=1=====,
48.000=line_b.avi=1.000=0=0=1=====,
64.000=ring3.avi=1.000=0=0=1=====,
80.000=line_a.avi=1.000=0=0=1=====,
96.000=line.avi=1.000=0=0=1=====,
124.000=I WANT THAT MAN-bg.png=1.000=0=0=1=====,
128.000=stairs1.avi=1.000=0=0=1=====,
136.000=blinds2.avi=1.000=0=0=1=====,
144.000=stairs1.avi=1.000=0=0=1=====,
152.000=blinds2.avi=1.000=0=0=1=====,
160.000=ring3.avi=1.000=0=0=1=====,
176.000=line_b.avi=1.000=0=0=1=====,
192.000=stairs1.avi=1.000=0=0=1=====,
207.500=I WANT THAT MAN-bg.png=1.000=0=0=1=====,
99999=-nosongbg-=1.000=0=0=0 // don't automatically add -songbackground-
;
#KEYSOUNDS:;
#ATTACKS:;

//---------------dance-single - ----------------
#NOTES:
     dance-single:
     :
     Hard:
     7:
     0.447879,0.484677,0.197245,0.031144,0.000000,302.000000,283.000000,19.000000,3.000000,0.000000,0.000000,0.447879,0.484677,0.197245,0.031144,0.000000,302.000000,283.000000,19.000000,3.000000,0.000000,0.000000:
0000
0000
0000
0000
,
0000
0000
0000
0000
,
0000
0000
0000
0000
,
0000
0000
0000
0000
,
1000
0010
1000
0001
1000
0010
0100
0001
,
0100
0010
0100
0001
1000
0001
1000
0001
,
0010
0100
1000
0010
1000
0001
1000
0010
,
0100
0010
1000
0010
0100
0001
1000
0010
,
0100
0000
0001
0000
0010
0000
0100
0100
,
0000
0000
1001
0000
0001
0001
0000
0011
,
0000
0000
0100
0000
1000
1000
0000
1001
,
0000
1000
0100
0010
0001
1000
0010
1000
,
0001
0000
1000
0000
0010
0100
0001
2000
,
0000
3010
0000
0000
0010
1000
0000
0001
,
1000
0000
0010
0000
0100
0000
0010
1000
,
0010
0000
0100
0000
0100
0000
0001
1000
,
0001
0000
0100
0000
0010
1000
0010
2000
,
0000
3002
0000
0003
0100
0100
0000
1001
,
0000
0000
1000
0000
0010
0010
0000
1010
,
0000
0001
0010
0100
1000
0010
1000
0000
,
0001
0000
1000
0000
0001
0100
0010
1000
,
0001
0100
0000
0010
0000
1000
0000
0001
,
1001
0000
0010
0000
0100
0010
1000
0001
,
1001
0100
0010
1000
,
0001
1000
0100
1000
0100
0010
0001
0010
,
0001
1000
0010
1000
0010
0100
0001
1000
,
0001
1000
0010
0000
0100
0010
0000
0110
,
0000
1000
0001
0000
1000
0100
0010
0001
,
1000
0100
1000
0001
0010
0100
1000
0010
,
0000
1000
1000
0000
0010
0100
0000
0110
,
0000
0001
1000
0000
0010
0100
0000
0110
,
0000
0001
1000
0010
1000
0010
0000
0000
,
1100
0010
0001
0010
0100
1000
0010
0100
,
0001
1000
0010
0100
0001
1000
0010
1000
,
0001
1000
0100
0010
0001
0100
0010
1000
,
0001
1000
0100
0010
0001
0010
0100
0000
,
1000
0010
0100
0010
1000
0001
0100
0001
,
1000
0010
0100
0001
0010
0100
1000
0010
,
1000
0000
0101
0000
1000
0100
0010
0001
,
1000
0010
1000
0010
0100
0001
0100
0001
,
1000
0001
0101
1000
,
1010
0000
0001
0000
0110
0000
1000
0100
,
0010
0101
1001
0100
,
1100
0000
0010
0000
0011
0000
1000
0001
,
1000
0010
1000
0010
,
0100
0000
0001
0010
0100
0000
1000
0010
,
0000
1000
1000
0001
,
0100
0000
0010
1000
0010
0000
1000
0010
,
1000
0001
0010
0100
,
1000
0000
0010
0100
0010
0000
1000
0001
,
1000
0010
0100
0001
,
1000
0001
0010
0100
1000
0000
0010
0010
;

//---------------dance-single - ----------------
#NOTES:
     dance-single:
     :
     Medium:
     5:
     0.309956,0.377880,0.155720,0.000000,0.000000,209.000000,194.000000,15.000000,0.000000,0.000000,0.000000,0.309956,0.377880,0.155720,0.000000,0.000000,209.000000,194.000000,15.000000,0.000000,0.000000,0.000000:
0000
0000
0000
0000
,
0000
0000
0000
0000
,
0000
0000
0000
0000
,
0000
0000
0000
0000
,
1000
0010
1000
0000
0001
0000
0001
0000
,
0100
0100
0010
0010
,
1000
0001
1000
0000
0010
0000
0010
0000
,
0100
0100
0001
1000
,
0001
0000
1000
0000
0010
0100
0000
0100
,
0000
0000
0001
0000
1000
0010
0000
0010
,
0000
0000
0100
0000
0001
0001
0000
1000
,
0000
1000
0010
0100
0010
0000
1000
1000
,
0010
0100
0001
1000
,
0010
0000
1000
0000
0010
0100
0000
0100
,
0000
0001
0001
1000
,
1000
0010
0100
0010
,
0100
0000
0001
0000
1000
0000
0000
1000
,
0000
0010
0000
0000
0100
0010
0000
0100
,
0000
0000
0000
0000
0001
0000
0000
1000
,
0000
0010
1000
0010
,
1000
0001
0100
0010
,
0100
0010
0000
1000
0000
1000
0000
0001
,
0000
0100
0010
0100
,
0001
0100
0010
1000
,
0010
1000
0001
1000
,
0010
0000
0100
0000
0001
0010
0001
0000
,
1000
0000
1000
0000
0010
0100
0000
0100
,
0000
0000
0001
1000
,
0010
1000
0010
0100
,
0010
0000
1000
0000
0010
0000
0000
0100
,
0000
0000
0000
0000
0001
0000
0000
1001
,
0000
0000
1000
0000
,
1001
0100
0010
0001
,
0010
0100
1000
0010
,
1010
0100
0010
0001
,
0010
0100
1000
0001
,
1001
1001
0100
0100
,
0010
0010
1000
0001
,
1001
1001
0010
0100
,
1000
0001
0100
0010
,
1000
0001
1010
0001
,
0101
0010
1010
0001
,
0101
1000
1100
0010
,
0011
0100
1100
0010
,
0011
1000
0010
1000
,
0001
0000
0100
0000
0010
0000
1000
0010
,
1000
0001
0100
0010
,
1000
0000
0001
0000
0100
0000
0010
0100
,
0010
1000
1000
0001
,
0001
0000
1000
0000
0010
0000
0100
0010
,
1000
0001
0100
0010
,
1000
0000
0001
0000
0100
0000
0010
1000
,
0001
0000
0000
0000
;

//---------------dance-single - ----------------
#NOTES:
     dance-single:
     :
     Easy:
     3:
     0.259533,0.269265,0.062288,0.000000,0.000000,175.000000,169.000000,6.000000,0.000000,0.000000,0.000000,0.259533,0.269265,0.062288,0.000000,0.000000,175.000000,169.000000,6.000000,0.000000,0.000000,0.000000:
0000
0000
0000
0000
,
0000
0000
0000
0000
,
0000
0000
0000
0000
,
0000
0000
0000
0000
,
1000
1000
1000
1000
,
1000
1000
1000
1000
,
0001
0001
0001
0001
,
0001
0001
0001
0001
,
0001
0000
0100
0000
0010
0000
0000
0100
,
0000
0000
0010
0000
1000
0000
0000
1000
,
0000
0000
0000
0000
0001
0000
0000
0100
,
0000
0010
0100
0010
,
1000
0000
0000
0000
0001
0000
0000
0001
,
0000
0000
1000
0010
,
1000
0001
0100
0001
,
1000
0010
1000
0001
,
1000
0000
0010
0000
0100
0000
0000
0001
,
0000
0000
0000
0000
0001
0000
0000
0001
,
0000
0000
0000
0000
1000
0000
0000
0010
,
0000
1000
0010
1000
,
1000
0000
0001
0100
,
0010
0000
0000
1000
0000
1000
0000
1000
,
0000
0010
0100
0001
,
1000
0010
0100
0001
,
1000
1000
1000
1000
,
0010
0010
0010
0010
,
0100
0100
0100
0100
,
0001
0001
0001
0001
,
1000
0010
1000
0010
,
1000
0000
0000
0000
0001
0000
0000
0101
,
0000
0000
0000
0000
1000
0000
0000
1010
,
0000
0000
0001
0000
,
1000
1000
0010
0010
,
0100
0100
0001
0001
,
1000
0010
1000
0001
,
1000
0010
0100
0001
,
1000
0001
0100
0010
,
1000
0001
0010
0100
,
1000
1000
0010
0100
,
0010
1000
0001
0100
,
0010
1000
0001
0001
,
1000
1000
0010
0010
,
0100
0100
0001
0001
,
1000
1000
0010
0010
,
0100
0001
1000
0010
,
1000
0000
0001
0000
0100
0000
0000
0110
,
0000
0001
0001
0010
,
0100
0000
1000
0000
0001
0000
0000
0101
,
0000
1000
0100
0010
,
0001
0000
1000
0000
0010
0000
0000
1010
,
0000
0001
0010
0100
,
1000
0000
0001
0000
0100
0000
0000
1001
;

//---------------dance-single - Copied from----------------
#NOTES:
     dance-single:
     Copied from:
     Beginner:
     1:
     0.072669,0.105889,0.000000,0.000000,0.000000,49.000000,49.000000,0.000000,0.000000,0.000000,0.000000,0.072669,0.105889,0.000000,0.000000,0.000000,49.000000,49.000000,0.000000,0.000000,0.000000,0.000000:
0000
0000
0000
0000
,
0000
0000
0000
0000
,
0000
0000
0000
0000
,
0000
0000
0000
0000
,
1000
0000
0000
0000
,
1000
0000
0000
0000
,
1000
0000
0000
0000
,
1000
0000
0000
0000
,
0010
0000
0000
0000
0000
0000
0000
0010
,
0000
0000
0000
0000
0000
0000
0000
0010
,
0000
0000
0000
0000
0000
0000
0000
0010
,
0000
0000
0000
0000
0000
0000
0000
0010
,
0000
0000
0100
0000
,
0000
0000
0000
0100
0000
0000
0000
0000
,
0000
0000
0100
0000
,
0000
0000
0000
0000
,
0001
0000
0000
0000
0000
0000
0000
0001
,
0000
0000
0000
0000
0000
0000
0000
0001
,
0000
0000
0000
0000
0000
0000
0000
0001
,
0000
0000
0000
0000
0000
0000
0000
0001
,
0000
0000
1000
0000
,
1000
0000
1000
0000
,
1000
0000
0000
0000
,
0000
0000
0000
0000
,
0010
0000
0000
0000
,
0010
0000
0000
0000
,
0010
0000
0000
0000
,
0010
0000
0000
0000
,
0100
0000
0000
0000
,
0100
0000
0000
0000
,
0100
0000
0000
0000
0000
0000
0000
0001
,
0000
0000
0000
0000
,
1000
0000
0000
0000
,
1000
0000
0000
0000
,
0001
0000
0000
0000
,
0001
0000
0000
0000
,
0100
0000
0000
0000
,
0100
0000
0000
0000
,
0010
0000
0000
0000
,
0010
0000
0000
0000
,
1000
0000
0000
0000
,
1000
0000
0000
0000
,
0001
0000
0000
0000
,
0001
0000
0000
0000
,
1000
0000
0000
0000
,
1000
0000
0000
0000
,
0001
0000
0000
0000
,
0001
0000
0000
0000
,
0100
0000
0000
0000
,
0100
0000
0000
0000
,
0100
0000
0000
0000
,
0100
0000
0000
0000
;
