#TITLE:I Hate My Self for Loving You;
#SUBTITLE:(The Factory Team Eurotrance Mix);
#ARTIST:DJ MIKO;
#TITLETRANSLIT:;
#SUBTITLETRANSLIT:;
#ARTISTTRANSLIT:;
#GENRE:;
#CREDIT:SupremeX;
#BANNER:I Hate My Self for Loving You (The Factory Team Eurotrance Mix) alt.png;
#BACKGROUND:I Hate My Self for Loving You (The Factory Team Eurotrance Mix)-bg.png;
#LYRICSPATH:;
#CDTITLE:CdTitle.png;
#MUSIC:I Hate My Self for Loving You (The Factory Team Eurotrance Mix).ogg;
#OFFSET:-0.088071;
#SAMPLESTART:58.500000;
#SAMPLELENGTH:12.000000;
#SELECTABLE:YES;
#BPMS:0.000000=140.000000
;
#STOPS:
;
#BGCHANGES:16.500=blizzard1.avi=1.000=0=0=1=====,
33.000=cyber2.avi=1.000=0=0=1=====,
49.000=stairs1.avi=1.000=0=0=1=====,
64.500=tuxedo2.avi=1.000=0=0=1=====,
89.000=ddr12.avi=1.000=0=0=1=====,
98.000=ddr11.avi=1.000=0=0=1=====,
113.500=ddr10.avi=1.000=0=0=1=====,
128.500=blizzard1.avi=1.000=0=0=1=====,
136.500=ants1.avi=1.000=0=0=1=====,
153.500=star5.avi=1.000=0=0=1=====,
161.000=blizzard1.avi=1.000=0=0=1=====,
169.000=cyber2.avi=1.000=0=0=1=====,
185.000=cards4.avi=1.000=0=0=1=====,
200.500=stairs1.avi=1.000=0=0=1=====,
217.000=ddr12.avi=1.000=0=0=1=====,
230.500=I Hate My Self for Loving You (The Factory Team Eurotrance Mix)-bg.png=1.000=0=0=1=====,
99999=-nosongbg-=1.000=0=0=0 // don't automatically add -songbackground-
;
#KEYSOUNDS:;
#ATTACKS:;

//---------------dance-single - ----------------
#NOTES:
     dance-single:
     :
     Hard:
     8:
     0.438038,0.482171,0.207563,0.075477,0.000000,325.000000,303.000000,22.000000,8.000000,0.000000,0.000000,0.438038,0.482171,0.207563,0.075477,0.000000,325.000000,303.000000,22.000000,8.000000,0.000000,0.000000:
0000
0000
0000
0000
,
0000
0000
0000
0000
,
0000
0000
0000
0000
,
0000
0000
0000
0000
,
0000
1000
0100
0000
1100
0000
0110
0000
,
0011
0000
1000
0010
0100
0000
0001
0100
,
0010
0000
1000
0010
1000
0000
0001
0100
,
0010
1000
0010
0100
0000
0001
0000
1000
,
1000
1000
0010
0000
0010
0000
0100
0000
,
0100
0001
0000
0001
0100
0000
1010
0000
,
0100
0001
0000
0001
0010
0100
1000
0000
,
1000
0010
0000
0010
0100
0000
0110
0001
,
0100
0010
1000
0000
0010
0000
1001
0000
,
0100
0010
0000
0010
0100
0000
1010
0000
,
0100
0001
0000
1000
0100
0010
0001
0000
,
1000
0010
0000
0010
1000
0000
0001
0100
,
0001
1000
0010
0000
0010
0000
0100
0001
,
1000
0000
0010
1000
0000
0020
0000
0100
,
0000
0130
0000
0001
1000
0010
0100
0001
,
1000
0000
0001
0010
0100
1000
0000
0020
,
0000
1030
0000
1000
0010
0100
0010
1000
,
0001
0100
0010
0100
0010
2000
0000
3000
,
0000
0000
0001
0000
0001
0000
0100
0010
,
0100
0000
0001
1000
0000
1001
0000
0010
,
1000
0002
0003
0100
0010
1000
0001
0000
,
0100
0010
1000
0001
1000
0010
0000
0200
,
0000
0301
1000
0010
1000
0001
0000
0000
,
1000
0001
1000
0010
0100
0020
0000
0130
,
0100
0001
0000
0001
1000
0010
1000
0000
,
0001
0100
0001
0000
1000
0010
0000
0010
,
0000
1000
0100
0000
0100
1000
0010
0000
,
0010
0100
0001
0100
0000
0010
0000
1000
,
0000
0001
0000
1000
0100
1000
0100
0010
,
0001
0010
0001
1000
0010
1000
0010
0100
,
0001
1000
0100
0000
1100
0000
0011
0000
,
1000
0001
0100
0001
0000
1001
0000
0110
,
0000
1001
0000
0010
1000
0000
0001
0000
,
0100
0001
1000
0010
0100
0010
0000
1000
,
0000
1001
0000
0010
0100
1000
0010
0000
,
0100
0001
0100
0010
0010
1000
0000
0001
,
0100
0010
1000
0000
1010
0000
0101
0000
,
1000
0100
0010
0001
0000
0110
0000
1000
,
1000
1000
0010
0000
0100
0000
0001
0000
,
1000
0010
0000
0010
1000
0000
0101
0000
,
0010
1000
0000
1000
0001
0100
0001
0000
,
1000
0010
0000
0010
1000
0000
0010
0010
,
0100
0001
0100
0000
1001
0000
0110
0000
,
0001
0100
0000
0010
1000
0000
0110
0000
,
0001
0100
0000
0100
0001
1000
0010
0000
,
0010
1000
0000
0001
0100
0000
0001
1000
,
0010
1000
0001
0000
0100
0000
0001
0000
,
1000
0001
0000
0001
1000
0000
0010
0000
,
0100
0001
0000
1000
0010
1000
0001
0000
,
0100
0010
0000
1000
0001
0000
0100
0010
,
1000
0010
0100
0000
0001
0000
0001
0000
,
1000
0010
0000
0100
0001
0000
1000
0000
,
0010
0100
0000
0001
1000
0010
0100
0000
,
0001
0000
1000
0001
0000
2002
0000
0000
,
0000
0000
0000
0000
,
0000
0000
0000
0000
,
0000
3003
0000
0000
0000
0000
0000
0000
;

//---------------dance-single - ----------------
#NOTES:
     dance-single:
     :
     Medium:
     6:
     0.328866,0.368719,0.084912,0.018869,0.000000,244.000000,235.000000,9.000000,2.000000,0.000000,0.000000,0.328866,0.368719,0.084912,0.018869,0.000000,244.000000,235.000000,9.000000,2.000000,0.000000,0.000000:
0000
0000
0000
0000
,
0000
0000
0000
0000
,
0000
0000
0000
0000
,
0000
0000
0000
0000
,
0000
0010
0010
0100
,
0100
0000
0001
0000
1000
0000
0010
1000
,
0010
0100
0001
1000
,
0010
0000
0100
0100
0000
0001
0000
1000
,
0100
1000
0100
0000
0010
0000
0001
0000
,
0100
0100
0000
0010
0010
0000
1000
0000
,
0001
0001
0000
0100
0010
0100
0010
0000
,
1000
1000
0000
0001
0100
0000
0010
0000
,
1000
0001
1000
0010
,
0100
0001
0000
1000
0010
0000
0100
0000
,
0001
1000
0000
0010
0100
0010
0100
0000
,
0001
1000
0010
0100
,
0001
0000
1000
0000
1000
0000
0010
0010
,
0010
0000
0100
0000
0000
0001
0000
0001
,
0000
0001
0000
0000
1000
0000
0010
0000
,
0100
0000
0001
0000
0000
1000
0000
1000
,
0000
1000
0000
0000
0010
0000
0100
0000
,
0001
1000
0010
0100
,
0001
1000
0010
0100
,
0001
0000
1000
0010
0000
0110
0000
0001
,
0000
0001
0000
1000
0010
1000
0010
0000
,
0100
0000
0001
1000
0000
0010
0000
1000
,
0000
0110
0000
0001
0000
0100
0000
0000
,
0001
0000
1000
0010
1000
0010
0000
0000
,
0000
0000
0000
0100
0000
0000
0001
0000
,
1000
0000
0001
0000
0000
1001
0000
0000
,
0000
0000
0010
0100
,
0000
0000
0010
0000
0000
0110
0000
0000
,
0000
1000
0010
0100
,
0001
1000
0010
0100
,
0001
1000
0001
1001
,
0010
0000
0100
0010
0000
0110
0000
1000
,
0000
0001
0000
1000
0010
0000
0100
0000
,
0010
0000
1000
0100
0010
0001
0000
0100
,
0000
0100
0000
0000
0010
0000
1000
0000
,
0001
0000
1000
0000
0010
0100
0000
0001
,
1000
0001
1010
0101
,
0010
0000
0010
1000
0000
1000
0000
0001
,
0100
0010
1000
0000
0010
0000
0100
0000
,
0001
0001
0000
1000
0010
0000
0010
0000
,
1000
1000
0000
0001
0100
0010
1000
0000
,
0001
0100
0000
0100
0001
0000
1000
0000
,
0010
1000
0001
0000
,
1000
0010
0000
0010
1000
0000
0001
0000
,
0100
0001
0000
1000
0010
0100
0010
0000
,
1000
0010
0000
0100
0001
0000
1000
0000
,
0000
0001
1000
0000
0010
0000
0100
0000
,
0010
0100
0000
0001
1000
0000
0010
0000
,
0010
0100
0000
0000
0001
0000
1000
0000
,
0010
0100
0000
0001
1000
0000
0001
0000
,
0100
0010
0100
0000
0001
0000
1000
0000
,
0010
0100
0000
0001
1000
0000
0010
0000
,
0010
0100
0000
0000
0001
0000
0001
0000
,
1000
0000
0010
0100
0000
2002
0000
0000
,
0000
0000
0000
0000
,
0000
0000
0000
0000
,
0000
3003
0000
0000
0000
0000
0000
0000
;

//---------------dance-single - ----------------
#NOTES:
     dance-single:
     :
     Easy:
     3:
     0.247997,0.244653,0.094347,0.000000,0.000000,184.000000,174.000000,10.000000,0.000000,0.000000,0.000000,0.247997,0.244653,0.094347,0.000000,0.000000,184.000000,174.000000,10.000000,0.000000,0.000000,0.000000:
0000
0000
0000
0000
,
0000
0000
0000
0000
,
0000
0000
0000
0000
,
0000
0000
0000
0000
,
0000
1000
0010
1000
,
0001
0100
0001
1000
,
0010
1000
0001
0100
,
0001
0000
1000
0000
0000
0010
0000
0000
,
0000
0100
0001
1000
,
0010
0000
0100
0100
,
0001
0000
1000
0010
,
1000
0000
0001
0100
,
0010
1000
0001
0001
,
0100
0000
0010
1000
,
1000
0000
0001
0100
,
0010
1000
0001
0100
,
0010
1000
1000
0001
,
0001
0000
0100
0000
0000
0110
0000
0000
,
0000
0000
0001
1000
,
0010
0000
0100
0000
0000
1001
0000
0000
,
0000
0000
1000
0100
,
0010
0000
0001
0000
0000
1000
0000
0000
,
0000
0010
0100
0010
,
1000
0000
0001
0000
0000
0101
0000
0000
,
0000
0000
1000
1000
,
0010
0000
0100
0000
0000
0110
0000
0000
,
0000
0001
0001
0001
,
0000
1000
0010
1000
,
0000
0000
0001
0100
,
0010
0000
1000
0000
0000
1010
0000
0000
,
0000
0000
0001
0100
,
0010
0000
1000
0000
0000
1000
0000
0010
,
0000
0100
0000
0000
0001
0000
1000
0000
,
0010
0100
0001
1000
,
0010
0100
0100
0001
,
1000
0000
0010
0000
0000
0110
0000
0000
,
0000
0001
1000
0010
,
0100
0000
0001
0000
0000
1001
0000
0000
,
0000
0000
1000
1000
,
0010
0100
0001
0001
,
1000
0010
0100
0001
,
1000
0000
0001
0000
0000
0110
0000
0000
,
1000
1000
0001
0001
,
0100
0000
0010
1000
,
0001
0000
1000
0010
,
0100
0000
0001
1000
,
0010
0100
0001
0001
,
1000
0000
0010
0100
,
0001
0000
1000
1000
,
0010
0000
0100
0100
,
0001
1000
0010
1000
,
0001
0100
0010
1000
,
0001
0100
0001
1000
,
0010
0010
1000
1000
,
0001
0100
0010
1000
,
0001
0001
0100
0100
,
0010
1000
0001
0100
,
0000
0000
1001
0000
0000
1001
0000
0000
;

//---------------dance-single - Copied from----------------
#NOTES:
     dance-single:
     Copied from:
     Beginner:
     1:
     0.064695,0.081020,0.000000,0.000000,0.000000,48.000000,48.000000,0.000000,0.000000,0.000000,0.000000,0.064695,0.081020,0.000000,0.000000,0.000000,48.000000,48.000000,0.000000,0.000000,0.000000,0.000000:
0000
0000
0000
0000
,
0000
0000
0000
0000
,
0000
0000
0000
0000
,
0000
0000
0000
0000
,
0000
1000
0000
0000
,
0000
0000
0000
0000
,
0000
1000
0000
0000
,
0000
0000
0000
0000
,
0000
0001
0000
0000
,
0000
0000
0000
0000
,
0000
0000
0000
0001
,
0000
0000
0000
0000
,
0000
0100
0000
0000
,
0000
0000
0000
0000
,
0000
0000
0000
0100
,
0000
0000
0000
0000
,
0000
0010
0000
0000
,
0000
0010
0000
0000
,
0000
0000
1000
0000
,
0000
1000
0000
0000
,
0000
0001
0000
0000
,
0000
0001
0000
0000
,
0000
0100
0000
0000
,
0000
0100
0000
0000
,
0000
0000
0010
0000
,
0000
0010
0000
0000
,
0000
1000
0000
0000
,
0000
1000
0000
0000
,
0000
0001
0000
0000
,
0000
0001
0000
0000
,
0000
0100
0000
0000
,
0000
0100
0000
0000
,
0000
0010
0000
0000
0000
0000
0000
0000
,
0000
0010
0000
0000
,
0000
1000
0000
0000
,
0000
1000
0000
0000
,
0000
0001
0000
0000
0000
0000
0000
0000
,
0000
0001
0000
0000
,
0000
0000
0000
0100
0000
0000
0000
0000
,
0000
0100
0000
0000
,
0000
0010
0000
0000
,
0000
0010
0000
0000
,
0000
1000
0000
0000
,
1000
0000
0000
0000
,
0001
0000
0000
0000
,
0001
0000
0000
0000
,
0000
0100
0000
0000
,
0100
0000
0000
0000
,
0010
0000
0000
0000
,
0010
0000
0000
0000
,
0000
1000
0000
0000
,
1000
0000
0000
0000
,
0001
0000
0000
0000
,
0001
0000
0000
0000
,
0000
0100
0000
0000
,
0100
0000
0000
0000
,
0000
0010
0000
0000
,
0000
0010
0000
0000
;
