#TITLE:Holding On 4U (Visa Radio Mix);
#SUBTITLE:;
#ARTIST:Clock;
#TITLETRANSLIT:;
#SUBTITLETRANSLIT:;
#ARTISTTRANSLIT:;
#GENRE:;
#CREDIT:SupremeX;
#BANNER:Holding On 4U (Visa Radio Mix).png;
#BACKGROUND:Holding On 4U (Visa Radio Mix)-bg.png;
#LYRICSPATH:;
#CDTITLE:CDTitle.png;
#MUSIC:Holding On 4U (Visa Radio Mix).ogg;
#OFFSET:-0.069750;
#SAMPLESTART:49.430000;
#SAMPLELENGTH:12.000000;
#SELECTABLE:YES;
#BPMS:0.000000=160.000000
;
#STOPS:
;
#BGCHANGES:0.000=Holding On 4U.avi=1.000=0=0=1=====,
99999=-nosongbg-=1.000=0=0=0 // don't automatically add -songbackground-
;
#KEYSOUNDS:;
#ATTACKS:;

//---------------dance-single - ----------------
#NOTES:
     dance-single:
     :
     Hard:
     8:
     0.436824,0.544165,0.235861,0.176896,0.000000,363.000000,335.000000,28.000000,21.000000,0.000000,0.000000,0.436824,0.544165,0.235861,0.176896,0.000000,363.000000,335.000000,28.000000,21.000000,0.000000,0.000000:
0000
0000
0000
0000
,
0000
0000
0000
0000
,
0000
0000
0000
0000
,
0000
0000
0000
0000
,
1000
0001
1000
0000
0010
0000
0110
0000
,
0001
1000
0001
0000
0100
0000
1001
0000
,
0100
0010
1000
0000
0110
0000
1001
0000
,
0100
0010
0100
0000
0001
0000
1000
0010
,
2000
0000
3001
0100
0000
0100
0000
0020
,
0000
0000
0000
0000
0030
0000
0100
0001
,
0020
0000
0130
1000
0000
0001
0000
2000
,
0000
0000
0000
0000
3000
0000
0100
0010
,
0002
0000
1003
0010
0000
0010
0000
0200
,
0000
0000
0000
0000
0300
0000
0001
1000
,
2000
0000
3100
0010
0000
0001
0000
0002
,
0000
0000
0000
0000
0003
0000
1000
0010
,
0200
0000
0301
1000
0000
1000
0000
0020
,
0000
0000
0000
0030
0000
0000
1000
0001
,
0200
0000
0301
0001
0000
1000
0000
0020
,
0000
0000
0000
0000
0030
0000
0100
0001
,
2000
0000
3010
0010
0000
1000
0000
0200
,
0000
0000
0000
0300
0000
0000
0010
0001
,
0010
0000
0100
0100
0000
0000
1000
1000
,
0000
0000
0010
0010
0000
0000
0100
0001
,
0000
1001
0000
0000
0000
0000
0000
0000
,
1000
0010
0100
0000
0001
0000
0001
0100
,
0000
0100
0000
0010
1000
0001
0100
0010
,
1000
0001
1000
0000
0010
0000
0010
0100
,
0000
0100
0000
0001
0010
0100
1000
0000
,
0010
0100
0010
0000
1000
0000
1000
0001
,
0000
0001
0000
0100
0010
0100
0001
1000
,
0100
0010
0001
0000
1000
0000
1000
0001
,
0000
0001
0000
0100
0010
1000
0001
0000
,
0001
1000
0010
0000
0010
0000
0100
0001
,
0000
0001
0000
1000
0100
0010
0001
1000
,
0010
1000
1000
0000
0010
0000
0100
0001
,
0000
0001
0000
1000
0100
0010
0001
0000
,
1000
0100
1000
0000
0010
0000
0010
0100
,
0000
0100
0000
0001
0010
0100
1000
0001
,
0100
0001
1000
0000
1000
0000
0001
0100
,
0000
0100
0000
0010
1000
0010
0100
0000
,
1001
0000
1001
0000
1000
0100
0010
0001
,
1010
0000
0101
0000
0010
0100
0010
1000
,
0001
0000
1001
0000
1000
0100
0010
0001
,
1000
0000
0110
0000
0001
0001
0001
0001
,
1000
0000
1001
0000
0001
0010
0100
1000
,
0100
0000
0110
0000
0001
0010
0100
1000
,
0010
0000
1010
0000
0100
0001
1000
0100
,
1000
0010
0100
0010
1000
0100
0010
0001
,
1000
0000
1000
0010
0000
0010
0000
2000
,
0000
0000
0000
3000
0000
0000
0001
1000
,
0010
0000
0010
1000
0000
0001
0000
0200
,
0000
0000
0000
0300
0000
0000
0001
1000
,
0001
0000
0100
0010
0000
1000
0000
0002
,
0000
0000
0000
0003
0000
0000
1000
0001
,
0100
0000
0100
0010
0000
0010
0000
2000
,
0000
0000
0000
3000
0000
0000
0010
1000
,
0001
0100
0010
0000
1100
0000
0011
0000
,
0001
1000
0001
0000
0110
0000
0110
0000
,
1000
0100
0010
0000
1001
0000
1001
0000
,
0100
0010
0001
0000
1001
0000
1000
0100
,
0010
0001
1000
0000
0110
0000
0011
0000
,
1000
0001
0100
0000
0101
0000
0010
1000
,
0010
0000
1000
0001
0000
0000
1000
0010
,
0000
0000
0100
0001
0000
0000
1000
2000
,
0000
0000
0000
0000
0000
0000
0000
3000
,
0010
0000
0010
1000
0001
1000
0010
0000
,
0110
0000
1000
0010
1000
0000
0001
0001
,
0000
0000
0010
0100
1000
0000
0010
0010
,
0000
0000
1000
0001
0010
0000
0100
1000
,
0000
0000
0010
0100
0000
0000
1001
0000
,
0000
0000
0100
0001
0100
0000
0010
0010
,
0000
0000
1000
0010
1000
0000
0100
0100
,
0000
0000
0010
0001
0010
0000
0100
1000
,
0000
0000
0001
1000
0000
0000
0110
0000
,
2002
0000
0000
0000
,
3003
0000
0000
0000
;

//---------------dance-single - ----------------
#NOTES:
     dance-single:
     :
     Medium:
     5:
     0.320097,0.352107,0.016847,0.117930,0.000000,266.000000,264.000000,2.000000,14.000000,0.000000,0.000000,0.320097,0.352107,0.016847,0.117930,0.000000,266.000000,264.000000,2.000000,14.000000,0.000000,0.000000:
0000
0000
0000
0000
,
0000
0000
0000
0000
,
0000
0000
0000
0000
,
0000
0000
0000
0000
,
0010
0100
0001
0001
,
1000
0001
0100
0100
,
0010
1000
0001
0001
,
0010
0100
1000
0100
,
0100
0000
0010
0001
0000
0001
0000
0200
,
0000
0000
0300
0010
,
0010
0000
1000
0001
0000
0001
0000
2000
,
0000
0000
3000
0010
,
0010
0000
1000
0100
0000
1000
0000
0020
,
0000
0000
0030
0100
,
0001
0000
1000
0010
0000
0010
0000
0200
,
0000
0000
0300
0001
,
0001
0000
0100
0010
0000
1000
0000
0002
,
0000
0000
0000
0003
0000
0000
0100
0000
,
0100
0000
0010
0100
0000
0010
0000
2000
,
0000
0000
3000
0001
,
0001
0000
0100
0010
0000
0010
0000
0200
,
0000
0000
0000
0300
0000
0000
0001
0000
,
1000
0010
0000
0100
,
0000
0001
0000
1000
,
0000
0000
0000
0000
,
0001
0000
0001
0000
0100
0000
0100
0010
,
0000
0010
0000
0000
1000
0000
0100
0000
,
0010
0000
0001
0000
0100
0000
0010
1000
,
0000
1000
0000
0000
0010
0100
0000
0000
,
0001
0000
0001
0000
0100
0000
0100
0001
,
0000
0001
0000
0000
0010
0000
0100
0000
,
1000
0000
0010
0000
0100
0000
0001
1000
,
0000
1000
0000
0010
0100
0010
0100
0000
,
0001
0000
0010
0000
0100
0000
1000
0010
,
0000
0010
0000
0000
0100
0000
0001
0000
,
0010
0000
0100
0000
1000
0000
0010
0100
,
0000
0100
0000
0001
1000
0001
1000
0000
,
0010
0000
0010
0000
0100
0000
0100
0001
,
0000
0001
0000
0000
1000
0000
0010
0000
,
1000
0000
0001
0000
0001
0000
0100
0010
,
0000
0010
0000
0100
0001
0100
0001
0000
,
1000
1000
0010
0100
,
0001
0000
1000
0000
0010
0100
0010
1000
,
0001
0001
0100
0100
,
0010
0000
1000
0000
0001
0001
0001
0001
,
0100
0100
0010
0010
,
1000
0000
0100
0000
1000
0100
0010
0001
,
0100
0010
0100
0001
,
0001
1000
0010
0100
,
0001
0000
1000
1000
0000
0010
0000
0200
,
0000
0000
0000
0300
0000
0000
0010
0000
,
1000
0000
1000
0001
0000
0100
0000
0020
,
0000
0000
0000
0030
0000
0000
1000
0000
,
1000
0000
0010
0100
0000
0100
0000
0002
,
0000
0000
0000
0003
0000
0000
1000
0000
,
0010
0000
0010
1000
0000
1000
0000
0200
,
0000
0000
0000
0300
0000
0000
0010
0000
,
0001
0010
0100
1000
,
0010
0100
0001
1000
,
0001
0010
0100
1000
,
0010
0100
0100
0001
,
1000
0100
1000
0010
,
1000
0010
0100
0001
,
0100
0000
0010
1000
0000
0000
0001
0100
,
0000
0000
0001
1000
0000
0000
0010
0020
,
0000
0000
0000
0000
0000
0000
0000
0030
,
1000
1000
0010
0010
,
0100
0000
0001
0000
0001
0000
1000
1000
,
0000
0000
0010
0000
0010
0000
0100
0001
,
0000
0000
1000
0000
1000
0000
0010
0100
,
0000
0000
0001
1000
0000
0000
1001
0000
,
0000
0000
0010
0000
0100
0000
0001
1000
,
0000
0000
0010
0000
0100
0000
0001
1000
,
0000
0000
0010
0000
0010
0000
1000
1000
,
0000
0000
0001
0001
0000
0000
0100
0000
,
2002
0000
0000
0000
,
3003
0000
0000
0000
;

//---------------dance-single - ----------------
#NOTES:
     dance-single:
     :
     Easy:
     3:
     0.227437,0.284297,0.016847,0.109507,0.000000,189.000000,187.000000,2.000000,13.000000,0.000000,0.000000,0.227437,0.284297,0.016847,0.109507,0.000000,189.000000,187.000000,2.000000,13.000000,0.000000,0.000000:
0000
0000
0000
0000
,
0000
0000
0000
0000
,
0000
0000
0000
0000
,
0000
0000
0000
0000
,
0010
0010
0100
0100
,
0001
0001
1000
1000
,
0010
0100
0010
0100
,
0001
0001
1000
0010
,
0200
0000
0000
0000
0000
0000
0000
0300
,
0010
0000
0000
0000
,
2000
0000
0000
3000
,
0001
0000
0000
0000
,
0200
0000
0000
0300
,
0010
0000
0000
0000
,
2000
0000
0000
0000
0000
0000
0000
3000
,
0100
0000
0000
0000
,
0020
0000
0000
0000
0000
0000
0000
0030
,
0001
0000
0000
0000
,
0200
0000
0000
0000
0000
0300
0010
0000
,
0000
0000
0000
1000
,
2000
0000
0000
3000
0000
0010
0000
0100
,
0000
0000
0000
0000
,
0001
0000
0000
0001
0000
0000
0000
1000
,
0000
0000
0000
1000
0000
0000
0000
0110
,
0000
0000
0000
0000
,
0002
0000
0000
0000
,
0003
0000
0100
0100
,
0020
0000
0000
0000
,
0000
0030
0000
0000
1000
0000
1000
0000
,
0010
0100
0010
0100
,
0001
0100
0010
0100
,
0001
1000
0010
1000
,
0001
0100
0010
0010
,
1000
1000
0001
0001
,
0100
0010
0100
0010
,
1000
1000
0001
0001
,
0100
0010
0100
0001
,
1000
0010
1000
0010
,
0100
0010
0100
0100
,
0001
1000
0010
0100
,
0001
1000
0010
0100
,
0001
0001
1000
1000
,
0010
0100
0001
0100
,
0010
0010
1000
1000
,
1000
0001
0100
0010
,
0100
0100
0001
1000
,
0001
0100
0010
0010
,
0010
1000
0001
0100
,
0010
0100
0001
1000
,
0002
0000
0000
0003
,
0100
0000
0000
0000
,
0020
0000
0000
0000
0000
0030
0000
0000
,
1000
0000
0000
0000
,
0200
0000
0000
0000
0000
0300
0000
0000
,
0010
0000
0000
0000
,
0002
0000
0000
0003
,
0100
0000
0000
0000
,
0010
1000
0010
0010
,
0100
0001
0100
0100
,
0010
1000
0010
0010
,
0100
0001
0100
0100
,
0010
0100
1000
1000
,
0001
0010
0100
0100
,
0010
0000
0000
1000
0000
0000
0000
0010
,
0000
0000
0000
1000
0000
0000
0000
1001
,
0000
0000
0000
0000
,
0000
0000
0000
0000
,
0100
0010
0100
0010
,
0000
1000
0001
1000
,
0000
0010
0100
0010
,
0100
0001
0100
0000
,
0000
0010
1000
0010
,
0000
0100
0001
0100
,
0000
0010
0100
1000
,
0001
0100
0010
1000
,
0001
0000
0000
0000
;

//---------------dance-single - Copied from----------------
#NOTES:
     dance-single:
     Copied from:
     Beginner:
     1:
     0.072202,0.092870,0.000000,0.000000,0.000000,60.000000,60.000000,0.000000,0.000000,0.000000,0.000000,0.072202,0.092870,0.000000,0.000000,0.000000,60.000000,60.000000,0.000000,0.000000,0.000000,0.000000:
0000
0000
0000
0000
,
0000
0000
0000
0000
,
0000
0000
0000
0000
,
0000
0000
0000
0000
,
0010
0000
0000
0000
,
0010
0000
0000
0000
,
0010
0000
0000
0000
,
0010
0000
0000
0000
,
0100
0000
0000
0000
,
0100
0000
0000
0000
,
0100
0000
0000
0000
,
0100
0000
0000
0000
,
0001
0000
0000
0000
,
0001
0000
0000
0000
,
0001
0000
0000
0000
,
0001
0000
0000
0000
,
1000
0000
0000
0000
,
1000
0000
0000
0000
,
1000
0000
0000
0000
,
1000
0000
0000
0000
,
0010
0000
0000
0000
,
0010
0000
0000
0000
,
0010
0000
0000
0000
,
0010
0000
0000
0000
,
0010
0000
0000
0000
,
0100
0000
0000
0000
,
0000
0000
0000
0000
,
0100
0000
0000
0000
,
0000
0000
0000
0000
,
0100
0000
0000
0000
,
0000
0000
0000
0000
,
0100
0000
0000
0000
,
0000
0000
0000
0000
,
0001
0000
0000
0000
,
0000
0000
0000
0000
,
0001
0000
0000
0000
,
0000
0000
0000
0000
,
1000
0000
0000
0000
,
0000
0000
0000
0000
,
1000
0000
0000
0000
,
0000
0000
0000
0000
,
0010
0000
0000
0000
,
0010
0000
0000
0000
,
0010
0000
0000
0000
,
0010
0000
0000
0000
,
0100
0000
0000
0000
,
0100
0000
0000
0000
,
0100
0000
0000
0000
,
0100
0000
0000
0000
,
0001
0000
0000
0000
,
0001
0000
0000
0000
,
0001
0000
0000
0000
,
0001
0000
0000
0000
,
0001
0000
0000
0000
,
0001
0000
0000
0000
,
0001
0000
0000
0000
,
0001
0000
0000
0000
,
1000
0000
0000
0000
,
1000
0000
0000
0000
,
1000
0000
0000
0000
,
1000
0000
0000
0000
,
1000
0000
0000
0000
,
1000
0000
0000
0000
,
1000
0000
0000
0000
,
1000
0000
0000
0000
,
1000
0000
0000
0000
,
0000
0000
0000
0000
,
0010
0000
0000
0000
,
0100
0000
0000
0000
,
0000
0000
0010
0000
,
0000
0000
0000
0000
,
0100
0000
0000
0000
,
0000
0010
0000
0000
,
0000
0000
0100
0000
;
