#TITLE:Here comes the sun ~For you~;
#SUBTITLE:;
#ARTIST:Z pinkpong;
#TITLETRANSLIT:;
#SUBTITLETRANSLIT:;
#ARTISTTRANSLIT:;
#GENRE:;
#CREDIT:SupremeX;
#BANNER:Here comes the sun.png;
#BACKGROUND:Here comes the sun-bg.png;
#LYRICSPATH:;
#CDTITLE:CDTitle.png;
#MUSIC:Here comes the sun ~For you~.ogg;
#OFFSET:-1.080;
#SAMPLESTART:62.000000;
#SAMPLELENGTH:12.000000;
#SELECTABLE:YES;
#BPMS:0.000000=130.000000
,98.000000=65.000000
,114.000000=130.000000
;
#STOPS:97.000000=0.920000
;
#BGCHANGES:32.000=skywhale.avi=1.000=0=0=1=====,
64.000=sun2.avi=1.000=0=0=1=====,
80.000=water2.avi=1.000=0=0=1=====,
97.000=Here comes the sun-bg.png=1.000=0=0=1=====,
98.000=sun1.avi=1.000=0=0=1=====,
114.000=skywhale.avi=1.000=0=0=1=====,
146.000=room1.avi=1.000=0=0=1=====,
162.000=sun2r.avi=1.000=0=0=1=====,
178.000=water2.avi=1.000=0=0=1=====,
194.000=sun1.avi=1.000=0=0=1=====,
210.500=Here comes the sun-bg.png=1.000=0=0=1=====,
99999=-nosongbg-=1.000=0=0=0 // don't automatically add -songbackground-
;
#KEYSOUNDS:;
#ATTACKS:;

//---------------dance-single - ----------------
#NOTES:
     dance-single:
     :
     Hard:
     8:
     0.338512,0.547344,0.072354,0.217061,0.185406,262.000000,254.000000,8.000000,24.000000,0.000000,0.000000,0.338512,0.547344,0.072354,0.217061,0.185406,262.000000,254.000000,8.000000,24.000000,0.000000,0.000000:
0000
0000
0000
0000
,
0000
0000
0000
0000
,
0000
0000
0000
0000
,
0000
0000
0000
0000
,
0002
0000
0000
0003
,
0200
0000
0000
0300
,
0020
0000
0000
0030
,
2000
0000
3000
0000
,
0001
0000
0001
0000
1000
0000
0100
1000
,
0100
0000
0100
0000
0100
0000
1000
0001
,
1000
0000
1000
0000
1000
0000
0010
0100
,
0010
0000
0010
0000
0010
0000
0100
0001
,
0100
0000
0100
0000
0100
0000
0001
0010
,
0100
0000
1000
0000
0010
0000
1000
0001
,
0100
0000
0100
0000
0100
0000
0100
0010
,
2000
0000
0000
3100
,
0100
1001
0101
1001
,
1100
0000
0010
0001
0000
0000
0011
0000
,
2000
0100
0100
3100
,
1000
0000
0100
0000
1000
0000
0000
0000
0001
0000
0000
0010
0000
0000
0001
0000
,
0020
0000
0030
0000
0200
0000
0300
1000
,
1000
0000
0010
0010
0000
0000
0100
0000
,
0002
0100
0100
0103
,
0010
0000
0000
0000
0010
0000
0000
0000
1000
0000
0000
0100
0000
0000
1000
0000
,
0000
0000
0010
0000
0010
0000
0000
0000
0100
0000
0000
0001
0000
0001
0000
2000
,
0000
0000
0010
0000
0010
0000
3010
0000
1000
0000
0000
0100
0000
0010
0000
0002
,
0000
0000
0000
0000
0010
0000
0000
0000
0013
0000
0000
0000
0010
0000
0001
0010
0001
0000
0000
0000
0000
0000
0100
0000
0000
0000
0010
0000
0000
0000
2000
0000
,
0000
0000
0000
0000
0100
0000
0000
0000
3100
0000
0000
0000
1000
0000
0000
0000
0010
0000
1000
0000
0010
0000
0000
1000
0000
0000
0010
0000
0100
0000
0001
0000
,
1000
0000
0010
0000
0100
0000
0000
0001
0000
0000
0010
0000
0100
0000
1000
0000
0100
0000
0000
0000
0000
0000
0000
0000
0010
0000
0000
0000
0001
0000
0000
0000
,
0000
0100
0000
0020
1000
0000
1000
0000
,
1030
0000
0010
0000
2000
0000
3100
0100
,
0000
0010
0000
0001
0100
0000
0100
0000
,
0010
0000
0000
0000
1000
0000
0001
1000
0002
0000
0000
0000
0003
0000
0200
0000
,
0000
0320
0000
2030
0000
0000
3100
0000
,
0010
0000
0001
0000
0022
0000
0033
2200
,
0000
3300
2002
0000
0000
0000
3003
0000
,
0010
0100
0010
0100
0010
0000
0000
0000
1000
0000
0100
0000
1000
0000
0000
0010
,
0000
0000
0010
0000
0100
0000
0001
0000
0010
0000
0100
0000
1000
0000
0000
1000
,
0000
0000
0010
0000
0100
0000
0001
0000
1000
0000
0010
0000
0100
0000
0000
0001
,
0000
0000
0001
0000
0010
0000
0100
0000
1000
0000
0010
0000
1000
0000
0000
0100
,
0000
0000
0100
0000
0010
0000
0001
0000
0010
0000
0100
0000
1000
0000
0000
0100
,
0000
0000
1000
0000
0100
0000
0010
0000
0001
0000
0010
0000
0100
0000
0000
1000
,
0000
0000
1000
0000
0001
0000
0100
0000
0010
0000
1000
0000
0001
0000
0000
0001
,
0000
0000
0100
0000
0010
0000
1000
0000
0001
0000
0100
0000
0010
0000
0000
1000
,
0000
1000
0010
0100
0010
0000
1000
0000
,
0001
0000
0000
0100
0000
0000
0001
0000
0000
0000
1000
0000
0100
0000
1000
0000
,
0100
0000
0000
0000
0000
0000
1000
0001
1000
0000
0000
0000
0100
0000
0000
0000
,
0010
0000
0000
0001
0000
0000
0001
0000
0000
0000
0010
0000
0100
0000
1000
0000
,
0100
0000
0000
0000
1000
0100
1000
0100
1000
0000
0000
0000
0001
0000
0000
0000
,
0010
0000
0000
0100
0000
0000
1000
0000
0000
0000
0100
0000
0010
0000
0001
0000
,
0010
0000
0000
0000
0000
0000
0100
1000
0100
0000
0000
0000
0000
0000
0010
0001
,
0010
0000
0000
0000
0000
0000
1000
0100
1000
0000
0000
0000
0000
0000
0001
0000
,
0010
0100
1000
0010
0100
0100
0000
0000
;

//---------------dance-single - ----------------
#NOTES:
     dance-single:
     :
     Easy:
     3:
     0.205433,0.332375,0.126619,0.126619,0.040699,159.000000,145.000000,14.000000,14.000000,0.000000,0.000000,0.205433,0.332375,0.126619,0.126619,0.040699,159.000000,145.000000,14.000000,14.000000,0.000000,0.000000:
0000
0000
0000
0000
,
0000
0000
0000
0000
,
0000
0000
0000
0000
,
0000
0000
0000
0000
,
0002
0000
0000
0000
0000
0000
0000
0003
,
0200
0000
0000
0300
,
0020
0000
0000
0030
,
2000
0000
3000
0000
,
0001
0001
0100
0010
,
1000
1000
0001
0100
,
0010
0010
1000
0001
,
0100
0100
0010
1000
,
0001
0001
0100
0010
,
1000
1000
0001
0100
,
0010
0010
1000
0001
,
0100
0100
0010
1000
,
0001
0000
1001
0000
,
1000
0000
0110
0000
,
0002
0000
0000
0003
,
2000
0000
0000
0000
0000
3000
0000
0000
,
0110
0000
0001
0000
,
1100
0000
0011
0000
,
2002
0000
3003
0100
,
0220
0000
0000
0000
0000
0000
0000
0330
,
0000
0000
0000
0000
0000
0000
0000
0000
0001
0000
0000
0010
0000
0100
0000
1000
,
0000
0000
0010
0000
0010
0000
0100
0000
0100
0000
0000
0001
0000
0010
0000
0100
,
0000
0000
1000
0000
1000
0000
0000
0000
0001
0000
0000
0010
0000
0100
0000
1000
,
0000
0010
0100
0010
0000
1000
0000
0001
,
0000
1000
0000
0010
1000
0000
0000
0100
,
0000
0010
0000
0001
0000
0000
1000
0000
,
1000
0000
0010
0000
0100
0000
0000
0001
,
0000
0010
0000
0100
0000
0000
1000
0000
,
1000
0000
0010
0000
0100
0000
0000
0001
,
0000
0001
0000
2000
0000
0000
0000
3000
,
0000
0010
0200
0000
,
0000
0000
0000
0000
0000
0300
0000
0000
,
2002
3003
0010
0010
,
0100
0100
0001
0010
,
0100
1000
0001
0001
,
0010
0010
0100
1000
,
0100
0010
0001
0001
,
0100
0010
1000
1000
,
0001
0100
0010
0010
,
1000
0001
0100
0100
,
0010
1000
0001
0000
,
1001
0000
0000
0100
0000
0000
0000
0000
,
0010
0000
1000
0001
,
0100
0000
0000
0010
0000
0000
0000
0000
,
1000
0001
0110
0000
,
1000
0000
0000
0010
0000
0000
0000
0000
,
0100
0000
0001
0000
,
1001
0000
0110
0000
,
1100
0000
0011
0000
;

//---------------dance-single - Copied from----------------
#NOTES:
     dance-single:
     Copied from:
     Beginner:
     1:
     0.069770,0.118705,0.000000,0.000000,0.000000,54.000000,54.000000,0.000000,0.000000,0.000000,0.000000,0.069770,0.118705,0.000000,0.000000,0.000000,54.000000,54.000000,0.000000,0.000000,0.000000,0.000000:
0000
0000
0000
0000
,
0000
0000
0000
0000
,
0000
0000
0000
0000
,
0000
0000
0000
0000
,
0010
0000
0000
0000
,
0010
0000
0000
0000
,
0010
0000
0000
0000
,
0010
0000
0000
0000
,
0100
0000
0000
0000
,
0100
0000
0000
0000
,
0100
0000
0000
0000
,
0100
0000
0000
0000
,
0001
0000
0000
0000
,
0001
0000
0000
0000
,
0001
0000
0000
0000
,
0001
0000
0000
0000
,
1000
0000
0000
0000
,
1000
0000
0000
0000
,
1000
0000
0000
0000
,
1000
0000
0000
0000
,
0010
0000
0000
0000
,
0010
0000
0000
0000
,
0010
0000
0000
0000
,
0010
0000
0000
0000
,
0000
0100
0010
0000
,
1000
0000
0010
0000
,
1000
0000
0001
0000
,
0100
0000
0001
0000
,
0100
0000
0010
0000
,
0000
0000
0010
0000
,
0000
0000
1000
0000
,
0000
0000
1000
0000
,
0000
0000
0010
0000
,
0000
0000
0010
0000
,
0000
0000
1000
0000
,
0000
1000
0000
0000
,
0000
0000
0001
0000
,
0000
0000
0001
0000
,
0000
0000
0001
0000
,
0000
0000
0001
0000
,
0000
0000
0100
0000
,
0000
0000
0100
0000
,
0000
0000
0100
0000
,
0000
0000
0100
0000
,
0000
0000
0010
0000
,
0000
0000
0000
0000
,
0010
0000
0000
0000
,
0010
0000
0000
0000
,
0010
0000
0000
0000
,
1000
0000
0000
0000
,
1000
0000
0000
0000
,
1000
0000
0000
0000
,
1000
0000
0001
0000
;

//---------------dance-single - ----------------
#NOTES:
     dance-single:
     :
     Medium:
     5:
     0.220937,0.356116,0.027133,0.090442,0.045221,171.000000,168.000000,3.000000,10.000000,0.000000,0.000000,0.220937,0.356116,0.027133,0.090442,0.045221,171.000000,168.000000,3.000000,10.000000,0.000000,0.000000:
0000
0000
0000
0000
,
0000
0000
0000
0000
,
0000
0000
0000
0000
,
0000
0000
0000
0000
,
1000
0010
1000
0001
,
0100
0010
0100
1000
,
0001
0100
0001
1000
,
0010
0100
0000
0000
,
0001
0001
1000
1000
,
0010
0010
0100
0100
,
0001
1000
0001
1000
,
0010
0010
0100
0100
,
0001
1000
0010
0100
,
0001
0001
1000
1000
,
0010
0000
0100
0000
0001
0000
0001
2000
,
0000
0000
0000
3000
,
0010
0000
0100
0000
,
0001
0000
1000
0010
0000
0000
0100
0000
,
0002
0000
0000
0000
0000
0003
0100
0000
,
0200
0000
0000
0000
0000
0300
0000
0000
,
0010
0000
0000
0000
1001
0000
0000
0010
,
1000
0000
0010
0100
0000
0000
0001
0000
,
2000
0000
0000
0000
0000
3000
0010
0000
,
0200
0000
0000
0000
0000
0000
0000
0300
,
0000
0000
0001
0000
0001
0000
0000
0000
0000
0000
0000
0100
0000
0010
0000
1000
,
0000
0000
0001
0000
0001
0000
0001
0000
0100
0000
0000
0010
0000
1000
0000
0010
,
0000
0000
0100
0000
0100
0000
0100
0000
0001
0000
0000
1000
0000
0010
0000
1000
,
0000
0000
0001
0000
0001
0000
1000
0000
0010
0000
0000
0100
0000
0000
0000
0000
,
0001
1000
0001
0000
1000
0000
0000
0001
,
0000
0100
0000
0020
0000
0000
0000
0000
,
0000
0030
0000
0000
1000
0000
0000
0100
,
0000
0010
0000
0002
0000
0000
0000
0000
,
0000
0000
0003
0000
1000
0000
0000
0001
,
0000
0010
0000
0200
0000
0000
0000
0000
,
0300
0000
1000
0000
0002
0000
0000
2000
,
0000
0000
0000
0000
,
3003
0000
0010
0100
,
0001
0001
1000
0010
,
1000
0000
0001
0000
0100
0010
0100
0000
,
0001
0000
1000
0000
0001
1000
0001
0000
,
0100
0100
0010
0010
,
1000
1000
0001
0001
,
0100
0000
0100
0000
0010
1000
0010
0000
,
1000
0000
1000
0000
0001
0100
0001
0000
,
0010
0100
1000
0000
,
1001
0000
0000
1000
0000
0000
0010
0000
,
1000
0000
0001
0000
,
1000
0000
0000
0010
0000
0000
0100
0000
,
0001
1000
0010
0100
,
0001
1000
0001
1000
0000
0000
0000
0000
,
0010
0000
0000
0000
1000
0000
0000
0001
,
1000
0000
0000
0010
0100
0000
0000
0001
,
1000
0000
0010
0100
0110
0000
0000
0000
;
