#TITLE:Hearts (ハート悲しく Marty Balin cover);
#SUBTITLE:;
#ARTIST:The Scarlet;
#TITLETRANSLIT:Hearts;
#SUBTITLETRANSLIT:;
#ARTISTTRANSLIT:;
#GENRE:;
#CREDIT:SupremeX;
#BANNER:HeartsJP.png;
#BACKGROUND:HeartsJP-bg.png;
#LYRICSPATH:;
#CDTITLE:U4m7uXJ.png;
#MUSIC:Hearts.ogg;
#OFFSET:-0.281555;
#SAMPLESTART:61.340000;
#SAMPLELENGTH:12.000000;
#SELECTABLE:YES;
#BPMS:0.000000=124.999992
;
#STOPS:
;
#BGCHANGES:16.000=heart10.avi=1.000=0=0=1=====,
32.000=city3.avi=1.000=0=0=1=====,
47.500=nyc1.avi=1.000=0=0=1=====,
64.000=bricks1.avi=1.000=0=0=1=====,
79.500=city3.avi=1.000=0=0=1=====,
95.500=nyc1.avi=1.000=0=0=1=====,
105.500=jewelry2.avi=1.000=0=0=1=====,
127.500=night1.avi=1.000=0=0=1=====,
137.500=clap1.avi=1.000=0=0=1=====,
159.500=night1.avi=1.000=0=0=1=====,
175.500=jewelry2.avi=1.000=0=0=1=====,
192.000=HeartsUSA-bg.png=1.000=0=0=1=====,
99999=-nosongbg-=1.000=0=0=0 // don't automatically add -songbackground-
;
#KEYSOUNDS:;
#ATTACKS:;

//---------------dance-single - ----------------
#NOTES:
     dance-single:
     :
     Hard:
     8:
     0.348043,0.371863,0.060404,0.231549,0.000000,242.000000,236.000000,6.000000,23.000000,0.000000,0.000000,0.348043,0.371863,0.060404,0.231549,0.000000,242.000000,236.000000,6.000000,23.000000,0.000000,0.000000:
0000
0000
0000
0000
,
0000
0000
0000
0000
,
0000
0000
0000
0000
,
0000
0000
0000
0000
,
0001
0000
0010
0000
0100
1000
0100
0000
,
0010
0000
0001
0000
1000
0010
1000
0000
,
0001
1001
1000
1010
,
0001
0100
0010
1000
,
0020
0000
0130
0000
0001
1000
0001
0200
,
0010
0000
0310
0000
1000
0001
1000
0000
,
0010
0000
0110
0000
0001
0100
0001
0000
,
1000
0010
0100
0000
0001
1000
0010
2000
,
0000
0000
3001
0000
1000
0100
0010
0001
,
0200
0000
0310
0000
1000
0100
1000
0001
,
0002
0000
0103
0000
0010
0100
0010
0000
,
1000
0100
0010
0001
0100
0010
0100
0000
,
0001
0000
1000
0010
1000
0010
0000
2000
,
0000
0000
3001
0000
0001
0100
0010
0000
,
1000
0000
0000
0002
0000
0000
0103
0020
,
0000
0030
1000
1000
0000
0001
0010
0200
,
0000
0000
1300
0000
0000
1000
0010
2000
,
0000
0000
3010
0000
0010
0100
0001
0000
,
1000
0010
1000
0000
0001
0100
0010
0000
,
1000
0100
0010
0000
0001
0001
0001
0200
,
0000
0000
0310
0000
0010
1000
0001
2000
,
0000
0000
3001
0000
0001
0100
0010
0000
,
1000
0000
1010
0000
0100
0001
0100
0000
,
0010
0000
1000
0000
0001
0100
0001
0200
,
0000
0000
0310
0000
1000
0010
1000
0002
,
0000
0103
0100
0010
,
1000
0100
1000
0000
0010
0100
0010
0000
,
1000
0100
0010
0001
1000
0100
1000
0002
,
0000
0000
1003
0000
0001
0100
0001
0200
,
0000
0000
0310
0000
1000
0010
1000
0000
,
0100
0000
0011
0000
0001
1000
0000
1000
,
0000
0000
0010
0000
0100
0010
1000
0002
,
0000
0000
0103
0000
0010
1000
0100
0020
,
0000
0000
0031
0000
0001
0100
0001
0000
,
1000
0000
0010
0000
1000
0010
0100
0000
,
0001
0010
0100
1000
0010
0100
0001
0200
,
0000
0000
0301
0000
0010
1000
0010
2000
,
0000
0000
3001
0000
0100
0010
0100
0001
,
0001
0000
1000
0100
1000
0000
1100
0000
,
0010
0000
0001
0000
0100
0001
0000
0002
,
0000
0000
1003
0000
0001
0010
0100
2000
,
0000
3100
1000
0100
,
0010
0001
0010
0000
0100
1000
0100
0000
,
0010
0100
0001
0100
0010
1000
0010
0100
,
0001
0000
1000
0010
1000
0000
0010
0200
,
0000
0301
0000
0000
;

//---------------dance-single - ----------------
#NOTES:
     dance-single:
     :
     Medium:
     6:
     0.271818,0.272699,0.060404,0.221482,0.000000,189.000000,183.000000,6.000000,22.000000,0.000000,0.000000,0.271818,0.272699,0.060404,0.221482,0.000000,189.000000,183.000000,6.000000,22.000000,0.000000,0.000000:
0000
0000
0000
0000
,
0000
0000
0000
0000
,
0000
0000
0000
0000
,
0000
0000
0000
0000
,
0001
0010
0100
1000
,
0100
1000
0100
0010
,
0001
0101
0010
1010
,
0001
0100
0010
1000
,
0020
0000
1030
0000
1000
0000
0001
0200
,
0001
0301
0100
0010
,
1000
1010
0001
0001
,
0100
0000
0100
0000
0001
1000
0010
2000
,
0000
3010
1000
0010
,
0200
0301
1000
0100
,
0020
0031
0001
0010
,
0100
1000
0100
0010
,
0001
0000
0100
0000
0100
0000
0000
0020
,
0000
0000
1030
0000
1000
0010
1000
0000
,
0001
0000
0000
0100
0000
0000
0100
0020
,
0000
0030
1000
1000
0000
0001
0000
0002
,
0000
0000
0103
0000
0000
0000
0010
2000
,
0000
0000
3010
0000
1000
0010
1000
0000
,
0001
0001
0100
0010
,
1000
0000
0100
0000
0010
0000
0001
0200
,
0000
0000
0310
0000
0100
0000
0010
2000
,
0000
3001
1000
0010
,
0100
0110
0001
0100
,
0001
0000
1000
0000
0001
0000
0100
0200
,
0000
0000
0310
0000
0100
0000
0001
0002
,
0000
1003
1000
0010
,
0100
0100
0001
0001
,
1000
0000
0100
0000
0010
0000
0001
0002
,
0000
0000
0103
0000
0100
0000
0010
2000
,
0000
3010
1000
0001
,
0100
0000
0101
0000
0001
1000
0000
1000
,
0000
0000
0010
0000
1000
0000
0100
0020
,
0000
0000
0130
0000
0100
0000
0001
2000
,
0000
3100
1000
0010
,
0100
0010
1000
0100
,
1000
0000
0001
0000
0100
0000
0001
0020
,
0000
0000
0130
0000
0100
0000
1000
2000
,
0000
3001
1000
0001
,
0100
0010
0100
0101
,
0010
0000
1000
0000
0010
0010
0000
0200
,
0000
0000
0301
0000
0001
0000
0100
0020
,
0000
1030
1000
0100
,
0010
0010
0001
0010
,
0100
1000
0010
0010
,
0100
0000
0001
0000
0010
0000
0100
2000
,
0000
3100
0000
0000
;

//---------------dance-single - ----------------
#NOTES:
     dance-single:
     :
     Easy:
     4:
     0.166830,0.212358,0.000000,0.171145,0.000000,116.000000,116.000000,0.000000,17.000000,0.000000,0.000000,0.166830,0.212358,0.000000,0.171145,0.000000,116.000000,116.000000,0.000000,17.000000,0.000000,0.000000:
0000
0000
0000
0000
,
0000
0000
0000
0000
,
0000
0000
0000
0000
,
0000
0000
0000
0000
,
0000
0010
1000
0010
,
0100
0001
1000
0010
,
0100
0010
1000
0001
,
1000
0010
0100
0001
,
2000
3010
0100
0001
,
0200
0310
1000
0001
,
0100
0010
1000
0001
,
0100
0010
1000
0001
,
0002
0103
0010
1000
,
0020
0130
0001
1000
,
0010
0100
0001
0001
,
1000
1000
0010
0100
,
0001
0000
1000
0010
,
0100
0001
0000
1000
,
0010
0100
0001
1000
,
0010
0100
0010
1000
,
0002
0000
0000
0003
0000
0000
0100
0000
,
0020
0030
0000
1000
,
0100
0010
0001
1000
,
0010
0000
1000
0000
0010
0000
0000
0200
,
0000
0000
0300
0000
0000
0000
0001
0002
,
0000
0000
0000
0003
,
0000
0000
1000
0000
,
0010
0000
0100
0000
0001
0000
0000
1000
,
0000
0010
0000
0100
,
0001
0100
0000
0010
,
1000
0010
0100
0001
,
0000
0000
1000
0000
0010
0000
0000
0200
,
0000
0000
0000
0000
0300
0000
0000
0002
,
0000
0000
0000
0003
,
0000
0000
1000
0000
,
0010
0000
0000
0000
0100
0000
0000
0020
,
0000
0000
0000
0000
0030
0000
0000
0200
,
0000
0000
0300
0001
,
0000
0001
1000
0001
,
0100
0000
0010
0000
1000
0000
0000
0200
,
0000
0000
0000
0000
0000
0300
0000
0020
,
0000
0000
0000
0000
0000
0000
0000
0030
,
0000
0000
0001
0001
,
0100
0000
0010
0000
1000
0000
0000
0200
,
0000
0000
0000
0000
0300
0000
0000
0020
,
0000
0000
0000
0000
0000
0030
0001
0000
,
0002
0000
0000
0000
0000
0000
0000
0003
;

//---------------dance-single - Copied from----------------
#NOTES:
     dance-single:
     Copied from:
     Beginner:
     2:
     0.048899,0.094130,0.000000,0.100674,0.000000,34.000000,34.000000,0.000000,10.000000,0.000000,0.000000,0.048899,0.094130,0.000000,0.100674,0.000000,34.000000,34.000000,0.000000,10.000000,0.000000,0.000000:
0000
0000
0000
0000
,
0000
0000
0000
0000
,
0000
0000
0000
0000
,
0000
0000
0000
0000
,
0000
1000
0000
0000
,
0000
1000
0000
0000
,
0000
1000
0000
0000
,
0000
1000
0000
0000
,
0010
0000
0000
0000
,
0000
0010
0000
0000
,
0000
0010
0000
0000
,
0000
0010
0000
0000
,
0000
0010
0000
0000
,
0000
0010
0000
0000
,
0000
0100
0000
0000
,
0000
0100
0000
0000
,
0000
0000
0000
0000
0000
0000
0000
0002
,
0000
0000
0000
0003
,
0000
0000
0000
0000
,
0000
0000
0000
0000
0000
0000
0000
2000
,
0000
3000
0000
0000
,
0000
0000
0000
0000
0000
0000
0000
0010
,
0000
0010
0000
0000
0000
0000
0000
0000
,
0000
0000
0000
0000
0000
0000
0000
0200
,
0000
0000
0000
0000
,
0000
0000
0000
0300
,
0000
0000
0001
0000
,
0000
0000
0000
0000
0000
0000
0000
0002
,
0000
0000
0000
0003
0000
0000
0000
0000
,
0000
0000
0000
0000
,
1000
0000
0000
0000
,
0000
0000
0000
0000
0000
0000
0000
0020
,
0000
0000
0000
0000
0030
0000
0000
0200
,
0000
0000
0000
0000
0000
0000
0000
0300
,
0000
0000
0010
0000
,
0000
0000
0000
0000
0000
0000
0000
0020
,
0000
0000
0000
0030
0000
0000
0000
0100
,
0000
0000
0000
0000
,
0001
0000
0000
0000
,
0000
0000
0000
0000
0000
0000
0000
2000
,
0000
0000
0000
0000
0000
3000
0000
0200
,
0000
0000
0000
0000
0000
0000
0000
0300
,
0000
0000
0010
0000
,
0010
0000
0001
0000
,
0001
0000
0000
0000
0000
0000
0000
1000
,
0000
0000
0000
0000
,
0020
0000
0000
0030
;
