#TITLE:Hallucination XXX;
#SUBTITLE:;
#ARTIST:t-pazolite;
#TITLETRANSLIT:;
#SUBTITLETRANSLIT:;
#ARTISTTRANSLIT:;
#CREDIT:SupremeX;
#BANNER:HallucinationXXX.png;
#BACKGROUND:HallucinationXXX-bg.png;
#LYRICSPATH:;
#CDTITLE:CDTitle.png;
#MUSIC:Hallucination XXX.ogg;
#OFFSET:-0.151;
#SAMPLESTART:87.390;
#SAMPLELENGTH:12.000;
#SELECTABLE:YES;
#BPMS:0.000=110.000,14.000=220.001,31.000=110.000,39.000=220.001,72.000=110.000,87.500=220.001,269.000=110.000,315.000=439.998;
#STOPS:14.000=0.820
,165.500=0.405
,196.000=0.405
,208.500=0.955
,237.000=0.820
,252.000=0.280
,315.000=0.955
;
#BGCHANGES:15.000=timer1.avi=1.000=0=0=1,
31.000=DanceOff_P1.avi=1.000=0=0=1,
39.000=nyevbill.avi=1.000=0=0=1,
72.000=ring4.avi=1.000=0=0=1,
87.500=piranha1.avi=1.000=0=0=1,
119.500=symbols1.avi=1.000=0=0=1,
135.500=numbers2.avi=1.000=0=0=1,
143.500=colors4.avi=1.000=0=0=1,
147.500=HallucinationXXX-bg.png=1.000=0=0=1,
151.500=cube13.avi=1.000=0=0=1,
159.500=timer1.avi=1.000=0=0=1,
166.000=nyevbill.avi=1.000=0=0=1,
182.000=piranha1.avi=1.000=0=0=1,
196.500=symbols1.avi=1.000=0=0=1,
209.000=DanceOff_P1.avi=1.000=0=0=1,
225.000=timer1.avi=1.000=0=0=1,
238.000=nyevbill.avi=1.000=0=0=1,
253.000=cube13.avi=1.000=0=0=1,
269.000=ring4.avi=1.000=0=0=1,
285.000=DanceOff_P1.avi=1.000=0=0=1,
301.000=timer1.avi=1.000=0=0=1,
316.000=numbers2.avi=1.000=0=0=1,
332.500=HallucinationXXX-bg.png=1.000=0=0=1,
99999=-nosongbg-=1.000=0=0=0 // don't automatically add -songbackground-
;

//---------------dance-single - ----------------
#NOTES:
     dance-single:
     :
     Hard:
     10:
     0.639,0.838,0.345,0.076,0.126:
0000
0000
0000
0000
,
0000
0000
0000
0000
,
0000
0000
0000
0000
,
0000
0000
0000
0000
0000
0000
1000
0100
,
0010
0001
0100
0010
1000
0000
1010
0000
,
0101
0000
1010
0000
0001
0010
0100
1000
,
0001
1000
0100
0010
0001
1000
0001
0100
,
0010
1000
0001
0000
1001
0000
0010
0100
,
0010
1000
0001
0100
0001
1000
0010
0100
,
0001
1000
0001
0010
1100
0000
1000
0000
,
0100
0000
0010
0000
0001
0000
1000
0010
,
0100
0001
1000
0010
0100
0000
0001
0000
,
0110
0000
1000
0000
1001
0000
0010
0100
,
0001
1000
0001
0100
0010
0000
1000
0000
,
0100
0010
0001
1100
,
0011
0000
1100
0000
0011
0000
1000
0100
,
0010
0001
0100
0010
1000
0001
1000
0010
,
0100
0010
1000
0000
1001
0000
0000
0000
,
0010
0100
0010
0100
0010
0000
1000
0001
1000
0001
1000
0000
0000
0000
0000
0000
,
0100
0001
0100
0001
0100
0000
0010
1000
0010
1000
0010
1000
0010
0000
0000
0000
,
1000
0001
1000
0001
1000
0000
0010
0100
0010
0100
0010
0000
0000
0000
0000
0000
,
1000
0010
1000
0010
1000
0000
0001
0100
0001
0100
0001
0100
0001
0100
0001
0000
,
0000
1000
0100
0010
0001
1000
0000
0010
,
1000
0001
1000
0010
0000
0100
0001
0100
,
0000
0010
1000
0001
0100
0001
0000
1000
,
0010
0100
0001
0010
0100
1000
0001
0000
,
0000
0100
0010
1000
0001
0100
0000
0010
,
1000
0001
0100
0010
0000
1000
0001
1000
,
0000
0001
0010
0100
1000
0010
0000
0100
,
0001
0100
0010
1000
0010
0100
0000
0001
,
0000
1000
0010
0000
1010
0000
0000
0100
,
0000
0001
0100
0000
0101
0000
0000
0010
,
0000
0100
0010
0000
0110
0000
0000
0001
,
0000
1000
0001
0000
1001
0000
0000
1000
,
0000
0010
0000
0100
0000
0001
0000
1000
,
0000
0010
0000
1000
0000
0001
0000
0110
,
0000
0110
0000
1001
0000
1001
0000
0010
,
0000
0101
0000
1010
0000
1001
0000
0010
,
0100
0010
1000
0001
1000
0010
0000
1000
,
0000
1100
0000
0110
0000
0011
0000
1000
,
0001
0100
0010
1000
0001
1000
0000
0011
,
0000
0110
0000
1100
0001
0100
0001
1000
,
0010
0000
1000
0000
0001
0000
1000
0000
0010
0000
0000
1000
0000
0000
0100
0000
,
0000
0010
0000
0000
0001
0000
0000
0000
1000
0000
0010
0000
1000
0000
0010
0000
,
1000
0000
0001
0000
0100
0000
0001
0000
0100
0000
0000
0001
0000
0000
0010
0000
,
0000
0100
0000
0000
1000
0000
0000
0000
0010
0000
1000
0000
0010
0000
0100
0000
,
0001
0000
1000
0000
0010
0000
1000
0000
0001
0000
0000
0010
0000
0000
0100
0000
,
0000
1000
0000
0000
0100
0000
0000
0000
1000
0000
0100
0000
0010
0000
0001
0000
,
0100
0000
0010
0000
1000
0000
0001
0000
1000
0000
0000
0010
0000
0000
0100
0000
,
0002
1003
0010
1000
0001
0100
0010
1000
,
0001
0100
0001
1000
0010
1000
0001
0100
,
0001
1000
0010
1000
0001
0100
0001
0100
,
0010
2000
3010
0000
0000
1001
0000
0000
,
0000
0000
0000
0000
0010
0000
0000
0100
0000
0000
0001
0000
0000
1000
0000
0000
,
0001
1000
0010
0000
0000
0110
0000
0000
,
0000
0000
0000
0000
0000
0001
0000
0000
0100
0000
0010
0000
0000
1000
0000
0000
,
0010
0100
0001
0100
0010
1000
0010
0100
,
0001
0010
0100
1000
0010
0100
0001
1000
,
0100
0010
0001
0010
0100
1000
0010
1000
,
0001
0100
0000
0000
0010
1000
0001
0100
,
0010
1000
0001
0000
1000
0000
0101
0000
,
1010
0000
1001
0000
0100
0010
1000
0001
,
0100
0010
1000
0000
1010
0000
0101
0000
,
1001
0000
0100
0010
0100
0001
1000
0010
,
1000
0001
1000
0010
0100
0010
1000
0001
,
1000
0001
0100
0010
1000
0100
0010
0001
,
0100
0010
1000
0000
1010
0000
1001
0000
,
0110
0000
0001
1000
0001
1000
0010
0100
,
0001
1000
0010
0100
0001
1000
0001
0100
,
0010
0010
1000
0100
0010
0001
1000
0010
,
0100
0010
1000
0001
1000
0100
0010
0001
,
0011
0000
0100
1000
0100
1000
0010
0100
,
0010
0100
0001
1000
0001
1000
0001
0010
,
0100
0100
1000
0100
0010
0001
1000
0010
,
1000
0001
0010
0100
1000
0010
1000
0010
,
0100
0002
0000
0023
,
0000
0230
0000
2300
,
0000
3020
0000
0230
,
0000
0302
0000
1003
,
1000
0000
0000
0010
0000
0000
0100
0000
,
0000
0001
0000
0000
1000
0000
0000
0010
,
0000
0000
0100
0000
0000
0001
0000
0000
,
1000
0000
0000
0010
0000
0000
1000
0000
,
0000
0001
0000
0000
0000
0000
0000
0000
;

//---------------dance-single - ----------------
#NOTES:
     dance-single:
     :
     Medium:
     8:
     0.462,0.558,0.311,0.067,0.017:
0000
0000
0000
0000
,
0000
0000
0000
0000
,
0000
0000
0000
0000
,
0000
0000
0000
1000
,
0100
0010
0001
1010
,
0101
1010
0101
1000
,
0100
0010
0001
0100
,
0010
1000
0010
0000
1001
0000
1000
0100
,
0010
0001
0100
0010
1000
0001
1000
0010
,
0100
0010
1000
0001
1000
0000
0010
0000
,
0100
0001
1000
0010
,
0010
0010
1000
0001
,
0100
0010
1000
0001
,
0100
0100
0100
0010
,
1000
0001
0100
0101
,
1001
1100
0110
0001
,
0001
0100
0100
0010
,
1000
0001
0110
0000
,
1000
1000
1000
0010
0010
0010
0000
0000
,
0100
0100
0100
0001
0001
0001
0001
0000
,
1000
1000
1000
0010
0010
0010
0000
0000
,
0100
0100
0100
0001
0001
0001
0001
1000
,
0000
0010
0000
1000
0000
0100
0000
0010
,
0000
0011
0000
1100
0000
0000
0000
0000
,
0000
0001
0000
0100
0000
0010
0000
1000
,
0000
1001
0000
0110
0000
0101
0000
1000
,
0000
0001
0000
1000
0000
0001
0000
0110
,
0000
1001
0000
0110
0000
0000
0000
0000
,
0000
1000
0000
0010
0000
1000
0000
0001
,
0000
1001
0000
0110
0000
1001
0000
0010
,
0000
1000
0001
0000
0001
0000
0000
0100
,
0000
0100
0010
0000
0010
0000
0000
1000
,
0000
1000
0001
0000
0001
0000
0000
0100
,
0000
0100
0010
0000
0010
0000
0000
1000
,
0000
0100
0000
0010
0000
0001
0000
0100
,
0000
0010
0000
1000
0000
0001
0000
1000
,
0000
0100
0000
0010
0000
0001
0000
0100
,
0000
0010
0000
1000
0000
1001
0000
0010
,
0000
0100
0000
0010
0000
0100
0000
0001
,
0000
1000
0000
0001
0000
1001
0000
0100
,
0000
0010
0000
0100
0000
0010
0000
1000
,
0000
0010
0000
0100
0001
0000
1000
0000
,
0001
1000
0010
0100
,
0110
0101
1000
0010
,
1000
0010
1000
0001
,
1000
1010
0100
0010
,
1000
0001
1000
0010
,
0100
0100
0001
0010
,
0100
1000
1000
0010
,
0200
0300
0001
0000
1000
0000
0010
0000
,
1000
0001
0100
0010
,
1000
0100
0010
0001
,
1000
0000
0001
0000
0000
1001
0000
0000
,
0000
0000
0000
0000
0100
0000
0000
0100
0000
0000
0100
0000
0000
0100
0000
0000
,
0001
1000
0001
0000
0000
1100
0000
0000
,
0000
0000
0000
0000
0000
0001
0000
0000
0001
0000
0100
0000
0000
0001
0000
0000
,
0100
0010
1000
1000
,
0100
0010
0001
0100
,
0100
0010
0010
1000
,
0100
0010
0001
0001
,
1000
1000
0010
0110
,
0001
1001
1000
0100
,
0010
0001
1010
0101
,
1001
0100
0100
0010
,
0010
1000
0100
0010
,
0001
0100
0010
1000
,
0001
0100
0101
1010
,
0110
0000
0001
0100
0001
1000
0010
1000
,
0001
0010
0100
1000
0010
0100
0001
1000
,
0001
0000
1000
0100
0010
0001
0100
0010
,
1000
0001
0100
0010
1000
0010
0100
0001
,
0010
0000
1000
0100
0010
0001
0100
0010
,
1000
0001
1000
0010
0100
0001
1000
0100
,
0010
0000
0001
1000
0100
1000
0001
0100
,
0001
1000
0100
0010
0001
1000
0100
1000
,
0010
0200
0000
0302
,
0000
2003
0000
3020
,
0000
0230
0000
0302
,
0000
2003
0000
3001
,
0000
0001
0000
0000
,
0000
0100
0000
0000
0000
0000
0000
0000
,
0100
0000
0000
0000
,
0010
0000
0000
0000
,
1001
0000
0000
0000
;

//---------------dance-single - ----------------
#NOTES:
     dance-single:
     :
     Challenge:
     12:
     0.794,1.000,0.437,0.067,0.441: // measure 1
0000
0000
0000
0000
,  // measure 2
0000
0000
0000
0000
,  // measure 3
0000
0000
0000
0000
,  // measure 4
0000
0000
0000
0000
0000
0000
1000
0100
,  // measure 5
0010
0001
0100
0010
1000
0000
1010
0000
,  // measure 6
0101
0000
0000
0000
1010
0000
0000
0000
0101
0000
0000
1000
0100
0000
1000
0000
,  // measure 7
0100
0000
0010
0000
0001
0000
0100
0000
0010
0100
0010
0100
0010
0000
1000
0000
,  // measure 8
0001
1000
0001
1000
0001
0000
0100
0000
0001
0000
0101
0000
0010
0100
0001
0100
,  // measure 9
0010
1000
0001
1000
0010
1000
0001
0100
0010
0100
0001
0000
1000
0010
0100
0010
,  // measure 10
1000
0001
0100
0010
1000
0001
1000
0000
1001
0000
0000
0000
1000
0000
0100
0000
,  // measure 11
0010
0001
0100
0010
0100
0001
0010
0100
,  // measure 12
1000
0100
1000
0010
0100
0100
0100
0001
,  // measure 13
0010
0000
0100
0000
1000
0000
0010
0000
1000
0010
1000
0010
1000
0000
0100
0000
,  // measure 14
0010
0001
0100
0010
1000
0000
1000
1000
,  // measure 15
0001
0010
0100
1000
0001
0010
0110
0000
,  // measure 16
1100
0000
0001
0010
0100
1000
0010
0100
,  // measure 17
0010
0100
0001
1000
0010
1000
0001
0000
,  // measure 18
0011
1100
1001
0110
,  // measure 19
1000
0010
0100
0001
1000
0000
0010
0100
0001
1000
0001
0000
0000
0000
0000
0000
,  // measure 20
0100
0010
1000
0001
1000
0000
0010
0100
0001
1000
0010
0100
0001
0000
0000
0000
,  // measure 21
1000
0100
0010
0001
0100
0000
0010
1000
0001
0100
0010
0000
0100
0000
0001
0000
,  // measure 22
1000
0100
0010
0001
0100
0000
0010
1000
0001
0100
0010
1000
0001
0100
0010
0000
,  // measure 23
0000
1000
0100
0010
0001
0100
0000
0010
,  // measure 24
1000
0001
1000
0010
0000
0100
0010
0100
,  // measure 25
0000
0001
0010
0100
1000
0010
0000
0100
,  // measure 26
0001
0100
0010
1000
0010
0100
0001
0000
,  // measure 27
0000
1000
0100
0010
0001
0100
0000
0010
,  // measure 28
1000
0001
0100
0001
0000
1000
0100
1000
,  // measure 29
0000
0001
0010
0100
1000
0010
0000
0100
,  // measure 30
0001
1000
0001
0100
0010
1000
0000
0001
,  // measure 31
0000
0100
0110
0000
1001
0000
0000
0100
,  // measure 32
0000
0001
0011
0000
1100
0000
0000
0001
,  // measure 33
0000
1000
1100
0000
0110
0000
0000
0001
,  // measure 34
0000
1000
1010
0000
0101
0000
0000
1000
,  // measure 35
0100
1000
0100
0010
0001
1000
0001
0010
,  // measure 36
0100
1000
0100
1000
0010
0100
0010
0100
,  // measure 37
0001
1000
0010
0100
0001
1000
0000
0101
,  // measure 38
0000
1010
0000
1001
0000
0110
0000
0001
,  // measure 39
0010
0100
1000
0010
1000
0010
0000
0100
,  // measure 40
0000
0001
0000
0000
1000
0000
0000
1001
0000
0000
0101
0000
0000
0000
1000
0000
,  // measure 41
0010
1000
0010
0100
0001
0100
0000
0010
,  // measure 42
0000
1010
0000
0000
1000
0000
0001
0000
0010
0000
0100
0000
1000
0000
0010
0000
,  // measure 43
0100
0000
0010
0000
1000
0000
0100
0000
0010
0000
0000
0001
0000
0000
0011
0000
,  // measure 44
0000
1000
0000
0000
1001
0000
0000
0000
0100
0000
0010
0000
1000
0000
0001
0000
,  // measure 45
0100
0000
0010
0000
1000
0000
0001
0000
0100
0000
0000
0001
0000
0000
0101
0000
,  // measure 46
0000
1000
0000
0000
1010
0000
0000
0000
0010
0000
0100
0000
0010
0000
0100
0000
,  // measure 47
0001
0000
1000
0000
0001
0000
1000
0000
0010
0000
0000
0100
0000
0000
1100
0000
,  // measure 48
0000
0001
0000
0000
0110
0000
0000
0000
1000
0000
0100
0000
0010
0000
0001
0000
,  // measure 49
0100
0000
0010
0000
1000
0000
0001
0000
1000
0000
0000
0010
0000
0000
0110
0000
,  // measure 50
0002
1003
0010
1000
0010
0100
0010
1000
,  // measure 51
0001
1000
0010
0100
0001
1000
0010
0100
,  // measure 52
0001
1000
0010
1000
0001
0100
0001
0010
,  // measure 53
0100
2000
3001
0000
0000
1001
0000
0000
,  // measure 54
0000
0000
0000
0000
0010
0000
0000
0100
0000
0000
0010
0000
0000
0100
0000
0000
,  // measure 55
0001
1000
1001
0000
0000
0110
0000
0000
,  // measure 56
0000
0000
0000
0000
0000
1000
0000
0000
0100
0000
1000
0000
0000
0100
0000
0000
,  // measure 57
0110
0001
0010
0100
1000
0010
0100
0001
,  // measure 58
1000
0001
0100
0010
1000
0100
0010
0001
,  // measure 59
0100
0010
0100
0001
1000
0010
0100
0001
,  // measure 60
1000
0010
0200
0301
0010
0100
1000
0010
,  // measure 61
0100
0001
1000
0000
0001
0000
0011
0000
,  // measure 62
0110
0000
1100
0000
0010
0001
0010
0100
,  // measure 63
1000
0010
0100
0000
1010
0000
0101
0000
,  // measure 64
1001
0000
0100
0010
0001
0100
0010
1000
,  // measure 65
0100
0010
0001
0100
0010
1000
0001
0100
,  // measure 66
0010
1000
0001
0100
0010
1000
0001
0100
,  // measure 67
0010
1000
0001
0000
1010
0000
1001
0000
,  // measure 68
0110
0000
0000
0000
0001
0100
0010
1000
0001
0100
0010
1000
0001
1000
0001
1000
,  // measure 69
0010
0000
0100
0001
1000
0010
0100
0001
1000
0010
1000
0001
1000
0010
0100
0001
,  // measure 70
1000
0000
1000
0000
0010
0100
0001
0100
0010
1000
0100
1000
0001
1000
0100
0010
,  // measure 71
0001
1000
0001
1000
0001
0100
0010
1000
0001
1000
0010
0000
0100
0001
1000
0000
,  // measure 72
1001
0000
0000
0000
0001
0010
0100
1000
0010
0100
0001
1000
0010
0100
0001
0010
,  // measure 73
0100
1000
0010
0100
0001
0010
0100
1000
0010
0100
0001
1000
0010
0100
0001
1000
,  // measure 74
0010
0000
0010
0000
1000
0100
1000
0100
0010
0001
0010
0001
1000
0100
1000
0100
,  // measure 75
0010
0001
0010
0001
1000
0010
0100
0001
1000
0010
0100
0001
1000
0010
0100
0001
,  // measure 76
1000
0020
0000
0230
,  // measure 77
0000
0302
0000
2003
,  // measure 78
0000
0000
3010
1000
0100
0010
0001
0100
,  // measure 79
0010
1000
0100
0010
0001
0100
0101
0000
,  // measure 80
1000
0000
0000
0010
0000
0000
1010
0000
,  // measure 81
0000
0001
0000
0000
0100
0000
0000
0101
,  // measure 82
0000
0000
1000
0000
0000
1001
0000
0000
,  // measure 83
1000
0001
0100
0010
1000
0001
0100
0010
,  // measure 84
1000
0002
0000
0000
0000
0000
0000
0000
,  // measure 85
0003
0000
0000
0000
;

//---------------dance-single - ----------------
#NOTES:
     dance-single:
     :
     Easy:
     5:
     0.375,0.558,0.008,0.017,0.000:
0000
0000
0000
0000
,
0000
0000
0000
0000
,
0000
0000
0000
0000
,
0000
0000
0000
0001
,
1000
0010
0100
0001
,
0001
1000
0010
1000
,
0010
0100
0001
0100
,
0010
0000
1000
0000
1000
0000
0001
0001
,
1000
1000
0010
0010
0100
0100
0001
0001
,
1000
1000
0010
0010
0100
0100
0001
0000
,
1000
0010
0100
0001
,
0001
1000
0010
0100
,
0001
1000
0010
1000
,
0001
0100
0010
1000
,
0001
0100
0010
1000
,
1000
0001
0100
0010
,
0100
0001
0001
0010
,
0100
1000
0001
1000
,
0001
0100
0010
0100
0010
0100
0000
0000
,
1000
0010
1000
0010
1000
0010
1000
0000
,
0001
0100
0001
0100
0001
0100
0000
0000
,
0010
1000
0010
1000
0010
1000
0010
0100
,
0000
0001
0000
1000
0000
0010
0000
0100
,
0000
0010
0000
1000
0000
0000
0000
0000
,
0000
0001
0000
0100
0000
0010
0000
1000
,
0000
0001
0000
0100
0000
0010
0000
0000
,
0000
1000
0000
0010
0000
0100
0000
0001
,
0000
1000
0000
0010
0000
0000
0000
0000
,
0000
1000
0000
0001
0000
0100
0000
0010
,
0000
1000
0000
0001
0000
1000
0000
0010
,
0000
0000
0000
0100
0000
0000
0000
0001
,
0000
0000
0000
1000
0000
0000
0000
0010
,
0000
0000
0000
1000
0000
0000
0000
0001
,
0000
0000
0000
0100
0000
0000
0000
0010
,
0000
0000
0000
1000
0000
0000
0000
0001
,
0000
0000
0000
0100
0000
0000
0000
0010
,
0000
1000
0000
0001
0000
0100
0000
0020
,
0000
0000
0000
0000
0000
0030
0000
1000
,
0000
1000
0000
1000
0000
1000
0000
1000
,
0000
1000
0000
1000
0000
0001
0000
0001
,
0000
0001
0000
0001
0000
0001
0000
0100
,
0000
0010
0000
0100
0001
0000
1000
0000
,
0010
0100
0010
0010
,
0010
0010
1000
0001
,
0100
0010
0100
0100
,
0100
0100
0001
1000
,
0001
1000
0010
0100
,
0001
1000
0010
0100
,
0001
1000
1000
1000
,
0010
0100
0000
0001
0000
1000
0000
0010
,
0000
1000
0000
0001
0000
0100
0000
0010
,
0000
1000
0000
0001
0000
0100
0000
0010
,
0000
1000
0000
0010
0000
0000
0010
0000
,
0000
0100
0000
0010
,
0000
0000
1000
0000
0000
0001
0000
0000
,
0000
1000
0000
0010
,
0000
0100
0001
1000
,
0001
0100
0010
0100
,
0010
1000
0010
0100
,
0001
1000
1000
0010
,
0100
0010
1000
0001
,
0100
0010
1000
0001
,
0010
0100
1000
0010
,
1000
0010
0100
0001
,
1000
0010
0010
0100
,
0100
0001
0001
1000
,
0010
2000
0000
0000
,
3000
0000
0001
0010
0100
1000
0001
0100
,
0001
0000
1000
0100
0010
0001
1000
0010
,
1000
0000
0010
0100
0010
1000
0010
0100
,
0001
0000
1000
0000
0010
0000
0100
0001
,
0001
0000
1000
0010
1000
0001
0100
0001
,
1000
0000
0010
0100
0010
0000
1000
0001
,
1000
0000
0010
0100
0010
0000
1000
0001
,
1000
0000
0010
0000
0100
0000
0001
1000
,
0010
1000
0000
0001
,
0000
1000
0000
0010
,
0000
0100
0001
1000
,
0010
0100
0001
1000
,
0010
0000
0000
0000
,
0100
0000
0000
0000
,
0010
0000
0000
0000
,
1000
0000
0000
0000
,
1001
0000
0000
0000
;

//---------------dance-single - Copied from----------------
#NOTES:
     dance-single:
     Copied from:
     Beginner:
     3:
     0.109,0.140,0.008,0.000,0.000:
0000
0000
0000
0000
,
0000
0000
0000
0000
,
0000
0000
0000
0000
,
0000
0000
0000
1000
,
0000
0000
0000
1000
,
0000
0000
0000
1000
,
0000
0000
0000
0010
,
0000
0000
0000
0100
,
0000
0010
0000
0100
,
0000
0010
0000
1000
,
0000
0000
0000
0001
,
0000
0000
0000
1000
,
0000
0000
0000
0001
,
0000
0000
0000
0010
,
0000
0000
0000
0100
,
0000
0000
0000
1000
,
0000
0000
0000
0010
,
0000
0000
0000
1000
,
0000
0000
0000
0000
0000
0000
0000
0010
,
0000
0000
0000
0000
,
0000
0100
0000
0000
0000
0001
0000
0000
,
0000
1000
0000
0000
0000
0010
0000
0000
,
0000
1000
0000
0000
0000
0000
0000
0010
,
0000
0000
0000
0000
,
0000
0100
0000
0000
0000
0000
0000
0001
,
0000
0000
0000
0000
,
0000
1000
0000
0000
0000
0000
0000
0010
,
0000
0000
0000
0000
,
0000
0100
0000
0000
0000
0000
0000
0001
,
0000
0000
0000
0000
0000
0000
0000
1000
,
0000
0000
0000
0000
0000
0000
0000
1000
,
0000
0000
0000
0000
0000
0000
0000
1000
,
0000
0000
0000
0000
0000
0000
0000
1000
,
0000
0000
0000
0000
0000
0000
0000
0001
,
0000
0000
0000
0000
0000
0000
0000
0001
,
0000
0000
0000
0000
0000
0000
0000
0001
,
0000
0000
0000
0000
,
0000
0000
0000
0000
0000
0000
0000
0100
,
0000
0000
0000
0000
0000
0000
0000
0100
,
0000
0000
0000
0000
0000
0000
0000
0010
,
0000
0000
0000
0000
0000
0000
0000
0010
,
0000
0000
1000
0000
,
0000
0000
1000
0000
,
0000
0000
0001
0000
,
0000
0000
0001
0000
,
0000
0000
0100
0000
,
0000
0000
0010
0000
,
0000
0000
0100
0000
,
0000
0000
0010
0000
,
0000
1000
0000
0000
0000
0000
0000
0000
,
0000
0001
0000
0000
0000
0000
0000
0000
,
0000
1000
0000
0000
0000
0000
0000
0000
,
0000
0001
1000
0000
0000
0000
0000
0000
,
0000
0010
0000
0000
,
0000
0100
0000
0000
,
0000
0010
0000
0000
,
0000
0100
0000
0000
,
0000
0001
0000
0000
,
0000
1000
0000
0000
,
0000
0001
1000
0000
,
0000
0000
0010
0000
,
0000
0000
0100
0000
,
0000
0000
0001
0000
,
0000
1000
0000
0000
,
0000
0010
0000
0000
,
0000
0100
0000
0000
,
0000
0001
0000
0000
,
0000
1000
0000
0100
,
0000
0010
0000
0001
,
0000
1000
0000
0100
,
0000
0000
0010
0000
0000
0000
0000
0001
,
0001
1000
0000
0000
,
0000
1000
0000
0000
,
0000
0010
0000
0000
,
0000
0100
0000
0000
,
0000
0001
0000
0000
,
0000
0001
0000
0000
,
0000
1000
0000
0000
,
0000
1000
0000
0010
,
0100
0000
0000
0000
,
0000
0000
0000
0000
,
0010
0000
0000
0000
,
0000
0000
0000
0000
,
1001
0000
0000
0000
;
