#TITLE:HONEY SUNRISE;
#SUBTITLE:;
#ARTIST:jun with Aimee;
#TITLETRANSLIT:HONEY SUNRISE (Aimee side);
#SUBTITLETRANSLIT:;
#ARTISTTRANSLIT:;
#CREDIT:SupremeX;
#BANNER:HONEY SUNRISE.png;
#BACKGROUND:HONEY SUNRISE-bg.png;
#LYRICSPATH:;
#CDTITLE:CDTitle.png;
#MUSIC:HONEY SUNRISE.ogg;
#OFFSET:-1.522;
#SAMPLESTART:41.740;
#SAMPLELENGTH:12.000;
#SELECTABLE:YES;
#BPMS:0.000=190.000,194.000=95.000,207.750=190.000;
#STOPS:207.750=0.240
;
#BGCHANGES:18.000=heart3.avi=1.000=0=0=1,
34.000=ants1.avi=1.000=0=0=1,
50.000=sheep1.avi=1.000=0=0=1,
66.000=star7.avi=1.000=0=0=1,
82.500=fabric1.avi=1.000=0=0=1,
98.000=bear4.avi=1.000=0=0=1,
114.000=smoke3.avi=1.000=0=0=1,
130.000=star1.avi=1.000=0=0=1,
146.000=Star2.avi=1.000=0=0=1,
162.000=star1.avi=1.000=0=0=1,
178.000=Star2.avi=1.000=0=0=1,
194.000=heart3.avi=1.000=0=0=1,
211.500=fabric1.avi=1.000=0=0=1,
219.500=star8.avi=1.000=0=0=1,
227.500=star1.avi=1.000=0=0=1,
243.500=frog1.avi=1.000=0=0=1,
259.500=ants1.avi=1.000=0=0=1,
275.500=sheep1.avi=1.000=0=0=1,
291.500=star7.avi=1.000=0=0=1,
307.500=HONEY SUNRISE-bg.png=1.000=0=0=1,
99999=-nosongbg-=1.000=0=0=0 // don't automatically add -songbackground-
;

//---------------dance-single - ----------------
#NOTES:
     dance-single:
     :
     Hard:
     9:
     0.663,1.000,0.309,0.497,0.131:
0000
0000
0000
0000
,
0000
0000
0000
0000
,
0000
0000
0000
0000
,
0000
0000
0000
0000
,
0000
0000
1000
0000
0101
0000
0000
1001
,
0000
1010
0000
0100
0000
0001
0000
1000
,
0001
0000
0100
0100
0020
0000
0000
0000
,
2030
0000
0000
0000
3010
0000
0000
1000
,
0000
0001
0100
0001
0100
0010
1000
0020
,
0000
0130
0100
0002
0000
0103
0001
0010
,
0100
1000
0100
1000
0010
0100
0010
2000
,
0000
3010
1000
0020
0000
0130
0100
0010
,
1000
0001
0100
0010
1000
0001
0100
0002
,
0000
0103
0001
2000
0000
3001
0010
0100
,
1000
0010
0100
0010
1000
0100
1000
0002
,
0000
0103
0001
2000
0000
3010
0100
0010
,
1000
0100
0010
0001
0100
0001
1000
0010
,
0100
0000
0001
0101
0000
1000
1010
0000
,
0000
0001
0100
0001
0100
0000
0000
0010
,
1000
0010
0000
0100
0000
0110
0000
0001
,
1000
0000
1001
0000
0000
1000
0100
0010
,
0001
0100
0010
2000
0000
3100
0010
0001
,
0000
0100
0010
1000
0010
0000
0000
0000
,
0100
0001
1000
0020
0000
0000
0130
0000
,
0000
0101
0002
1000
,
2003
0010
3020
0100
,
0230
0000
0001
0000
0302
0000
0000
1003
,
0000
0100
0000
0010
1000
0010
0100
0001
,
0100
0000
0020
0000
,
2030
0000
3002
0000
,
0203
0000
0300
0000
0001
0000
1000
0001
,
0000
0100
0000
0101
0000
0000
0000
0010
,
0010
0000
1000
0001
1001
0000
0000
0000
,
1000
0100
0000
1100
0000
0110
0000
0011
,
0000
0001
1000
0001
1000
0000
0010
0100
,
0000
0001
0000
2002
0000
3003
0000
0000
,
0010
1000
0100
0010
0001
0000
0000
0000
,
1000
0100
1000
0100
0000
0110
0000
0011
,
0000
0001
0010
0001
0010
0000
0100
2000
,
0000
3020
0000
0230
0000
0300
0000
0001
,
0000
0001
1000
0010
1000
0000
0000
0000
,
0010
0100
0000
0002
0000
2003
0000
3001
,
0000
0001
0100
0001
1000
0000
0010
0100
,
0000
0001
0000
0101
0000
1010
0000
1001
,
0000
0000
0020
0000
0230
0000
0300
0101
,
0000
1010
0000
1001
0000
0100
0000
0001
,
1000
0000
0001
0000
1001
0000
0000
0100
,
0010
0000
0000
1000
0100
1000
0001
0010
,
0100
0000
1000
0000
0100
0000
0010
0000
0001
0100
0010
0200
0000
0301
0010
0002
,
0000
1003
0100
1000
0100
0010
0001
0010
0100
1000
0010
0200
0000
0301
0100
0002
,
0000
1003
0100
1000
0010
0100
0010
1000
0100
1000
0001
0010
0000
0100
1000
0100
,
0000
0010
0001
0010
0100
1000
0010
0100
0010
1000
0100
1000
0000
0001
0100
0001
,
0000
0000
1000
1000
0000
0010
0100
0001
,
0000
0000
0000
0100
0100
0000
0100
0000
,
1010
0000
1001
0000
0100
0010
0100
0010
,
0000
1000
0002
0000
0203
0000
0320
0000
,
0030
0000
1000
0000
0010
0100
0010
0100
,
0000
0000
0000
0001
0010
0100
1000
0000
,
0101
0000
1010
0000
1000
0100
0010
0001
,
0000
0100
0010
0000
2000
0000
3020
0000
,
0030
0000
0100
0000
0001
1000
0001
0200
,
0000
0300
0010
1000
0010
0100
0001
1000
,
0010
0100
0010
1000
0100
0010
0001
0100
,
0000
0010
1000
0000
1100
0000
0011
0000
,
0110
0000
1100
0000
0000
1000
0000
2010
,
0000
0000
3010
0000
0010
0100
1000
0001
,
1000
0001
0100
0010
0000
1000
0100
0020
,
0000
0000
0031
0002
0000
0000
0103
0010
,
0100
0001
0010
0001
0010
0100
1000
0001
,
1000
0001
0002
0000
0103
0200
0000
0300
,
0010
1000
0100
0010
0001
0100
0010
0100
,
0001
0010
0200
0000
1300
1000
0020
0000
,
0130
0001
0100
0010
1000
0100
0010
0001
,
0100
0010
2000
0000
3001
0001
0002
0000
,
1003
0100
0010
0001
0100
0010
1000
0100
,
1000
0010
0200
0000
0300
0001
2000
0000
,
3010
0100
0001
0010
0100
1000
0010
0220
,
0000
0000
0000
0330
0000
0000
0000
0000
;

//---------------dance-single - ----------------
#NOTES:
     dance-single:
     :
     Easy:
     4:
     0.354,0.547,0.047,0.037,0.000:
0000
0000
0000
0000
,
0000
0000
0000
0000
,
0000
0000
0000
0000
,
0000
0000
0000
0000
,
0000
0000
0100
0000
0100
0000
0000
0001
,
0000
0001
0000
1000
0000
1000
0000
0010
,
0100
0000
0000
0000
0002
0000
0000
0003
,
2000
0000
3000
0000
,
0000
0000
0010
0010
,
0100
0100
0001
1000
,
0001
1000
0010
0010
,
1000
1000
0001
0100
,
0010
1000
0001
0001
,
1000
1000
0010
0100
,
0010
0100
0001
0001
,
1000
1000
0010
0100
,
0001
1000
0010
0100
,
0010
1000
0010
0100
,
0001
0100
0010
0100
,
1000
0001
0100
0001
,
0100
0010
1000
0010
,
0100
0001
0010
0100
,
1000
0010
0100
0001
,
1000
0010
0200
0000
,
0300
0000
0001
0000
,
1000
0000
0001
0000
,
0100
0000
0000
0000
0010
0000
0000
1000
,
0000
0010
0000
0100
0000
0000
0001
0000
,
0001
0000
1000
0000
,
0010
0000
0100
0000
,
0001
0000
0000
0000
1000
0000
0000
0010
,
0000
0100
0000
0010
0000
0000
0000
0000
,
1000
0000
0001
0000
,
1000
0010
0100
0010
,
0100
0001
0010
0100
,
1000
0010
0100
0010
,
0100
0001
0001
1000
,
1000
0010
0100
0010
,
0100
0001
1000
0010
,
0100
0001
1000
0000
,
0010
0010
0100
0100
,
0001
0010
0100
1000
,
0010
0000
0100
0000
0001
0000
0000
1000
,
0000
0010
0000
0100
0000
0010
0000
0100
,
0000
0001
0001
0000
,
1000
0010
0100
0010
,
0100
0001
0001
0000
,
1000
0000
0010
0100
,
0001
1000
0010
1000
,
0010
0000
0100
0001
0100
0000
0010
0000
,
1000
0000
0001
0100
0010
1000
1000
0001
,
0001
0100
0010
0100
0001
0010
0100
1000
,
0000
0000
0000
0000
0000
0000
0000
0101
,
0000
0000
0000
1000
,
1000
0000
1000
0000
0000
0000
0000
0010
,
0000
0100
0000
0010
0000
0100
0000
0001
,
0000
0100
0000
0010
0000
0100
0000
1000
,
0000
0000
0000
0010
0000
0100
0000
0010
,
0000
0100
0000
0001
0000
0010
0000
0100
,
0000
1000
0000
0001
0000
0100
0000
0001
,
0000
0000
0000
1000
0000
1000
0000
0010
,
0000
0100
0000
0001
0000
1000
0000
0100
,
0000
0010
0000
0001
0000
0100
0000
0001
,
0000
0100
0000
0010
0000
1000
0000
0010
,
0000
1000
0000
0001
0000
0100
0000
0110
,
0000
0000
0000
0001
0000
0010
0000
0100
,
0000
1000
0000
0001
0000
1000
0000
1001
,
0000
0000
0000
1010
0000
0000
0000
0101
,
0000
0000
0000
0000
0000
0000
0000
1000
,
0000
1000
0000
0010
0000
0010
0000
0100
,
0000
0100
0000
0001
0000
0100
0000
0010
,
0000
0010
0000
1000
0000
1000
0000
0001
,
0000
0010
0000
0100
0000
1000
0000
0010
,
0000
0010
0000
0100
0000
0100
0000
0001
,
0000
0001
0000
1000
0000
0100
0000
0010
,
0000
0001
0000
0010
0000
0100
0000
1000
,
0000
0010
0000
0100
0000
0001
0000
2000
,
0000
0000
0000
0000
0000
0000
0000
3000
;

//---------------dance-single - Copied from----------------
#NOTES:
     dance-single:
     Copied from:
     Beginner:
     1:
     0.072,0.107,0.000,0.000,0.000: // measure 1
0000
0000
0000
0000
,  // measure 2
0000
0000
0000
0000
,  // measure 3
0000
0000
0000
0000
,  // measure 4
0000
0000
0000
0000
,  // measure 5
0000
0000
0010
0000
,  // measure 6
0000
0000
0000
0000
,  // measure 7
0000
0000
0010
0000
,  // measure 8
0000
0000
0000
0000
,  // measure 9
0000
0000
0100
0000
,  // measure 10
0000
0000
0000
0000
,  // measure 11
0100
0000
0000
0000
,  // measure 12
0000
0000
0000
0000
,  // measure 13
0000
0000
0001
0000
,  // measure 14
0000
0000
0000
0000
,  // measure 15
0001
0000
0000
0000
,  // measure 16
0000
0000
0000
0000
,  // measure 17
0000
0000
1000
0000
,  // measure 18
0000
0000
1000
0000
,  // measure 19
0000
0000
1000
0000
,  // measure 20
0000
0000
0000
0000
,  // measure 21
1000
0000
0000
0000
,  // measure 22
0010
0000
0000
0000
,  // measure 23
0010
0000
0000
0000
,  // measure 24
0010
0000
0000
0000
,  // measure 25
0000
0000
0100
0000
,  // measure 26
0000
0000
0100
0000
,  // measure 27
0000
0000
0100
0000
,  // measure 28
0000
0000
0000
0000
,  // measure 29
0000
0000
0001
0000
,  // measure 30
0000
0000
0001
0000
,  // measure 31
0000
0000
0001
0000
,  // measure 32
0000
0000
0000
0001
0000
0000
0000
0000
,  // measure 33
0000
0000
1000
0000
,  // measure 34
0000
0000
0010
0000
,  // measure 35
0000
0000
1000
0000
,  // measure 36
0000
0000
0010
0000
,  // measure 37
0000
0000
0100
0000
,  // measure 38
0000
0000
0001
0000
,  // measure 39
0000
0000
0100
0000
,  // measure 40
0000
0000
0001
0000
,  // measure 41
0000
0000
1000
0000
,  // measure 42
0000
0000
0010
0000
,  // measure 43
0000
0000
1000
0000
,  // measure 44
0000
0000
0010
0000
,  // measure 45
0000
0000
0100
0000
,  // measure 46
0000
0000
0001
0000
,  // measure 47
0000
0000
0100
0000
,  // measure 48
0000
0000
0001
0000
,  // measure 49
0000
0000
1000
0000
,  // measure 50
0000
0000
1000
0000
,  // measure 51
0000
0000
0010
0000
,  // measure 52
0000
0000
0010
0000
,  // measure 53
0000
0000
0000
0000
0000
0000
0000
0100
,  // measure 54
0000
0000
0000
0000
,  // measure 55
0000
0000
0000
0000
0000
0000
0000
0100
,  // measure 56
0000
0000
0000
0000
,  // measure 57
0000
0000
0000
0000
0000
0000
0000
0001
,  // measure 58
0000
0000
0000
0000
,  // measure 59
0000
0000
0000
0000
0000
0000
0000
0001
,  // measure 60
0000
0000
0000
0000
,  // measure 61
0000
0000
0000
0000
0000
0000
0000
1000
,  // measure 62
0000
0000
0000
0000
,  // measure 63
0000
0000
0000
0000
0000
0000
0000
1000
,  // measure 64
0000
0000
0000
0000
,  // measure 65
0000
0000
0000
0000
0000
0000
0000
0010
,  // measure 66
0000
0000
0000
0000
,  // measure 67
0000
0000
0000
0000
0000
0000
0000
0010
,  // measure 68
0000
0000
0000
0000
,  // measure 69
0000
0000
0000
0000
0000
0000
0000
0100
,  // measure 70
0000
0000
0000
0000
,  // measure 71
0000
0000
0000
0100
0000
0000
0000
0000
,  // measure 72
0000
0000
0000
0001
0000
0000
0000
0000
,  // measure 73
0000
0000
0000
0000
0000
0000
0000
0001
,  // measure 74
0000
0000
0000
0000
,  // measure 75
0000
0000
0000
0000
0000
0000
0000
1000
,  // measure 76
0000
0000
0000
0000
,  // measure 77
0000
0000
0000
0001
0000
0000
0000
0000
;

//---------------dance-single - ----------------
#NOTES:
     dance-single:
     :
     Medium:
     8:
     0.509,0.762,0.084,0.309,0.061:
0000
0000
0000
0000
,
0000
0000
0000
0000
,
0000
0000
0000
0000
,
0000
0000
0000
0000
,
0000
0000
0100
0000
0010
0000
0000
1000
,
0000
1000
0000
0001
0000
0001
0000
0100
,
0010
0000
1000
1000
0020
0000
0000
0000
,
0230
0000
0000
0000
0310
0000
0000
0010
,
0000
1000
0100
0010
0001
0000
0100
0010
,
0000
0000
1000
0100
0000
0010
0001
0000
,
0100
0000
0100
0000
0010
0000
0010
1000
,
0000
0000
1000
0010
0000
0000
0010
0000
,
0100
0000
0001
0000
0100
0000
0010
1000
,
0000
1000
0010
0100
0000
0100
0001
1000
,
0001
0000
0100
0000
0010
0000
1000
0100
,
0000
0010
0001
0100
0000
0000
0010
0000
,
1000
0100
0010
0001
0100
0000
0010
0000
,
1000
0000
0001
0001
0000
0100
0100
0000
,
0000
0010
1000
0010
1000
0000
0000
0001
,
0000
0001
0000
1000
0000
1010
0000
0010
,
0100
0100
0000
0001
,
0001
0000
0100
0020
0000
0030
1000
1000
,
0000
0000
0001
0100
0001
0000
0000
0000
,
1000
0010
1000
0002
0000
0000
0003
0000
,
0000
0100
0200
0000
,
0302
0000
2003
0000
,
3020
0000
0000
0000
0230
0000
0000
0310
,
0000
0010
0000
1000
0000
1000
0001
0100
,
0001
0000
0200
0000
,
0320
0000
2030
0000
,
3002
0000
0003
0000
0100
0000
0100
0010
,
0000
1000
0000
1000
0000
0000
0000
0000
,
0010
0100
0101
0000
,
1000
0010
0000
0010
0000
0100
0000
0100
,
0000
0001
0000
0001
1000
0000
0010
0100
,
0000
0100
0000
0002
0000
0003
0000
0000
,
1000
0100
0010
0001
0100
0000
0000
0000
,
0010
1000
0000
1000
0000
0001
0000
0001
,
0000
0100
0010
0100
0010
0000
1000
2000
,
0000
3020
0000
0230
0000
0300
0000
0001
,
0000
0001
1000
0100
1000
0000
0000
0000
,
0010
0100
0000
0001
0000
0100
0000
0010
,
0000
0010
1000
0100
1000
0000
0010
0100
,
0000
0001
0000
0101
0000
1010
0000
1001
,
0000
0000
0020
0000
0230
0000
0300
0001
,
0000
1000
0000
0010
0000
0110
0000
0001
,
0100
0000
0100
0000
1010
0000
0000
0100
,
0001
0000
0000
1000
0010
1000
0010
0000
,
0100
0000
0000
0000
0100
0000
0000
0000
0001
0000
0001
2000
0000
3000
0010
0200
,
0000
0300
0001
0000
1000
0000
0001
0000
0100
0000
0010
2000
0000
3000
0010
0200
,
0000
0300
0001
0000
1000
0000
0100
0000
0010
0000
0001
0100
0000
0010
1000
0010
,
0000
0100
0001
0100
0001
0000
1000
0000
1000
0010
0100
0010
0000
1000
0001
1000
,
0000
0000
0010
0010
0000
0100
0001
0100
,
0000
0000
0000
0010
0010
0000
1000
0000
,
1010
0000
0101
0000
1000
0100
0010
0001
,
0000
0100
0010
0000
0100
0000
0010
0000
,
0000
0000
1000
0000
0010
0000
0010
0100
,
0000
0000
0000
0001
0010
0100
1000
0000
,
0010
0000
1000
0000
0010
1000
0100
1000
,
0000
0001
0001
0000
0100
0000
0010
0000
,
0000
0000
1000
0000
0010
0100
0010
0200
,
0000
0300
0000
0001
1000
0000
1000
0000
,
0010
0000
0010
0000
0100
0010
0100
0010
,
0000
1000
0001
0000
0001
0000
0100
0000
,
0100
0000
0010
0000
0000
1000
0000
2000
,
0000
3001
0001
0100
,
0100
0000
0010
1000
0000
0010
1000
1000
,
0000
0000
0001
0002
0000
0000
0003
0100
,
0000
0010
0000
0010
1000
0100
1000
0100
,
1000
0001
0001
0000
0100
0200
0000
0300
,
0010
1000
0100
0010
0001
0100
0000
0010
,
1000
0100
0010
0000
0001
0001
0200
0000
,
0300
0010
1000
0010
0000
0100
0000
0001
,
0100
0010
2000
0000
3001
1000
0002
0000
,
0103
0010
0100
0010
0000
1000
0010
0100
,
0010
1000
0002
0000
0003
0010
0200
0000
,
0300
1000
0001
0010
0100
1000
0010
0020
,
0000
0000
0000
0030
0000
0000
0000
0000
;
