#TITLE:HEARTBEAT;
#SUBTITLE:;
#ARTIST:NATHALIE;
#TITLETRANSLIT:;
#SUBTITLETRANSLIT:;
#ARTISTTRANSLIT:;
#GENRE:;
#CREDIT:SupremeX;
#BANNER:HEARTBEAT.png;
#BACKGROUND:HEARTBEAT-bg.png;
#LYRICSPATH:;
#CDTITLE:;
#MUSIC:HEARTBEAT.ogg;
#OFFSET:-0.050649;
#SAMPLESTART:48.759998;
#SAMPLELENGTH:12.000000;
#SELECTABLE:YES;
#DISPLAYBPM:155.000000;
#BPMS:0.000000=155.173996
;
#STOPS:
;
#BGCHANGES:32.000=heart4.avi=1.000=0=0=1=====,
48.000=heart2.avi=1.000=0=0=1=====,
60.000=heart4.avi=1.000=0=0=1=====,
64.000=heart10.avi=1.000=0=0=1=====,
81.000=heart3.avi=1.000=0=0=1=====,
96.000=heart1.avi=1.000=0=0=1=====,
112.000=heart6.avi=1.000=0=0=1=====,
123.500=HEARTBEAT-bg.png=1.000=0=0=1=====,
128.500=heart2.avi=1.000=0=0=1=====,
136.000=heart10.avi=1.000=0=0=1=====,
144.500=heart3.avi=1.000=0=0=1=====,
151.000=heart1.avi=1.000=0=0=1=====,
160.500=heart6.avi=1.000=0=0=1=====,
168.000=heart10.avi=1.000=0=0=1=====,
176.500=heart6.avi=1.000=0=0=1=====,
183.000=heart3.avi=1.000=0=0=1=====,
193.000=heart2.avi=1.000=0=0=1=====,
208.000=heart4.avi=1.000=0=0=1=====,
224.000=HEARTBEAT-bg.png=1.000=0=0=1=====,
99999=-nosongbg-=1.000=0=0=0 // don't automatically add -songbackground-
;
#KEYSOUNDS:;
#ATTACKS:;

//---------------dance-single - ----------------
#NOTES:
     dance-single:
     :
     Hard:
     7:
     0.447620,0.470208,0.409659,0.088575,0.005536,283.000000,246.000000,37.000000,8.000000,0.000000,0.000000,0.447620,0.470208,0.409659,0.088575,0.005536,283.000000,246.000000,37.000000,8.000000,0.000000,0.000000:
0000
0000
0000
0000
,
0000
0000
0000
0000
,
0000
0000
0000
0000
,
0000
0000
0000
0000
,
1000
0000
0001
0010
0100
0000
1000
1000
,
0000
0000
0010
0100
0001
0000
0100
0100
,
0000
0000
0010
1000
0001
0000
0000
0000
,
0110
1001
0110
0010
,
1000
0000
0001
1000
0010
0000
0100
0100
,
0000
0000
0010
1000
0001
0000
0010
0010
,
0000
0000
0100
1000
0100
0000
0010
0001
,
0010
0000
0100
0010
1000
0000
0001
0010
,
0100
0000
1000
0010
0100
0000
0100
0100
,
0000
0000
0001
0100
0010
0000
0010
0010
,
0000
1000
1010
0000
,
0101
0000
1001
0000
1000
0100
0010
0001
,
1000
0000
0001
0100
0010
0000
1000
1000
,
0000
0000
0001
0100
0001
0000
0010
0010
,
0000
0000
0100
1000
0100
0010
0001
0100
,
0001
0000
1000
0010
0000
1010
0000
0101
,
0000
0000
0010
1000
0001
0000
0100
0100
,
0000
0000
0010
1000
0010
0000
1000
1000
,
0000
0000
0001
0100
0001
0100
0001
1000
,
0000
0101
0000
1010
0000
1001
0000
0000
,
0010
0000
0010
0100
0000
0100
0000
1001
,
0000
1100
0000
0011
0000
1100
0000
0002
,
0000
0000
2003
0000
0010
3010
0000
0100
,
0000
0001
0000
1000
0000
0010
0000
0000
,
0100
0000
0100
0010
0000
0010
0000
1100
,
0000
0011
0000
0110
0000
1001
0000
0200
,
0000
0000
0301
0010
0100
1000
0000
2002
,
0000
0000
3003
0000
0001
0100
0010
1000
,
0000
1001
0000
0000
0000
0000
0001
0010
,
0000
0011
0000
0000
0000
0100
1000
0100
,
0010
0000
0001
0100
0000
0010
0000
1001
,
0000
1100
0000
0000
0001
0010
0100
1000
,
0000
1001
0000
0000
0000
0000
0001
0200
,
0000
0310
1000
0000
0000
0000
0001
0100
,
0010
1000
0001
0100
0010
1000
0000
1001
,
0000
0000
0000
0000
1000
0100
0010
0001
,
0000
1100
0000
0000
0000
0000
0010
0001
,
0000
0011
0000
0000
0000
0100
1000
0100
,
0010
0000
0001
1000
0000
0110
0000
1001
,
0000
0110
0000
0000
0001
1000
0001
0100
,
0000
1001
0000
0000
0000
0000
0010
2000
,
0000
3001
0100
0000
0000
0000
0010
1000
,
0010
0000
0100
0000
0001
0100
0000
0020
,
1000
0000
1000
0000
1000
0000
1000
1000
,
1030
0000
0100
0001
1000
0000
0001
0001
,
0000
0000
0010
0100
1000
0000
0010
0010
,
0000
0000
0000
0000
1000
0000
0010
0000
0100
0000
0000
0000
0001
0000
0000
0001
,
0000
0000
1000
0100
1000
0000
0001
0100
,
0001
0000
1000
0010
1000
0000
0010
0010
,
0000
0000
1000
0100
0010
0000
0001
0001
,
0000
0010
0100
0000
,
1100
0110
0011
1001
,
1000
0100
0010
0001
0000
1001
0000
0000
;

//---------------dance-single - ----------------
#NOTES:
     dance-single:
     :
     Medium:
     5:
     0.303685,0.313472,0.044287,0.022144,0.000000,192.000000,188.000000,4.000000,2.000000,0.000000,0.000000,0.303685,0.313472,0.044287,0.022144,0.000000,192.000000,188.000000,4.000000,2.000000,0.000000,0.000000:
0000
0000
0000
0000
,
0000
0000
0000
0000
,
0000
0000
0000
0000
,
0000
0000
0000
0000
,
1000
0000
0010
0000
0010
0000
0100
0100
,
0000
0000
0001
0000
0001
0000
1000
1000
,
0000
0010
0100
0000
,
0001
1000
0001
1000
,
0010
0000
0100
0000
0100
0000
0001
0001
,
0000
0000
1000
0000
1000
0000
0010
0010
,
0000
0100
0001
1000
,
0010
0100
0001
1000
,
0001
0000
0100
0000
0100
0000
0010
0010
,
0000
0000
1000
0000
1000
0000
0100
0100
,
0000
0010
0001
0000
,
1000
1000
1000
1000
,
0010
0000
0100
0000
0001
0000
1000
1000
,
0000
0000
0010
0000
0100
0000
0001
0001
,
0000
1000
0010
0100
,
0001
0000
0000
1000
0000
0010
0000
0100
,
0000
0000
0001
0000
1000
0000
0010
0010
,
0000
0000
0100
0000
0001
0000
0100
0100
,
0000
0000
0010
0000
1000
0000
0001
1000
,
0000
0010
0000
0100
0000
0100
0000
0000
,
0001
0000
1000
0001
0000
1000
0000
0010
,
0000
0100
0000
0001
0000
1000
0000
0010
,
0000
0000
0100
0000
0001
1000
0000
0010
,
0000
0100
0000
0010
0000
0100
0000
0000
,
0001
0000
1000
0001
0000
0100
0000
0010
,
0000
1000
0000
0001
0000
1000
0000
0001
,
0000
0000
0100
0000
0010
0000
0000
2000
,
0000
0000
0000
0000
0000
0000
0000
3000
,
0000
0010
0000
0000
0000
0000
0100
0010
,
0000
0100
0000
0000
0000
0000
0000
0000
,
0001
0000
0000
0001
0000
0000
0000
1000
,
0000
0010
0000
0000
0100
0000
0000
0001
,
0000
1000
0000
0000
0000
0000
0010
0100
,
0000
0010
0100
0000
0000
0000
0001
0000
,
1000
0000
0010
0000
0100
0010
0000
0100
,
0000
0000
0000
0000
0001
0000
1000
0001
,
0000
0101
0000
0000
0000
0000
1000
0010
,
0000
1010
0000
0000
0000
0000
0001
0000
,
0100
0000
0010
0100
0000
0001
0000
1000
,
0000
0010
0000
0000
0100
0000
0001
1000
,
0000
0110
0000
0000
0000
0000
0001
0001
,
0000
1000
1000
0000
0000
0000
0010
0000
,
0100
0000
0001
0000
1000
0010
0000
0200
,
0000
0000
0000
0000
,
0300
0000
0001
0000
0001
0000
1000
1000
,
0000
0000
0010
0000
0010
0000
0100
0100
,
0000
0001
1000
0100
,
0010
0001
0100
0010
,
1000
0000
0001
0000
0100
0000
0001
0001
,
0000
0000
1000
0000
0100
0000
0010
0010
,
0000
0001
0001
0000
,
1000
0001
1000
0010
,
0100
0000
0001
1000
0000
1001
0000
0000
;

//---------------dance-single - ----------------
#NOTES:
     dance-single:
     :
     Easy:
     3:
     0.234091,0.282748,0.011072,0.022144,0.000000,148.000000,147.000000,1.000000,2.000000,0.000000,0.000000,0.234091,0.282748,0.011072,0.022144,0.000000,148.000000,147.000000,1.000000,2.000000,0.000000,0.000000:
0000
0000
0000
0000
,
0000
0000
0000
0000
,
0000
0000
0000
0000
,
0000
0000
0000
0000
,
1000
0010
0100
0001
,
0000
1000
0010
0100
,
0000
0001
1000
0000
,
0010
0010
0010
0010
,
0000
1000
0010
0100
,
0000
0001
1000
0010
,
0000
1000
0100
0010
,
0001
0100
0010
1000
,
0001
1000
1000
0010
,
0000
0100
0100
0001
,
0000
1000
0010
0000
,
0100
0001
1000
0010
,
0000
0100
0100
0100
,
0000
0001
0001
0001
,
0000
1000
0010
1000
,
0001
0000
0000
0100
0000
0100
0000
0100
,
0000
0010
0010
0010
,
0000
1000
1000
1000
,
0000
0000
0001
0000
0100
0000
0000
0010
,
0000
0010
0000
0010
0000
0010
0000
0000
,
1000
0000
0000
0001
0000
0000
0000
1000
,
0000
0000
0000
0010
0000
0000
0000
0100
,
0000
0000
0000
0001
0000
1000
0000
0010
,
0000
0100
0000
0010
0000
0100
0000
0000
,
0001
0000
0000
0001
0000
0000
0000
0001
,
0000
0000
0000
1000
0000
0000
0000
0010
,
0000
0000
0000
0000
0100
0000
0000
0100
,
0000
0000
0000
0000
0001
0000
0000
1000
,
0000
0010
0000
0000
0000
0000
0100
0000
,
0000
0100
0000
0000
0000
0000
0000
0000
,
0001
0000
0000
0001
0000
0000
0000
1000
,
0000
1000
0000
0000
0010
0000
0000
0100
,
0000
0100
0000
0000
0000
0000
0000
0001
,
0000
1000
0000
0000
,
0010
0000
0100
0000
0001
0000
0000
1000
,
0000
0000
0010
0100
,
0001
0001
0000
1000
,
0000
0010
0000
0000
0000
0000
0000
0000
,
0100
0000
0000
0100
0000
0000
0000
0001
,
0000
0001
0000
0000
1000
0000
0010
0000
,
0000
0100
0000
0000
0000
0000
0000
0001
,
0000
1001
0000
1000
,
0100
0000
0010
0000
0001
0000
0000
2000
,
0000
0000
0000
0000
,
3000
0010
0010
0100
,
0000
0001
0001
1000
,
0000
0010
0100
0001
,
1000
0010
0100
0001
,
1000
0010
0010
0100
,
0000
0001
0001
1000
,
0000
0010
0100
0000
,
0001
0010
0100
1000
,
0020
0000
0000
0030
;

//---------------dance-single - ----------------
#NOTES:
     dance-single:
     :
     Beginner:
     1:
     0.068013,0.093004,0.000000,0.000000,0.000000,43.000000,43.000000,0.000000,0.000000,0.000000,0.000000,0.068013,0.093004,0.000000,0.000000,0.000000,43.000000,43.000000,0.000000,0.000000,0.000000,0.000000:
0000
0000
0000
0000
,
0000
0000
0000
0000
,
0000
0000
0000
0000
,
0000
0000
0000
0000
,
0000
0000
0000
0010
,
0000
0000
0000
0010
,
0000
0000
0000
0000
,
0000
0000
0000
0000
,
0000
0000
0000
0100
,
0000
0000
0000
0100
,
0000
0000
0000
0000
,
0000
0000
0000
0000
,
0000
0000
0001
0000
,
0000
0000
0001
0000
,
0000
0000
0000
0000
,
1000
0000
0000
0000
,
1000
0000
0000
0000
,
0000
0100
0000
0000
,
0000
0010
0000
0000
,
0000
0000
0000
0000
,
0000
0001
0000
0000
,
0000
0010
0000
0000
,
0000
0100
0000
0000
,
0000
0000
0000
0000
,
1000
0000
0000
0000
0000
0000
0000
1000
,
0000
0000
0000
0000
0000
0000
0000
1000
,
0000
0000
0000
0000
,
0000
0000
0000
0000
,
0001
0000
0000
0000
0000
0000
0000
0001
,
0000
0000
0000
0000
0000
0000
0000
0001
,
0000
0000
0000
0000
,
0000
0000
0000
0000
,
0000
0100
0000
0000
0000
0000
0000
0000
,
0000
0100
0000
0000
0000
0000
0000
0000
,
0010
0000
0000
0000
0000
0000
0000
0010
,
0000
0000
0000
0000
,
0000
1000
0000
0000
0000
0000
0000
0000
,
0000
1000
0000
0000
,
0001
0000
0000
0000
0000
0000
0000
0001
,
0000
0000
0000
0000
,
0000
0100
0000
0000
0000
0000
0000
0000
,
0000
0100
0000
0000
0000
0000
0000
0000
,
0010
0000
0000
0000
0000
0000
0000
0010
,
0000
0000
0000
0000
,
0000
1000
0000
0000
0000
0000
0000
0000
,
0000
1000
0000
0000
,
0001
0000
0000
0000
0000
0000
0000
0001
,
0000
0000
0000
0000
,
0100
0000
0000
0000
,
0000
0100
0000
0000
,
0000
0100
0000
0000
,
0000
0000
0000
0000
,
0010
0000
0000
0010
,
0000
0000
0000
0010
,
0000
0000
0000
0000
,
0010
0000
0000
0000
,
1000
0000
0000
0000
;
