#TITLE:オヤスミパラノイア;
#SUBTITLE:;
#ARTIST:BUD VIRGIN LOGIC;
#TITLETRANSLIT:Good Night Paranoia;
#SUBTITLETRANSLIT:;
#ARTISTTRANSLIT:;
#GENRE:;
#CREDIT:SupremeX;
#BANNER:Good Night Paranoia.png;
#BACKGROUND:Good Night Paranoia-bg.png;
#LYRICSPATH:;
#CDTITLE:CDTitle.png;
#MUSIC:Good Night Paranoia.ogg;
#OFFSET:-0.085311;
#SAMPLESTART:51.889999;
#SAMPLELENGTH:12.000000;
#SELECTABLE:YES;
#BPMS:0.000000=185.000000
;
#STOPS:
;
#BGCHANGES:32.000=wave145.avi=1.000=0=0=1=====,
48.000=symbols1.avi=1.000=0=0=1=====,
64.000=blizzard1.avi=1.000=0=0=1=====,
96.000=8 Bubble.avi=1.000=0=0=1=====,
128.000=star3.avi=1.000=0=0=1=====,
144.000=women.avi=1.000=0=0=1=====,
160.000=symbols2.avi=1.000=0=0=1=====,
173.500=blizzard1.avi=1.000=0=0=1=====,
192.000=symbols2.avi=1.000=0=0=1=====,
205.500=blizzard1.avi=1.000=0=0=1=====,
233.000=women.avi=1.000=0=0=1=====,
259.750=Good Night Paranoia-bg.png=1.000=0=0=1=====,
99999=-nosongbg-=1.000=0=0=0 // don't automatically add -songbackground-
;
#KEYSOUNDS:;
#ATTACKS:;

//---------------dance-single - ----------------
#NOTES:
     dance-single:
     :
     Hard:
     8:
     0.498531,0.615405,0.089194,0.078045,0.027873,313.000000,305.000000,8.000000,7.000000,0.000000,0.000000,0.498531,0.615405,0.089194,0.078045,0.027873,313.000000,305.000000,8.000000,7.000000,0.000000,0.000000:
0000
0000
0000
0000
,
0000
0000
0000
0000
,
0000
0000
0000
0000
,
0000
0000
0000
0000
,
0100
0001
1000
0010
,
1000
0001
0100
0001
,
1000
0000
0010
0000
1000
0000
0001
0100
,
0000
0100
0001
0000
0000
0000
1000
0010
,
1000
0100
0010
0001
1000
0100
1000
0010
,
1000
0010
0100
0001
0100
0001
0010
0100
,
1000
0010
0100
0010
1000
0100
0010
0001
,
0100
0000
0010
1000
0010
0100
0001
0000
,
1000
0100
0010
0001
1000
0100
1000
0001
,
0100
0001
1000
0010
1000
0100
0010
0000
,
0001
0010
0100
1000
0010
0100
0010
0000
,
1000
0001
1000
0010
0100
0001
1000
0000
,
0001
0000
1000
0100
0000
0100
1000
0000
,
0010
0100
0000
0100
0001
1000
0001
0000
,
0100
0000
0010
1000
0000
1000
0001
0000
,
0001
0100
0000
0100
0010
0000
0000
1000
,
0010
0000
0010
1000
0000
1000
0001
0000
,
0001
0100
0000
0100
0010
0000
0010
1000
,
0000
1000
0002
0000
0000
0000
0000
0000
,
0103
0000
0100
0000
0010
1000
0010
0000
,
0100
0000
0100
0001
0000
1000
0010
0000
,
0010
1000
0000
1000
0010
0100
0001
1000
,
0001
0000
0100
0010
0000
0010
1000
0000
,
1000
0001
0000
0001
0100
0000
0000
0000
,
0010
0000
0010
1000
0000
0001
1000
0000
,
0001
0100
0000
0100
0010
0000
0010
0000
,
1000
0100
0010
0001
,
0100
0010
1000
0001
,
0200
0000
0000
0000
0000
0310
0000
0020
,
0000
0000
0000
0000
0000
1030
0000
2000
,
0000
0000
0000
3002
0000
0000
0103
0000
,
0100
0010
1000
0001
,
1001
1000
0001
0100
,
0010
1000
0001
0010
,
0100
0000
0000
1000
0000
0000
0010
0000
0100
0000
0000
0001
0000
0000
1000
0000
,
0000
0010
0000
0000
0000
0000
0000
0000
0101
0000
0000
0000
0000
0000
0000
0000
,
0010
0000
1000
0000
0010
0000
0100
0001
,
0000
0100
0000
0010
0000
1000
0100
0010
,
0001
0100
0010
1100
,
0011
0000
0000
1000
0100
1000
0100
0010
,
0001
0000
0000
0001
0100
0010
0100
0001
,
1000
0000
0000
0001
0100
0010
0000
0010
,
1000
0000
1000
0001
0000
0001
0000
0100
,
0000
0010
0000
0110
0000
0110
0000
0000
,
1000
0000
0010
0000
0100
0000
0100
0001
,
0000
1000
0000
0001
0000
1000
0100
0010
,
0001
0100
0010
1000
,
1010
0000
0000
0001
0010
0100
1000
0010
,
1000
0000
0000
0001
0100
0001
0010
0100
,
1000
0000
0000
0010
0100
0001
1000
0000
,
0010
0100
0010
1000
,
0001
1000
0010
0100
,
0020
0000
0000
0000
0030
1000
1000
0000
,
0110
0000
0001
0000
1000
0010
0000
0010
,
0000
0100
0200
0000
0000
0000
0000
0000
,
0000
0000
0000
0300
,
0000
0001
0010
0100
1000
0010
0100
0001
,
1000
0000
0010
0100
0001
1000
0010
0100
,
0000
0001
1000
0001
0100
0010
0100
0001
,
1000
0000
0001
0100
0010
1000
0001
0100
,
0000
0000
0001
0000
1000
0000
0010
0000
0100
0000
0001
0000
0000
1000
0001
1000
;

//---------------dance-single - ----------------
#NOTES:
     dance-single:
     :
     Medium:
     5:
     0.371111,0.470151,0.066896,0.055746,0.000000,233.000000,227.000000,6.000000,5.000000,0.000000,0.000000,0.371111,0.470151,0.066896,0.055746,0.000000,233.000000,227.000000,6.000000,5.000000,0.000000,0.000000:
0000
0000
0000
0000
,
0000
0000
0000
0000
,
0000
0000
0000
0000
,
0000
0000
0000
0000
,
0001
0100
0010
1000
,
0001
0100
0001
1000
,
0010
0100
0001
2000
,
0000
0000
0000
3000
,
0001
0000
0100
0000
0010
0000
1000
0001
,
1000
0000
0010
0000
0100
0000
0001
0100
,
0010
0010
1000
0001
,
0001
0000
1000
0100
1000
0100
1000
0000
,
0001
0000
0010
0000
0100
0000
1000
0010
,
1000
0000
0100
0000
0010
0000
0001
0100
,
0001
1000
0010
0100
,
0001
1000
0010
0100
,
0001
0000
0000
1000
0000
0000
0010
0000
,
0000
1000
0000
0001
1000
0001
1000
0000
,
0010
0000
0000
0100
0000
0000
0001
0000
,
0000
1000
0000
0010
1000
0000
0000
0000
,
0001
0000
0000
0100
0000
0000
0010
0000
,
0000
1000
0000
0000
0010
0000
1000
0000
,
0001
0100
0010
1000
,
0001
0100
0100
0100
,
0001
0000
1000
0010
0000
0100
0001
0000
,
1000
0010
0000
0000
0100
0000
0001
0000
,
1000
0000
0001
0100
0000
0100
0010
0000
,
0000
1000
0001
0000
0001
1000
0000
0000
,
0010
0000
0010
0100
0000
0100
0001
0000
,
0001
1000
0000
1000
0001
0000
0100
0000
,
0010
1000
0001
1000
,
0010
0100
0001
1000
,
0020
0000
0000
0000
0000
0030
0000
0200
,
0000
0000
0000
0000
0300
0000
0000
0001
,
0000
0000
0000
1000
0000
0000
0010
0000
,
0100
0001
0100
0010
,
1000
0100
0010
0001
,
0100
0010
1000
0001
,
0100
0000
1001
0000
,
1010
0000
0101
0000
,
1000
0000
0100
0000
0010
0000
0001
0100
,
0000
0010
0000
1000
0000
0100
1000
0000
,
1000
0010
0010
0100
,
0001
0000
1000
1000
,
0010
0000
0100
0100
,
0001
0000
1000
0100
,
0010
0000
0001
0100
0000
0100
0000
0010
,
0000
0010
0000
1000
0000
1000
0000
0000
,
0001
0000
0010
0000
0100
0000
1000
0010
,
0000
0010
0000
0100
0000
0100
0001
0000
,
0001
1000
0010
0100
,
0100
0000
0001
1000
,
1001
0000
0100
0010
,
0110
0000
0001
0010
,
0100
1000
0001
0100
,
0001
1000
0010
1000
,
0002
0000
0000
0000
0000
0003
0000
0000
,
1000
0000
0000
0000
0010
0100
0000
0001
,
0000
0200
0000
0000
,
0000
0000
0000
0000
0000
0000
0000
0300
,
0000
0001
0000
1000
0000
0010
0000
1000
,
0001
0000
0100
0010
0100
0010
0100
0010
,
0000
0100
0000
0000
0001
1000
0000
1000
,
0001
0000
0100
0010
1000
0001
0100
0010
,
0000
1000
0000
0001
0000
1000
0000
1100
;

//---------------dance-single - ----------------
#NOTES:
     dance-single:
     :
     Easy:
     3:
     0.289881,0.325489,0.044597,0.044597,0.000000,182.000000,178.000000,4.000000,4.000000,0.000000,0.000000,0.289881,0.325489,0.044597,0.044597,0.000000,182.000000,178.000000,4.000000,4.000000,0.000000,0.000000:
0000
0000
0000
0000
,
0000
0000
0000
0000
,
0000
0000
0000
0000
,
0000
0000
0000
0000
,
0001
0010
0100
1000
,
0010
0100
0001
1000
,
0100
0010
0001
1000
,
0000
0010
0000
0000
,
1000
0010
0100
0001
,
1000
0010
0100
0000
,
0001
0001
1000
1000
,
0010
0000
0100
0100
,
0001
0010
0100
1000
,
0010
0100
0010
0000
,
1000
0001
1000
0010
,
0100
0100
0100
0000
,
0001
0000
0000
1000
0000
0000
0001
0000
,
0000
1000
0000
0000
0010
0000
0010
0000
,
0100
0000
0000
0100
0000
0000
0100
0000
,
0000
0001
0000
0000
0001
0000
0000
0000
,
1000
0000
0000
0010
0000
0000
0100
0000
,
0000
0001
0000
0000
1000
0000
0000
0010
,
0000
0010
0000
0000
,
1000
0000
1000
0000
,
0001
0100
0010
1000
,
0001
0100
0010
0010
,
1000
0100
0010
0001
,
0000
1000
0000
0000
1000
0000
0000
0000
,
0010
0000
0000
0100
0000
0000
0001
0000
,
0000
1000
0000
0000
0010
0000
0010
0000
,
0100
0001
1000
0010
,
0100
0001
1000
0010
,
0100
0000
0000
0001
,
0001
0000
0000
1000
,
0010
0000
0000
1000
0000
0000
0000
0000
,
0001
0100
0001
1000
,
0010
0000
0000
0000
,
1000
0000
0000
1000
0000
0000
1000
0000
,
0010
0000
0100
0000
,
1001
0000
1001
0000
,
0100
0000
0010
0000
1000
0000
0000
0001
,
0000
0001
0000
0001
0000
0000
0000
0000
,
0100
0010
1000
0001
,
1000
0000
0010
0100
,
0010
0000
1000
0001
,
1000
0000
0010
0100
,
0001
0000
0000
0000
1000
0000
0000
0010
,
0000
0100
0000
0001
0000
0100
0000
0000
,
0010
1000
0010
0100
,
0001
1000
0000
0010
,
0100
0010
1000
0001
,
0100
0000
0010
0010
,
0010
0000
1000
1000
,
1000
0000
0001
0001
,
0001
0100
0010
1000
,
0001
0000
1000
0000
,
2002
0000
0000
0000
0000
3003
0000
0000
,
0100
0000
0000
0000
0010
0000
0000
1000
,
0000
0220
0000
0000
,
0000
0000
0000
0330
,
0000
0001
0000
0000
1000
0000
0000
0001
,
0000
0000
0000
0100
0000
0100
0000
0100
,
0000
0010
0000
0000
1000
0000
0000
0010
,
0000
0000
0000
0100
0000
0100
0000
0100
,
0000
0001
0000
0000
1000
0000
0000
0010
;

//---------------dance-single - Copied from----------------
#NOTES:
     dance-single:
     Copied from:
     Beginner:
     1:
     0.092380,0.179782,0.000000,0.000000,0.000000,58.000000,58.000000,0.000000,0.000000,0.000000,0.000000,0.092380,0.179782,0.000000,0.000000,0.000000,58.000000,58.000000,0.000000,0.000000,0.000000,0.000000:
0000
0000
0000
0000
,
0000
0000
0000
0000
,
0000
0000
0000
0000
,
0000
0000
0000
0000
,
0010
0000
0000
0000
,
0000
0000
0010
0000
,
0000
0000
0000
0000
,
0010
0000
0000
0000
,
1000
0000
0000
0000
,
1000
0000
0000
0000
,
1000
0000
0000
0000
,
1000
0000
0000
0000
,
0001
0000
0000
0000
,
0001
0000
0000
0000
,
0001
0000
0000
0000
,
0001
0000
0000
0000
,
0100
0000
0000
0000
,
0000
0000
0100
0000
,
0100
0000
0000
0000
,
0000
0000
0100
0000
,
0100
0000
0000
0000
,
0000
0000
0000
0000
0000
0000
0000
0100
,
0000
0000
0000
0000
,
0000
0000
0000
0000
,
0010
0000
0000
0000
,
0000
0000
0000
0010
,
0010
0000
0000
0000
,
0000
0000
0000
0000
,
0010
0000
0000
0000
,
0000
0000
0000
0000
,
0010
0000
0100
0000
,
0001
0000
1000
0000
,
0010
0000
0000
0000
0000
0000
0000
0100
,
0000
0000
0000
0000
0000
0000
0000
0010
,
0000
0000
0000
0000
,
1000
0000
0000
0000
,
0001
0000
0000
0000
,
1000
0000
0000
0000
,
0001
0000
0000
0000
,
0100
0000
0000
0000
,
0010
0000
0000
0000
,
0000
0000
0000
0000
,
0010
0000
0000
0000
,
0000
0000
0010
0000
,
0000
0000
1000
0000
,
0000
0000
0001
0000
,
0000
0000
0000
0000
0000
0000
0000
1000
,
0000
0000
0000
0001
0000
0000
0000
0000
,
0100
0000
0000
0000
,
0010
0000
0000
0000
,
0100
0000
0000
0000
,
0010
0000
0000
0000
,
0100
0000
0000
0000
,
0010
0000
0000
0000
,
0100
0000
0000
0000
,
0010
0000
0100
0000
,
0010
0000
0000
0000
,
0000
0000
0000
0000
0000
0000
0000
1000
,
0000
0001
0000
0000
,
0000
0000
0000
0000
,
0000
1000
0000
0000
0001
0000
0000
0000
,
0000
0000
0000
0000
,
0000
1000
0000
0000
0001
0000
0000
0000
,
0000
0000
0000
0000
,
0000
1000
0000
0000
0001
0000
0000
0000
;
