#TITLE:GOT TO GET IT ON;
#SUBTITLE:;
#ARTIST:KATARINA;
#TITLETRANSLIT:;
#SUBTITLETRANSLIT:;
#ARTISTTRANSLIT:;
#CREDIT:SupremeX;
#BANNER:GOT TO GET IT ON-bn.png;
#BACKGROUND:GOT TO GET IT ON-bg.png;
#LYRICSPATH:;
#CDTITLE:CDTitle.png;
#MUSIC:GOT TO GET IT ON.ogg;
#OFFSET:-0.189;
#SAMPLESTART:44.730;
#SAMPLELENGTH:12.000;
#SELECTABLE:YES;
#BPMS:0.000=139.900;
#STOPS:;
#BGCHANGES:16.500=highway2.avi=1.000=0=0=1,
32.000=highway1.avi=1.000=0=0=1,
48.000=circle9.avi=1.000=0=0=1,
63.500=highway1.avi=1.000=0=0=1,
80.000=circle9.avi=1.000=0=0=1,
96.000=warp.avi=1.000=0=0=1,
104.000=gradius1.avi=1.000=0=0=1,
120.000=DanceOff_P1.avi=1.000=0=0=1,
140.000=warp.avi=1.000=0=0=1,
156.000=highway2.avi=1.000=0=0=1,
172.000=warp.avi=1.000=0=0=1,
188.000=highway2.avi=1.000=0=0=1,
204.000=gradius1.avi=1.000=0=0=1,
209.000=GOT TO GET IT ON-bg.png=1.000=0=0=1,
99999=-nosongbg-=1.000=0=0=0 // don't automatically add -songbackground-
;

//---------------dance-single - ----------------
#NOTES:
     dance-single:
     :
     Hard:
     8:
     0.492,0.559,0.107,0.235,0.225: // measure 1
0000
0000
0000
0000
,  // measure 2
0000
0000
0000
0000
,  // measure 3
0000
0000
0000
0000
,  // measure 4
0000
0000
0000
0000
,  // measure 5
0000
0000
1000
0000
0100
0000
0010
0000
0001
0000
0000
0100
0000
0010
0100
0000
,  // measure 6
0000
0001
1000
0010
1000
0000
0001
0001
,  // measure 7
1000
0000
0010
0000
0100
0000
0010
0000
1000
0000
0000
0100
0000
1000
0100
0000
,  // measure 8
0000
0000
0010
0000
0001
0000
0010
0000
0100
1000
0100
0010
0001
0010
0100
1000
,  // measure 9
0100
0000
1000
1000
1000
0000
0001
0001
,  // measure 10
0001
0000
0100
0100
0100
0000
0010
0010
,  // measure 11
0010
0000
1000
0000
0001
0000
1000
0010
,  // measure 12
0200
0000
0010
0000
0010
0000
0310
0010
,  // measure 13
0100
0000
0001
0010
0100
0000
1000
0100
,  // measure 14
0010
0000
0001
0000
0001
0000
1000
0100
,  // measure 15
2000
0000
0100
0000
0100
0100
3100
0000
,  // measure 16
1000
0000
1000
0000
0010
0010
0010
0100
,  // measure 17
0001
0000
1000
0100
1000
0000
0001
0100
,  // measure 18
0001
0000
1000
0100
0010
0000
0001
0010
,  // measure 19
0200
0000
1000
0000
1000
0300
1000
0100
,  // measure 20
0020
0000
0001
0000
0031
0000
1000
0100
,  // measure 21
1000
0000
0100
0010
0001
0000
0010
0100
,  // measure 22
1000
0000
0100
0000
0100
0000
1000
0002
,  // measure 23
0100
0000
0100
0000
0103
0100
0100
0001
,  // measure 24
0010
0000
0010
0000
0001
0010
0100
1000
,  // measure 25
0010
0000
0000
0100
0000
0000
0010
0000
0000
1000
0000
0000
0100
0000
0100
0000
,  // measure 26
1000
0100
1000
0000
0100
0000
0000
0010
0000
0000
0001
0000
0010
0000
0100
0000
,  // measure 27
1000
0000
0100
0000
0200
0000
0000
1300
0000
0000
0000
0000
0200
0000
0000
0310
,  // measure 28
0000
0001
0101
1001
,  // measure 29
1000
0000
0100
0000
2000
0000
0000
3100
0000
0000
1000
0000
0100
0000
0010
0000
,  // measure 30
0001
0000
0000
1000
0000
0000
0100
0000
0020
0000
0000
0000
0130
0000
0000
0000
,  // measure 31
0100
0000
0001
0000
0010
0000
0100
0020
0000
0030
0000
0000
0001
0000
0010
0200
,  // measure 32
0000
0300
0000
0000
1000
0000
0000
0000
1100
0000
0000
0000
0110
0000
0000
0000
,  // measure 33
0001
0000
0010
0000
0100
0000
1000
0200
0000
0300
1000
0000
0100
0000
0010
0000
,  // measure 34
0001
0000
0000
1000
0000
0000
0100
0000
2000
0000
0000
0000
3100
0000
0000
0000
,  // measure 35
0001
0000
0100
0000
0001
0000
1000
0200
0000
0300
0000
0000
1000
0000
0100
0020
,  // measure 36
0000
0030
0000
0000
0011
0000
0000
0000
0110
0000
0000
0000
1100
0000
0000
0000
,  // measure 37
0010
0000
0001
0000
0010
0000
0100
2000
0000
3000
0100
0000
0100
0000
0010
0000
,  // measure 38
0001
0000
0000
0100
0000
0000
0001
0000
0020
0000
0000
0000
0031
0000
0000
0000
,  // measure 39
0010
0000
0100
0000
1000
0000
0010
2000
0000
3000
0000
0000
0100
0000
0010
0002
,  // measure 40
0000
0003
0000
0000
0011
0000
0000
0000
0110
0000
0000
0000
1100
0000
0000
0000
,  // measure 41
0100
0000
1000
0000
0100
0000
1000
0020
0000
0030
1000
0000
0001
0000
0100
0000
,  // measure 42
0010
0000
0000
0010
0000
0000
0100
0000
0002
0000
0000
0000
1003
0000
0000
0000
,  // measure 43
0100
0000
1000
0000
0100
0000
0010
0000
0100
0000
0000
1000
0000
0100
1000
0000
,  // measure 44
0000
0100
0010
0001
0010
0000
0100
0100
,  // measure 45
1000
0000
0100
0000
0010
0000
0001
0000
0010
0000
0000
0100
0000
1000
0100
0000
,  // measure 46
0000
0000
1000
0000
0010
0000
0100
0000
0001
1000
0010
0100
0010
1000
0001
0000
,  // measure 47
0000
0000
1000
0000
0100
0000
1000
0000
0001
0000
0000
0100
0000
0010
0100
0000
,  // measure 48
0000
0010
1000
0100
0010
0000
0001
0001
,  // measure 49
0000
0000
1000
0000
0100
0000
1000
0000
0100
0000
0000
0010
0000
0001
0010
0000
,  // measure 50
0000
0000
0100
0000
1000
0000
0100
0000
0010
0001
0010
0100
1000
0100
2000
0000
,  // measure 51
0000
0000
0000
0000
,  // measure 52
0000
0000
0000
0000
,  // measure 53
0000
3000
0000
0000
;

//---------------dance-single - ----------------
#NOTES:
     dance-single:
     :
     Medium:
     5:
     0.293,0.335,0.160,0.075,0.000:
0000
0000
0000
0000
,
0000
0000
0000
0000
,
0000
0000
0000
0000
,
0000
0000
0000
0000
,
0000
1000
0010
1000
,
0001
0000
0100
0010
0100
0000
0001
0000
,
0001
1000
0010
1000
,
0001
0000
0100
0000
0010
0000
0100
0100
,
0100
0001
1000
0001
,
1000
0010
0100
0010
,
0200
0000
0300
0000
,
0001
0000
1001
1001
,
0010
0100
0010
0100
,
0010
0000
1000
0000
1000
0000
0001
0100
,
0000
0000
0010
0000
0010
0000
1000
1000
,
0000
0000
0001
0000
0100
0000
0010
0010
,
0000
1000
1000
0001
,
0001
1000
1000
0001
,
0001
0000
0000
0100
,
0010
0000
0100
0000
0010
0000
0100
0010
,
0100
0001
0001
1000
,
1000
0001
0001
1000
,
1000
0000
0010
0000
0100
0000
0001
0001
,
0000
0000
1000
0000
0010
0000
0100
0100
,
0000
0000
0000
0000
,
2002
0000
0000
3003
,
0010
0100
0010
0100
,
0010
0110
0110
0110
,
0001
1000
0001
1000
,
0001
0010
0100
1000
,
0010
0100
0010
0100
,
0010
0110
0110
0110
,
0001
0010
0100
1000
,
0100
0010
0001
0001
,
1000
0010
1000
0010
,
1000
0101
1010
0101
,
0001
0010
0100
1000
,
0010
0100
1001
1001
,
0010
0100
0010
0100
,
0010
1000
0001
1001
,
0010
0100
0010
0100
,
0020
0000
0230
0000
,
0320
0000
0000
0000
,
0030
1000
1000
0001
,
0000
0100
0010
1000
,
0001
0010
0100
1000
,
0000
0000
0001
0100
0001
0000
1000
0000
,
1000
0000
0010
0000
0100
0000
0001
0001
,
0000
0000
1000
0010
1000
0000
0001
0000
,
0010
0000
0100
0000
1000
0000
0010
0100
,
0020
0000
0000
0000
,
0000
0000
0000
0000
,
0000
0030
0000
0000
;

//---------------dance-single - ----------------
#NOTES:
     dance-single:
     :
     Easy:
     3:
     0.220,0.279,0.011,0.032,0.000:
0000
0000
0000
0000
,
0000
0000
0000
0000
,
0000
0000
0000
0000
,
0000
0000
0000
0000
,
0000
1000
1000
0010
,
0000
0001
0001
0100
,
0000
0010
0010
0100
,
0000
0010
0010
1000
,
0001
0000
1000
0000
,
0001
0000
1000
0001
,
1000
0000
0000
0010
,
0100
0010
0100
0100
,
0001
0000
1000
0000
,
0001
0000
1000
0010
,
1000
0001
0001
0001
,
0000
1000
1000
1000
,
0000
0001
0100
0001
,
0100
0010
1000
0010
,
1000
0000
0000
0001
,
0010
0000
0100
0100
,
1000
0010
0100
0010
,
0100
0001
0010
0100
,
1000
0010
0100
0100
,
0000
0001
0100
0100
,
0020
0000
0000
0000
,
0000
0000
0000
0030
,
1000
1000
1000
1000
,
1000
0001
0001
0001
,
0100
0100
0100
0100
,
0100
0000
0010
0000
,
1000
1000
1000
1000
,
1000
0001
0001
0001
,
0100
0100
0100
0100
,
0010
0000
0010
0000
,
1000
0000
0001
0000
,
1000
0001
1000
0001
,
0100
0000
0010
0000
,
0100
0010
0100
0000
,
0001
0000
1000
0000
,
0001
1000
0001
0000
,
0100
0000
0010
0000
,
0100
0010
0100
0000
,
0001
0001
0001
0000
,
0000
1000
1000
1000
,
0000
0010
0010
0010
,
0000
0100
0100
0100
,
0000
0001
1000
0010
,
0100
0001
1000
0010
,
0100
0001
1000
0010
,
0100
0001
1000
0001
,
2002
0000
0000
0000
,
0000
0000
0000
0000
,
0000
3003
0000
0000
;

//---------------dance-single - Copied from----------------
#NOTES:
     dance-single:
     Copied from:
     Beginner:
     1:
     0.047,0.080,0.011,0.000,0.000:
0000
0000
0000
0000
,
0000
0000
0000
0000
,
0000
0000
0000
0000
,
0000
0000
0000
0000
,
0000
1000
0000
0000
,
0000
0000
0001
0000
,
0000
0000
1000
0000
,
0000
0000
0001
0000
,
0000
0000
0100
0000
,
0000
0000
0000
0000
,
0010
0000
0000
0000
,
0000
0000
0000
0000
,
0000
0100
0000
0000
,
0000
0010
0000
0000
,
0000
0000
0000
1000
,
0000
0000
0000
0001
,
0000
0000
0100
0000
,
0000
0000
0000
0000
,
0010
0000
0000
0000
,
1000
0000
0000
0000
,
0000
0010
0000
0000
,
0000
0000
0100
0000
,
0000
0000
0000
0010
,
0000
0000
0000
0100
,
0000
0000
0000
0000
,
0000
0000
0000
0000
,
0001
0000
0000
0000
,
0000
0000
0000
0000
,
0001
0000
0000
0000
,
0000
0000
0000
0000
,
1000
0000
0000
0000
,
0000
0000
0000
0000
,
1000
0000
0000
0000
,
0000
0000
0000
0000
,
0010
0000
0000
0000
,
0000
0000
0000
0000
,
0010
0000
0000
0000
,
0000
0000
0000
0000
,
0100
0000
0000
0000
,
0000
0000
0000
0000
,
0100
0000
0000
0000
,
0000
0000
0000
0000
,
0001
0000
0000
0000
,
0000
0000
0000
0000
,
1000
0000
0000
0000
,
0000
0000
0000
0000
,
0001
0000
0000
0000
,
0000
0000
0000
0000
,
1000
0000
0000
0000
,
0000
0000
0000
0000
,
1001
0000
0000
0000
;
