#TITLE:Flame Up (Remix Ver.);
#SUBTITLE:;
#ARTIST:inu machine;
#TITLETRANSLIT:;
#SUBTITLETRANSLIT:;
#ARTISTTRANSLIT:;
#CREDIT:SupremeX;
#BANNER:Flame Up (Remix Ver.).png;
#BACKGROUND:Flame Up (Remix Ver.)-bg.png;
#LYRICSPATH:;
#CDTITLE:CDTitle.png;
#MUSIC:Flame Up (Remix Ver.).ogg;
#OFFSET:-3.410;
#SAMPLESTART:100.000;
#SAMPLELENGTH:12.000;
#SELECTABLE:YES;
#BPMS:0.000=138.000;
#STOPS:;
#BGCHANGES:1.000=5 JumpBack_1.avi=1.000=0=0=1,
17.000=balloon1.avi=1.000=0=0=1,
33.000=4 JumpBack.avi=1.000=0=0=1,
65.000=ferriswheel1.avi=1.000=0=0=1,
92.500=Flame Up (Remix Ver.)-bg.png=1.000=0=0=1,
97.000=cloud00.avi=1.000=0=0=1,
129.000=break.avi=1.000=0=0=1,
193.000=DanceOff_P2.avi=1.000=0=0=1,
225.000=balloon1.avi=1.000=0=0=1,
257.000=cloud00.avi=1.000=0=0=1,
271.000=Flame Up (Remix Ver.)-bg.png=1.000=0=0=1,
99999=-nosongbg-=1.000=0=0=0 // don't automatically add -songbackground-
;

//---------------dance-single - ----------------
#NOTES:
     dance-single:
     :
     Hard:
     7:
     0.380,0.462,0.064,0.281,0.016: // measure 1
0000
1000
0100
1000
,  // measure 2
0010
0100
0010
0000
0010
0000
0010
0000
,  // measure 3
1000
0001
1000
0000
0100
0000
0100
0000
,  // measure 4
0010
0001
0010
0000
0100
0000
1000
0010
,  // measure 5
0100
0001
1000
0000
0010
0000
0010
0000
,  // measure 6
1000
0100
1000
0000
1000
0000
1000
0000
,  // measure 7
0001
0010
0001
0000
0001
0000
0001
0000
,  // measure 8
0100
0010
0100
0000
0100
0000
0100
0010
,  // measure 9
1000
0010
0100
0000
0001
0000
0010
0000
,  // measure 10
0100
1000
0100
0000
0010
0000
0001
0000
,  // measure 11
0100
0010
0100
0000
0001
0000
0001
0000
,  // measure 12
0010
0000
0100
0000
1000
0000
0000
0000
0010
0000
0000
0000
1000
0000
0000
0100
,  // measure 13
0000
1000
0002
0000
0000
0000
0003
0000
,  // measure 14
1000
0000
0100
0000
1000
0000
0000
0000
1000
0000
0100
0000
0010
0000
0000
0001
,  // measure 15
0000
0100
0010
0000
0010
0000
0010
0000
,  // measure 16
0100
0001
0100
0000
0100
0000
0100
0010
,  // measure 17
1000
0010
1000
0000
1000
0000
0010
0000
,  // measure 18
0100
0001
0100
0000
0010
0000
0100
0000
,  // measure 19
1000
1000
0000
0200
0000
0000
0000
0000
,  // measure 20
0010
0000
0310
0000
0000
0000
0000
0000
0001
0000
0000
0000
0001
0000
0000
0010
,  // measure 21
0000
0100
2000
0000
0000
0000
0000
0000
,  // measure 22
0100
0000
3100
0000
0000
0000
0000
0000
0000
0000
0010
0000
0001
0000
0000
0001
,  // measure 23
0000
0100
0200
0000
0000
0000
0000
0000
,  // measure 24
0010
0320
0000
0000
,  // measure 25
0000
1030
1000
1000
,  // measure 26
1000
0001
0001
0001
,  // measure 27
0001
0100
0100
0100
,  // measure 28
0100
0010
0010
0010
,  // measure 29
0010
0000
1000
0100
1000
0100
1000
0100
,  // measure 30
0010
0001
0010
0100
1000
0100
1000
0100
,  // measure 31
0010
0001
0010
0100
1000
0100
0010
0001
,  // measure 32
0010
0100
0000
1100
0000
0011
1000
0100
,  // measure 33
0010
0001
2000
0000
0000
0000
3100
0000
,  // measure 34
0000
0000
0200
0000
0000
0010
0310
0000
,  // measure 35
0002
0000
0003
2000
0000
0000
3100
0000
,  // measure 36
0020
0000
0030
0001
0000
0001
2000
0000
,  // measure 37
0000
3020
0000
0130
,  // measure 38
0001
0000
0002
0000
0000
0010
0013
0000
,  // measure 39
0001
0000
0010
0010
0000
0100
0100
2000
,  // measure 40
0000
0000
3200
0000
0310
0100
0010
0100
,  // measure 41
0000
0000
0001
0002
0000
0000
0103
0000
,  // measure 42
0100
0000
0002
0000
0000
1003
0100
1000
,  // measure 43
0020
0000
0000
0130
0000
0000
0110
0000
,  // measure 44
0002
0000
2003
0000
3000
0100
0200
0000
,  // measure 45
0000
0000
0000
0310
0000
0000
1001
0000
,  // measure 46
0000
0020
0000
0130
,  // measure 47
0100
0000
0010
0020
0000
0000
0031
0000
,  // measure 48
0000
0000
0000
1000
0100
1000
0100
1000
,  // measure 49
0100
0000
0020
0000
0000
0032
0000
0000
,  // measure 50
2003
0000
3100
0000
1000
0100
1000
0000
,  // measure 51
0001
0000
0200
0000
0000
0320
0000
0000
,  // measure 52
2030
0000
0100
0000
3100
1000
0100
0000
,  // measure 53
0010
0020
0000
0032
,  // measure 54
0000
0203
0310
0010
,  // measure 55
1000
0100
0100
0010
,  // measure 56
0010
0001
0001
0100
,  // measure 57
0100
0010
0010
0010
,  // measure 58
0010
0000
1000
0000
1000
0100
1000
0000
,  // measure 59
0001
0000
1000
0000
0001
0100
0000
0100
,  // measure 60
0010
0000
0010
0000
1000
0100
1000
0000
,  // measure 61
0100
0000
0010
0100
0010
0100
0001
0100
,  // measure 62
0001
1000
0001
0010
0100
1000
0100
0010
,  // measure 63
0001
0100
0020
0000
0000
0000
0000
0000
,  // measure 64
0030
0000
0000
2000
0000
0200
0000
3300
,  // measure 65
0000
0101
0000
0001
,  // measure 66
0000
0000
0000
0000
0000
1000
1100
0000
,  // measure 67
0000
0100
0000
0011
,  // measure 68
0000
0000
1000
1001
;

//---------------dance-single - ----------------
#NOTES:
     dance-single:
     :
     Easy:
     2:
     0.161,0.244,0.000,0.016,0.000:
0000
0010
0000
0000
,
0000
0010
0000
0000
,
0000
0100
0000
0000
,
0000
0100
0000
0000
,
0000
0001
0000
0000
,
0000
0001
0000
0000
,
0000
1000
0000
0000
,
0000
1000
0000
0000
,
0000
0010
0000
0000
,
0000
0010
0000
0000
,
0000
0100
0000
0000
,
0000
0100
0000
0000
,
0000
0001
0000
0000
,
0000
0001
0000
0000
,
0000
1000
0000
0000
,
0000
1000
0000
0000
,
0000
0010
0000
0100
,
0000
0010
0000
0100
,
0000
0010
0000
0100
,
0000
0001
0000
1000
,
0000
0001
0000
0100
,
0000
0001
0000
1000
,
0000
0010
0000
0100
,
0000
0100
0000
0000
,
0000
0001
0001
0001
,
0001
0001
0010
0010
,
0010
0010
0100
0100
,
0100
0100
1000
1000
,
1000
0010
0100
0010
,
0100
0001
1000
0001
,
1000
0001
0100
0010
,
0100
0020
0000
0000
,
0030
1000
0000
0010
,
0000
1000
0000
0010
,
0000
0100
0000
0001
,
0000
0100
0000
0001
,
0000
0100
0000
0010
,
0000
1000
0000
0010
,
0000
1000
0000
0010
,
0000
0100
0000
0100
,
0000
0001
0000
0001
,
0000
1000
0000
1000
,
0000
0010
0000
0010
,
0000
0100
0000
0100
,
0000
0001
0000
0001
,
0000
1000
0000
1000
,
0000
0010
0000
0010
,
0000
0100
0000
0001
,
0000
0000
1000
0000
0000
1000
0000
0000
,
1000
0010
0010
0010
,
0010
0000
0100
0000
0000
0100
0000
0000
,
0100
0001
0001
0001
,
0001
1000
0000
1000
,
0000
1000
0100
0010
,
0001
0100
0010
0100
,
0001
0001
1000
1000
,
0000
0000
0010
0000
0000
0100
0000
0000
,
0001
0000
0000
1000
,
1000
0000
0010
0000
0000
0100
0000
0000
,
0001
0000
0000
0100
,
0100
0010
0000
0010
,
0000
1000
0000
1000
,
0000
0002
0000
0000
,
0000
0003
0000
0000
,
0000
0100
0000
0010
,
0000
0000
0000
1000
,
0000
0000
0000
0001
,
0000
0000
0000
0100
;

//---------------dance-single - Copied from----------------
#NOTES:
     dance-single:
     Copied from:
     Beginner:
     1:
     0.055,0.054,0.000,0.000,0.000:
0000
0000
0000
0000
,
0000
0000
0000
0000
,
0000
0000
0000
0000
,
0000
0000
0000
0000
,
0000
0010
0000
0000
,
0000
0000
0000
0000
,
0000
0010
0000
0000
,
0000
0000
0000
0000
,
0000
0100
0000
0000
,
0000
0000
0000
0000
,
0000
0100
0000
0000
,
0000
0000
0000
0000
,
0000
0001
0000
0000
,
0000
0000
0000
0000
,
0000
0001
0000
0000
,
0000
0000
0000
0000
,
0000
1000
0000
0000
,
0000
0000
0000
0000
,
0000
1000
0000
0000
,
0000
0000
0000
0000
,
0000
0010
0000
0000
,
0000
0000
0000
0000
,
0000
0010
0000
0000
,
0000
0000
0000
0000
,
0000
0100
0000
0000
,
0000
0000
0000
0100
0000
0000
0000
0000
,
0000
0000
0000
0100
0000
0000
0000
0000
,
0000
0000
0000
0100
0000
0000
0000
0000
,
0000
0000
0000
0010
0000
0000
0000
0000
,
0000
0000
0000
0010
0000
0000
0000
0000
,
0000
0000
0000
0010
0000
0000
0000
0000
,
0000
1000
0000
0000
,
0000
0001
0000
0000
,
0000
0000
0000
0000
,
0000
0001
0000
0000
,
0000
0000
0000
0100
,
0000
0000
0000
0100
,
0000
0000
0000
0100
,
0000
0000
0000
0100
,
0000
0000
0000
0010
,
0000
0000
0000
0010
,
0000
0000
0000
0010
,
0000
0000
0000
0010
,
0000
0000
0000
1000
,
0000
0000
0000
1000
,
0000
0000
0000
1000
,
0000
0000
0000
1000
,
0000
0000
0000
0001
,
0000
0000
0000
0000
,
0000
0001
0000
0000
,
0000
0001
0000
0000
,
0000
0000
0000
0001
,
0000
0100
0000
0000
,
0000
0100
0000
0000
,
0000
0100
0000
0000
,
0000
0100
0000
0000
,
0000
0010
0000
0000
,
0000
0000
0000
0000
,
0000
0010
0000
0000
,
0000
0000
0000
0000
,
0000
0010
0000
0000
,
0000
0000
0000
0010
,
0000
0000
0000
0000
,
0000
1000
0000
0000
,
0000
1000
0000
0000
,
0000
0000
0000
1000
,
0000
0000
0000
0001
;

//---------------dance-single - ----------------
#NOTES:
     dance-single:
     :
     Medium:
     5:
     0.266,0.244,0.032,0.160,0.012:
0000
1000
0010
1000
,
0001
0100
0001
0100
,
0010
1000
0010
1000
,
0001
0100
0010
0100
,
0001
1000
1000
0010
,
0010
0100
0100
0001
,
0001
1000
1000
0010
,
0010
0100
0100
0001
,
0001
1000
0010
0100
,
0001
1000
0010
0100
,
0001
1000
2000
0000
,
0000
0000
0000
0000
0000
0000
3000
0000
0000
0000
0000
0000
1000
0000
0000
0100
,
0000
0010
0002
0000
0000
0000
0003
0000
,
0000
1000
0000
0001
,
0100
0020
0000
0000
,
0000
0000
0000
0030
0000
0000
0000
0000
,
0000
1000
0100
1000
,
0001
0100
0001
1000
,
0001
0100
0000
0200
0000
0000
0000
0000
,
0000
0000
0300
0000
0000
0000
0000
0000
0000
0000
0000
0000
0001
0000
0000
0010
,
0000
0100
2000
0000
0000
0000
0000
0000
,
0000
0000
3000
0000
0000
0000
0000
0000
0000
0000
0000
0000
0100
0000
0000
0010
,
0000
0001
0002
0000
0000
0000
0000
0000
,
0103
0100
0000
0000
0000
0000
0000
0000
,
0000
0010
0010
0010
,
0010
1000
1000
1000
,
1000
0001
0001
0001
,
0001
0100
0010
1000
,
0001
0100
0010
1000
,
0100
0010
0001
0100
,
0010
1000
0001
0100
,
0010
1000
0100
0010
,
0001
2000
0000
3001
,
0000
0002
0000
0013
,
0100
0000
0000
2000
0000
0000
3100
0000
,
0010
0000
0000
0001
0000
0001
0200
0000
,
0000
0320
0000
1030
,
0000
1000
0000
0002
0000
0000
0003
0000
,
0001
0000
0010
0010
0000
0100
0100
0000
,
0000
1000
1000
0010
,
0000
0200
0000
0301
,
0100
0002
0000
1003
,
0000
0020
0000
1030
0000
0000
1000
0000
,
0000
0001
0010
0200
,
0000
0000
0000
1300
0000
0000
1000
0000
,
0000
0020
0000
0130
,
0100
0000
0000
0001
0000
0000
1000
0000
,
0000
0000
0000
0001
0000
0001
0000
1000
,
0000
0000
0100
0000
0000
0010
0000
0000
,
0001
0100
0100
0100
,
0010
0000
0010
0000
0000
1000
0000
0000
,
0001
0100
0100
0100
,
0010
1000
0000
0100
,
0000
0010
0001
0001
,
0100
0010
0010
1000
,
1000
0100
0100
0010
,
0010
0001
0001
0001
,
0001
0100
0100
0100
,
0010
1000
0010
0100
,
0001
0001
0010
0100
,
1000
0010
0010
0100
,
0100
0001
0001
1000
,
0010
2000
0000
0000
,
3000
0000
0000
0002
0000
0200
0000
0303
,
0000
1001
0000
0010
,
0000
0000
0000
1100
,
0000
0001
0000
0011
,
0000
0000
1000
1001
;
