#TITLE:First Love;
#SUBTITLE:;
#ARTIST:UFO;
#TITLETRANSLIT:;
#SUBTITLETRANSLIT:;
#ARTISTTRANSLIT:;
#GENRE:;
#CREDIT:SupremeX;
#BANNER:First Love.png;
#BACKGROUND:First Love-bg.png;
#LYRICSPATH:;
#CDTITLE:;
#MUSIC:First Love.ogg;
#OFFSET:-0.299495;
#SAMPLESTART:25.750000;
#SAMPLELENGTH:12.000000;
#SELECTABLE:YES;
#BPMS:0.000000=150.000000
;
#STOPS:
;
#BGCHANGES:16.000=hana160.avi=1.000=0=0=1=====,
32.000=pop.avi=1.000=0=0=1=====,
64.000=heart2.avi=1.000=0=0=1=====,
80.000=heart6.avi=1.000=0=0=1=====,
96.000=room2.avi=1.000=0=0=1=====,
112.000=hana160.avi=1.000=0=0=1=====,
128.000=pop.avi=1.000=0=0=1=====,
160.000=line_a.avi=1.000=0=0=1=====,
192.000=room2.avi=1.000=0=0=1=====,
224.000=heart6.avi=1.000=0=0=1=====,
256.000=First Love-bg.png=1.000=0=0=1=====,
99999=-nosongbg-=1.000=0=0=0 // don't automatically add -songbackground-
;
#KEYSOUNDS:;
#ATTACKS:;

//---------------dance-single - ----------------
#NOTES:
     dance-single:
     :
     Hard:
     7:
     0.412129,0.444868,0.080885,0.152783,0.000000,321.000000,312.000000,9.000000,17.000000,0.000000,0.000000,0.412129,0.444868,0.080885,0.152783,0.000000,321.000000,312.000000,9.000000,17.000000,0.000000,0.000000:
0000
0000
0000
0000
,
0000
0000
0000
0000
,
0000
0000
0000
0000
,
0000
0000
0000
0000
,
2000
0000
0000
3001
0010
0100
1000
0000
,
0001
1000
0010
0100
,
0001
1000
0100
0010
,
0001
1000
1000
0010
,
0200
0000
0300
0001
1000
0001
0100
0000
,
0010
0010
1000
1000
,
0001
0010
0100
1000
,
0010
0100
0001
1000
,
0020
0000
0000
0130
0001
1000
0001
0000
,
0100
0100
0010
0010
,
1000
0001
0100
0010
,
1000
0001
1000
0010
,
0100
0000
0000
0001
1000
0010
0100
0100
,
0000
0001
1000
0001
0000
0100
0001
1000
,
1010
0000
0101
0000
0001
1000
0010
0100
,
0000
0001
1000
0010
0000
1000
0001
1000
,
0010
0000
0000
1000
0001
0100
0001
1000
,
0000
0010
0010
0010
0000
1000
0100
0010
,
0011
0000
1100
0000
0001
1000
0010
1000
,
0000
0001
0001
0001
0000
1000
1000
1000
,
0010
0000
0000
0100
0001
1000
0010
0010
,
0000
1000
0100
1000
0000
0001
0010
0100
,
1000
0000
0010
0000
1000
0001
0100
0001
,
0000
1000
0010
0100
0000
0100
0001
1000
,
0001
0000
0000
0100
0010
1000
0001
0010
,
0000
0100
0100
0100
0000
1000
0100
0010
,
0001
0000
1001
0000
0001
0010
0100
1000
,
0000
0010
0010
0010
0000
1000
1000
1000
,
0010
0000
0100
0000
0001
0010
0100
2000
,
0000
0000
0000
3000
0001
0100
0001
0200
,
0000
0000
0000
0300
0001
0010
0100
2000
,
0000
0000
3010
0000
0000
0100
0001
1000
,
0010
0000
1000
0000
0001
1000
0100
0020
,
0000
0000
0031
0000
0100
0010
1000
0002
,
0000
0000
0103
0000
0001
1000
0001
0200
,
0000
0000
0000
0000
0000
0010
0310
0010
,
1000
0000
0001
0000
1000
0010
1000
0010
,
0100
0000
0001
0000
1000
0010
0100
0001
,
1000
0000
0010
0000
1000
0001
0100
0010
,
1000
0000
0001
0000
0001
0100
0010
1000
,
0001
0000
0100
0000
0001
1000
0001
1000
,
0010
0000
0010
0000
1000
0001
0100
0001
,
1000
0000
0010
0000
0100
0001
1000
0010
,
0100
0000
0001
0000
1000
0010
1000
0001
,
0100
0000
0101
0000
0001
1000
0010
1000
,
0001
0000
0100
0000
0001
0010
0100
1000
,
0010
0000
1000
0000
0001
0100
0001
1000
,
0010
0000
0100
0000
0001
1000
0100
0010
,
0001
0000
1010
0000
0100
0001
1000
0010
,
0100
0000
0001
0000
1000
0010
0100
0001
,
1000
0000
0100
0000
0010
0001
1000
0010
,
0100
0000
0001
0000
1000
0010
0100
0010
,
1000
0000
0001
0000
1000
0001
0010
0200
,
0000
0000
0000
0300
1000
0100
0010
0002
,
0000
0000
0000
0003
0010
0100
1000
2000
,
0000
0000
0000
0000
3000
0100
0010
0001
,
0001
0000
1001
0000
1000
0001
0100
0020
,
0000
0000
0000
0030
1000
0001
0010
0200
,
0000
0000
0000
0300
1000
0001
0100
0020
,
0000
0000
0000
0030
,
2002
0000
0000
0000
,
0000
0000
0000
0000
,
3003
0000
0000
0000
;

//---------------dance-single - ----------------
#NOTES:
     dance-single:
     :
     Challenge:
     9:
     0.473755,0.533841,0.044936,0.359489,0.031455,369.000000,364.000000,5.000000,40.000000,0.000000,0.000000,0.473755,0.533841,0.044936,0.359489,0.031455,369.000000,364.000000,5.000000,40.000000,0.000000,0.000000:
0000
0000
0000
0000
,
0000
0000
0000
0000
,
0000
0000
0000
0000
,
0000
0000
0000
0000
,
1000
0000
0000
0000
0000
0000
0001
0100
0001
0000
0100
0000
0001
0000
1000
0000
,
0100
0010
0001
0100
0010
1000
0010
0100
,
0001
0010
0100
1000
0001
0100
0001
0010
,
0100
1000
0001
0100
0001
1000
0010
1000
,
0001
0000
0000
0000
0000
0000
1000
0010
1000
0000
0010
0000
0100
0000
0001
0000
,
0010
0100
1000
0010
0100
0001
1000
0100
,
0010
0001
0100
0010
1000
0001
1000
0010
,
0100
0010
1000
0100
0010
0001
0100
0010
,
1000
0000
0000
0000
0000
0000
0010
0100
0010
0000
1000
0000
0001
0000
0010
0000
,
0100
1000
0001
1000
0010
0100
0001
1000
,
0010
0100
0001
1000
0010
0100
0001
0010
,
0100
1000
0010
0100
0001
1000
0100
0010
,
0001
0000
0000
0000
0000
0000
1000
0010
1000
0000
0010
0000
0100
0000
0001
0000
,
0000
1000
0001
1000
0000
0010
0100
0010
,
1000
0000
1001
0000
1000
0100
0010
0001
,
0000
0001
0100
0010
0000
0010
1000
0001
,
1000
0000
0000
0000
0000
0000
0010
0100
0010
0000
0100
0000
0001
0000
1000
0000
,
0000
0010
0010
0010
0000
1000
0001
0100
,
0010
0000
0101
0000
1000
0100
0010
0001
,
0000
0100
0100
0100
0000
0001
0001
0001
,
1000
0000
0000
0000
0000
0000
0010
1000
0010
0000
1000
0000
1000
0000
1000
0000
,
0000
0100
0010
0001
0000
1000
0001
1000
,
0001
0000
0110
0000
1000
0100
0010
0001
,
0000
1000
0001
1000
0000
0010
0100
0001
,
1000
0000
0000
0000
0000
0000
0010
1000
0010
0000
0100
0000
0001
0000
1000
0000
,
0000
1000
1000
1000
0000
0010
0100
0001
,
1000
0000
1001
0000
0001
0010
0100
1000
,
0000
0010
0010
0010
0000
0100
0100
0100
,
0002
0000
2003
0000
3001
0100
0010
0200
,
0001
0000
0301
0000
0010
1000
0001
2000
,
0100
0000
3100
0000
0010
0001
0010
0200
,
1000
0000
1300
0000
0000
0010
0100
0001
,
2000
0000
3020
0000
0130
0100
0001
2000
,
0010
0000
3010
0000
0100
0001
0100
0002
,
1000
0000
1003
0000
0010
0100
0001
2000
,
0010
0000
0010
0000
3010
0100
0100
0100
,
0001
0000
1000
0000
0010
0100
0001
2000
,
0100
0000
3100
0000
1000
0010
0100
0002
,
1000
0000
1003
0000
0010
0100
0010
0200
,
0001
0000
0301
0000
0000
1000
0001
0100
,
0020
0000
2030
0000
3100
0010
0001
0200
,
0010
0000
0310
0000
1000
0001
1000
0002
,
0100
0000
0103
0000
0010
1000
0010
0200
,
0001
0000
0301
0000
0000
1000
0010
0100
,
0002
0000
0203
0000
0310
1000
0010
2000
,
0001
0000
3001
0000
0100
0010
1000
0002
,
0100
0000
0103
0000
0001
1000
0010
0200
,
0001
0000
0301
0000
0000
1000
0100
0010
,
0002
0000
2003
0000
3100
0100
0010
0002
,
0100
0000
0103
0000
1000
0001
1000
2000
,
0010
0000
3010
0000
0100
0001
0100
0020
,
1000
0000
1030
0000
0000
0100
0001
0100
,
0002
0000
2003
0000
3010
0100
0001
0200
,
0000
0000
0000
0300
0001
0010
0100
2000
,
0000
0000
0000
3000
0001
1000
0100
0020
,
0000
0000
0000
0000
0030
0001
0100
0010
,
2000
0000
3002
0000
0013
0001
0010
0200
,
0000
0000
0000
0300
1000
0100
0010
0002
,
0000
0000
0000
0003
0010
0100
1000
0020
,
0000
0000
0000
0030
,
2002
0000
0000
0000
,
0000
0000
0000
0000
,
3003
0000
0000
0000
;

//---------------dance-single - ----------------
#NOTES:
     dance-single:
     :
     Medium:
     5:
     0.279888,0.355894,0.017974,0.152783,0.000000,218.000000,216.000000,2.000000,17.000000,0.000000,0.000000,0.279888,0.355894,0.017974,0.152783,0.000000,218.000000,216.000000,2.000000,17.000000,0.000000,0.000000:
0000
0000
0000
0000
,
0000
0000
0000
0000
,
0000
0000
0000
0000
,
0000
0000
0000
0000
,
1000
0000
0010
0100
,
0001
0010
0100
1000
,
0010
1000
0001
0100
,
0001
1000
0010
1000
,
0001
0000
0000
0100
0010
0000
0010
0000
,
1000
1000
0001
0001
,
0100
0010
1000
0001
,
0100
0010
1000
1000
,
0001
0000
0100
0100
,
0010
1000
0010
0100
,
0001
0100
0010
1000
,
0001
0100
0010
1000
,
0001
0000
0100
0100
,
0010
0010
0000
1000
,
0010
0000
0100
0000
0001
0000
0100
0010
,
0000
0010
1000
1000
0000
0001
0001
0000
,
0100
0000
0000
0001
0010
0100
1000
0010
,
0000
0100
0001
0100
0000
0010
1000
0000
,
1000
0000
0001
0000
0001
0000
1000
0010
,
0000
0010
1000
0001
0000
0000
1000
0000
,
1000
0000
0000
0010
0100
0010
0100
0100
,
0000
0001
0001
0001
0000
1000
0010
0000
,
0010
0000
0100
0000
0100
0000
0001
1000
,
0000
1000
0001
0100
0000
0000
0001
0000
,
1000
0000
0000
0010
0100
0010
1000
1000
,
0000
0001
0001
0001
0000
0100
0010
0000
,
0010
1000
0010
0100
,
0001
1000
0010
1000
,
0001
0000
0001
0000
1000
0000
0010
0200
,
0000
0000
0300
0000
0001
0000
1000
0020
,
0000
0000
0030
0000
1000
0000
0001
2000
,
0000
0000
3000
0010
,
0100
0000
0001
0000
1000
0000
0001
0002
,
0000
0000
0000
0000
0003
0000
1000
2000
,
0000
0000
0000
0000
3000
0000
0010
0020
,
0000
0000
0000
0030
,
1000
0001
1000
0010
,
0100
0001
1000
0010
,
0100
0001
1000
0010
,
0100
0001
1000
0010
,
0100
0100
0001
1000
,
0010
0100
0001
1000
,
0001
0100
0010
1000
,
0001
0100
0001
1000
,
0010
0000
0100
0000
0001
0000
0000
2000
,
0000
0000
0000
3000
0010
0000
0000
0200
,
0000
0000
0000
0300
0001
0000
0000
2000
,
0000
0000
3000
0010
,
0010
0100
0001
1000
,
0001
0100
0010
1000
,
0001
0100
0010
1000
,
0001
0100
0001
1000
,
1001
0000
0100
0000
0010
0000
0000
0002
,
0000
0000
0003
0000
0001
0000
0000
0200
,
0000
0000
0000
0300
0010
0000
0000
2000
,
0000
0000
3000
0000
,
0100
0000
0010
0000
0001
0000
0000
0002
,
0000
0000
0000
0003
0010
0000
0000
0020
,
0000
0000
0000
0030
0100
0000
0000
0200
,
0000
0000
0000
0300
,
2002
0000
0000
0000
,
0000
0000
0000
0000
,
3003
0000
0000
0000
;

//---------------dance-single - ----------------
#NOTES:
     dance-single:
     :
     Easy:
     3:
     0.193867,0.266921,0.000000,0.008987,0.000000,151.000000,151.000000,0.000000,1.000000,0.000000,0.000000,0.193867,0.266921,0.000000,0.008987,0.000000,151.000000,151.000000,0.000000,1.000000,0.000000,0.000000:
0000
0000
0000
0000
,
0000
0000
0000
0000
,
0000
0000
0000
0000
,
0000
0000
0000
0000
,
1000
0000
0010
0010
,
0000
1000
0000
0001
,
0000
0100
0000
0010
,
0000
0001
0000
1000
,
0000
0000
0010
0010
,
0000
0100
0000
0001
,
0000
1000
0000
0010
,
0000
0100
0000
0001
,
0001
0000
1000
1000
,
0000
0010
0000
0100
,
0000
0001
0000
1000
,
0000
0010
0000
0100
,
0001
0000
1000
0010
,
0000
0100
0100
0100
,
0001
1000
0001
1000
,
0010
1000
0010
0100
,
0001
0000
1000
1000
,
0000
0010
0010
0010
,
0100
0100
0001
1000
,
0010
0100
0001
1000
,
0010
0000
1000
0001
,
0000
0100
0100
0100
,
0010
0010
1000
0001
,
1000
0001
1000
0010
,
0100
0000
0001
0001
,
0000
1000
1000
1000
,
0010
0010
0100
0001
,
1000
0010
0100
0001
,
1000
0000
0000
0000
0010
0000
0000
0010
,
0000
0000
0000
0000
0100
0000
0000
0100
,
0000
0000
0000
0000
0001
0000
0000
0001
,
0000
0000
0000
1000
,
0010
0000
1000
0000
0001
0000
0000
1000
,
0000
0000
0000
0000
0010
0000
0000
0100
,
0000
0000
0000
0000
0001
0000
0000
1000
,
0000
0000
0000
0000
,
0010
0000
0010
0000
1000
0000
0000
1000
,
0000
0000
0000
0000
0100
0000
0000
0100
,
0000
0000
0000
0000
0010
0000
0000
0010
,
0000
0000
0000
0001
,
0001
0000
1000
0000
0010
0000
0000
0010
,
0000
0000
0000
0000
0100
0000
0000
0100
,
0000
0000
0000
0000
0001
0000
0000
0001
,
0000
0000
0000
1000
,
0010
0000
1000
0000
0001
0000
0000
1000
,
0000
0000
0000
0000
0010
0000
0000
0100
,
0000
0000
0000
0000
0001
0000
0000
1000
,
0000
0000
0000
0010
,
1000
0000
0001
0000
0100
0000
0000
0001
,
0000
0000
0000
0000
1000
0000
0000
0010
,
0000
0000
0000
0000
0100
0000
0000
0001
,
0000
0000
0000
0000
,
1000
0000
0010
0000
0100
0000
0000
0100
,
0000
0000
0000
0000
0001
0000
0000
0001
,
0000
0000
0000
0000
1000
0000
0000
1000
,
0000
0000
0000
0010
,
0100
0000
0001
0000
1000
0000
0000
0001
,
0000
0000
0000
0000
1000
0000
0000
0010
,
0000
0000
0000
0000
0100
0000
0000
0001
,
0000
0000
0000
0000
,
2000
0000
0000
0000
,
0000
0000
0000
0000
,
3000
0000
0000
0000
;

//---------------dance-single - Copied from----------------
#NOTES:
     dance-single:
     Copied from:
     Beginner:
     1:
     0.055207,0.086277,0.000000,0.000000,0.000000,43.000000,43.000000,0.000000,0.000000,0.000000,0.000000,0.055207,0.086277,0.000000,0.000000,0.000000,43.000000,43.000000,0.000000,0.000000,0.000000,0.000000:
0000
0000
0000
0000
,
0000
0000
0000
0000
,
0000
0000
0000
0000
,
0000
0000
0000
0000
,
1000
0000
0000
0000
,
0000
0000
0000
0000
,
1000
0000
0000
0000
,
0000
0000
0000
0000
,
1000
0000
0000
0000
,
0001
0000
0000
0000
,
0001
0000
0000
0000
,
0001
0000
0000
0000
,
0100
0000
0000
0000
,
0100
0000
0000
0000
,
0100
0000
0000
0000
,
0100
0000
0000
0000
,
0010
0000
0000
0000
,
0000
0000
0000
0000
,
0010
0000
0000
0000
,
0000
0000
0000
0000
,
1000
0000
0000
0000
,
0000
0000
0000
0000
,
1000
0000
0000
0000
,
0000
0000
0000
0000
,
0001
0000
0000
0000
,
0000
0000
0000
0000
,
0001
0000
0000
0000
,
0000
0000
0000
0000
,
0100
0000
0000
0000
,
0000
0000
0000
0000
,
0100
0000
0000
0000
,
0000
0000
0000
0000
,
0010
0000
0000
0000
,
0000
0000
0010
0000
,
0000
0000
0010
0000
,
0000
0000
0000
0000
,
1000
0000
0000
0000
,
0000
0000
1000
0000
,
0000
0000
1000
0000
,
0000
0000
0000
0000
,
0001
0000
0000
0000
,
0000
0000
0001
0000
,
0000
0000
0001
0000
,
0000
0000
0000
0000
,
0100
0000
0000
0000
,
0000
0000
0100
0000
,
0000
0000
0100
0000
,
0000
0000
0000
0000
,
0010
0000
0000
0000
,
0000
0000
0010
0000
,
0000
0000
0010
0000
,
0000
0000
0000
0000
,
1000
0000
0000
0000
,
0000
0000
1000
0000
,
0000
0000
1000
0000
,
0000
0000
0000
0000
,
0001
0000
0000
0000
,
0000
0000
0001
0000
,
0000
0000
0001
0000
,
0000
0000
0000
0000
,
0100
0000
0000
0000
,
0000
0000
0100
0000
,
0000
0000
0100
0000
,
0000
0000
0000
0000
,
0010
0000
0000
0000
;
