#TITLE:FORBIDDEN LOVE;
#SUBTITLE:;
#ARTIST:CHERRY;
#TITLETRANSLIT:;
#SUBTITLETRANSLIT:;
#ARTISTTRANSLIT:;
#GENRE:;
#CREDIT:SupremeX;
#BANNER:FORBIDDEN LOVE.png;
#BACKGROUND:FORBIDDEN LOVE-BG.png;
#LYRICSPATH:;
#CDTITLE:CDTitle.png;
#MUSIC:FORBIDDEN LOVE.ogg;
#OFFSET:-0.343364;
#SAMPLESTART:51.180000;
#SAMPLELENGTH:12.000000;
#SELECTABLE:YES;
#BPMS:0.000000=158.000000
;
#STOPS:
;
#BGCHANGES:16.000=8 Bubble.avi=1.000=0=0=1=====,
36.000=FORBIDDEN LOVE-BG.png=1.000=0=0=1=====,
40.000=tunnel11r.avi=1.000=0=0=1=====,
56.000=star8.avi=1.000=0=0=1=====,
72.000=star1.avi=1.000=0=0=1=====,
104.000=blizzard6.avi=1.000=0=0=1=====,
136.000=light6.avi=1.000=0=0=1=====,
150.000=text17.avi=1.000=0=0=1=====,
168.000=light6.avi=1.000=0=0=1=====,
184.000=text17.avi=1.000=0=0=1=====,
200.000=cards1.avi=1.000=0=0=1=====,
216.000=text11.avi=1.000=0=0=1=====,
232.000=FORBIDDEN LOVE-BG.png=1.000=0=0=1=====,
99999=-nosongbg-=1.000=0=0=0 // don't automatically add -songbackground-
;
#KEYSOUNDS:;
#ATTACKS:;

//---------------dance-single - ----------------
#NOTES:
     dance-single:
     :
     Hard:
     9:
     0.525825,0.732498,0.276590,0.159571,0.127657,346.000000,320.000000,26.000000,15.000000,0.000000,0.000000,0.525825,0.732498,0.276590,0.159571,0.127657,346.000000,320.000000,26.000000,15.000000,0.000000,0.000000:
0000
0000
0000
0000
,
0000
0000
0000
0000
,
0000
0000
0000
0000
,
0000
0000
0000
0000
,
1000
0010
1000
0001
,
0100
0010
1000
1001
,
0001
0010
0100
1000
,
0010
0100
0001
1000
,
0010
1000
0100
1000
0100
1000
0100
0000
,
0010
0001
0010
0100
1000
0001
0100
0001
,
1000
0010
1000
0001
0100
0001
0100
0010
,
1000
0000
0001
0000
0100
0000
0001
0000
1000
0000
0010
0000
1000
0000
0010
0100
,
0010
1000
0100
0010
0001
1000
0010
1000
,
0001
0100
0001
0000
0100
0001
1000
0000
0010
1000
0010
0100
0001
1000
0001
0100
,
0010
1000
0001
0100
0010
1000
0001
0010
,
0100
0000
1000
0000
0001
0000
1000
0000
0010
0000
0100
0000
0001
0000
1000
0001
,
1000
0010
0100
0010
1000
0001
1000
0010
,
0100
0010
0100
0000
0001
1000
0001
0000
0100
0010
0100
0001
1000
0001
0100
0001
,
1000
0000
0010
0000
1001
0000
0100
0010
,
1000
0001
0000
1100
0000
0010
0001
0010
,
0100
0000
1100
0000
0011
0000
0100
1000
,
0100
0010
0000
0101
0000
0010
0100
0000
,
1001
0000
0110
0000
1001
0000
0010
0100
,
0010
0100
0000
0001
0000
0000
1000
0000
,
0020
0000
0000
2030
0000
0000
3010
1000
,
0001
0100
0010
1000
0010
0100
0001
0100
,
0010
0000
1000
0001
0000
0100
0000
1010
,
0000
0101
0000
0000
0001
0010
0100
1000
,
0010
0000
0010
1000
0000
0101
0000
1010
,
0000
0001
0100
0000
0100
0001
1000
0001
,
0100
0000
0100
0010
0000
1001
0000
0110
,
0000
1000
0001
0000
0000
0000
0100
0000
,
0002
0000
0000
2003
0000
0200
3300
0000
,
1100
0000
0000
0000
0010
0001
1000
0000
,
0110
0000
0000
0001
0000
0001
1000
0000
,
1001
0000
0000
0010
0000
0010
0100
0001
,
0000
1000
0000
1001
0000
0101
0000
1010
,
0000
0000
0000
0000
1000
0100
0010
0002
,
0000
0000
0103
0000
0010
1000
0010
0200
,
0000
0000
0301
0000
0010
0100
1000
0020
,
0000
0000
0000
0000
0130
0000
0000
1001
,
0000
0000
0000
0000
1000
0001
0100
0000
,
1001
0000
0000
0100
0000
0100
0010
0000
,
0110
0000
0000
0001
0000
1000
0010
1000
,
0000
0001
0000
1000
0000
1001
0000
0020
,
0000
0000
0000
1030
0000
0000
1000
0000
,
0002
0000
0000
0103
0000
0000
0010
0000
,
2000
0000
0000
3001
0000
0000
0100
0000
,
0020
0000
0000
0030
0200
0000
0000
0310
,
0000
0000
0000
0000
0010
1000
0010
0000
,
1000
0100
1000
0001
0100
0001
1000
0010
,
0100
0000
0001
0000
1000
0000
0001
0000
0100
0000
0010
0000
0100
0000
0001
0100
,
0001
0100
0010
1000
0010
0100
0001
0100
,
0001
1000
0001
0000
1000
0100
1000
0000
0010
1000
0001
0100
0010
1000
0001
0100
,
0010
1000
0001
0100
0010
1000
0001
0100
,
0001
0000
1000
0000
0010
0000
1000
0000
0001
0000
0010
0000
0100
0000
1000
0100
,
1000
0100
0010
0001
1000
0010
1000
0001
,
0100
0010
0100
0000
0010
1000
0010
0000
1000
0000
0001
0000
1000
0000
0000
0000
,
2002
0000
0000
0000
,
0000
0000
0000
0000
0000
0000
0000
3003
;

//---------------dance-single - ----------------
#NOTES:
     dance-single:
     :
     Medium:
     7:
     0.343458,0.445868,0.095743,0.095743,0.000000,226.000000,217.000000,9.000000,9.000000,0.000000,0.000000,0.343458,0.445868,0.095743,0.095743,0.000000,226.000000,217.000000,9.000000,9.000000,0.000000,0.000000:
0000
0000
0000
0000
,
0000
0000
0000
0000
,
0000
0000
0000
0000
,
0000
0000
0000
0000
,
1000
0010
1000
0001
,
0100
0001
1000
1000
,
0010
0100
0001
1000
,
0010
0100
0001
1000
,
0002
0000
0000
0003
0200
0000
0000
0300
,
0020
0000
0000
0030
,
1000
1000
0001
0001
,
0100
0100
0010
0010
,
1000
0001
1000
0001
,
0100
0010
1000
0001
1000
0010
0100
0000
,
0001
0001
1000
1000
,
0010
0010
0100
0100
,
0001
1000
0001
1000
,
0010
0100
0001
0100
0001
1000
0010
1000
,
0001
1000
0010
0100
,
0001
0001
0000
1000
0000
0000
0010
0100
,
0010
1000
1000
0001
,
0100
0010
0000
0010
0000
1000
0001
0000
,
0100
0100
0010
1000
,
0001
0000
0000
0100
0000
0000
0010
0000
,
2000
0000
0000
3002
0000
0000
0000
0000
,
0000
0003
0000
0000
0010
0000
0100
0000
,
1000
0000
0000
0010
0000
0010
0000
0100
,
0000
0100
0000
0000
0001
0000
1000
0000
,
0001
0000
0000
0010
0000
0100
0000
1001
,
0000
0000
0100
0010
,
0100
0000
0000
0001
0000
1000
0000
0001
,
0000
0100
0010
0000
0000
0000
0010
0000
,
2000
0000
3000
0001
0000
0001
0000
0000
,
0110
0000
0000
0000
1000
0100
1000
0000
,
1100
0000
0000
0010
0000
0100
0010
0000
,
0110
0000
0000
0001
0000
0010
0001
0010
,
0000
0100
0000
1000
0000
0001
0000
1000
,
0000
0000
0000
0000
0010
0010
0010
0100
,
0000
0000
0100
0000
0001
0001
0001
1000
,
0000
0000
1000
0000
0001
0010
0100
1000
,
0000
0000
0000
0000
0010
0000
0000
0010
,
0000
0000
0000
0000
0100
0001
0100
0000
,
1010
0000
0000
0001
0000
0100
0001
0000
,
0110
0000
0000
1000
0000
0001
1000
0010
,
0000
0100
0000
0001
0000
1000
0000
0020
,
0000
0000
0000
0130
0000
0000
0100
0000
,
0110
0000
0000
0001
0000
0000
1000
0000
,
1001
0000
0000
0010
0000
0000
0100
0000
,
0100
0000
0000
0000
0001
0000
0000
0001
,
0000
0000
0000
0000
1000
0100
1000
0000
,
0010
0010
0100
0100
,
0001
0001
1000
0001
,
0100
0010
0100
0000
0001
1000
0001
0000
,
0100
0010
1000
0010
0100
0001
0100
0000
,
0010
1000
0001
0100
,
0001
1000
0001
0000
0100
0010
0100
0000
,
0001
0000
1000
0000
0010
0100
0010
0000
,
1000
0010
0100
0001
1000
0001
1000
0000
,
2002
0000
0000
0000
,
0000
0000
0000
0000
0000
0000
0000
3003
;

//---------------dance-single - ----------------
#NOTES:
     dance-single:
     :
     Easy:
     4:
     0.276590,0.308504,0.095743,0.031914,0.000000,182.000000,173.000000,9.000000,3.000000,0.000000,0.000000,0.276590,0.308504,0.095743,0.031914,0.000000,182.000000,173.000000,9.000000,3.000000,0.000000,0.000000:
0000
0000
0000
0000
,
0000
0000
0000
0000
,
0000
0000
0000
0000
,
0000
0000
0000
0000
,
0010
0010
0100
0100
,
0001
1000
1000
1000
,
0001
0100
0001
1000
,
0010
1000
0010
0100
,
0001
1000
0010
0100
,
2002
0000
0000
3003
,
0010
0010
0100
0100
,
0001
0001
1000
1000
,
0010
0100
0001
1000
,
0010
0100
0001
1000
,
0010
0010
0100
0100
,
0001
0001
1000
1000
,
0010
0100
0001
1000
,
0010
0100
0010
0100
,
0001
0000
1000
0000
,
0110
0000
0000
1001
0000
0000
0000
0000
,
1000
0000
0001
0000
,
0110
0000
0000
1001
0000
0000
0000
0000
,
1000
1000
1000
0000
,
0010
0000
0000
0100
0000
0000
0000
0000
,
0001
0000
0000
0002
0000
0000
0000
0000
,
0003
0000
0000
0000
,
1000
0000
0000
0010
0000
0100
0000
0001
,
0000
0001
0000
0000
1000
0000
0010
0000
,
0100
0000
0000
0001
0000
1000
0000
1000
,
0000
0000
0010
0100
,
0001
0000
0000
1000
0000
0010
0000
0100
,
0000
0100
0000
0000
0000
0000
0001
0000
,
1000
0000
0000
1000
0000
0010
0000
0000
,
0100
0000
0001
1000
,
1000
0000
0010
0100
,
0100
0000
0001
1000
,
0010
0100
0001
1000
,
1010
0000
0000
0000
0100
0000
0000
0001
,
0000
0001
1000
0010
,
0000
0000
0010
0000
1000
0000
0001
0100
,
0000
0000
0000
0000
0100
0000
0000
0010
,
0000
0000
1000
0001
,
1001
0000
0100
0010
,
0110
0000
1000
0001
,
0100
0010
1000
0001
,
1000
0000
0000
1000
0000
0000
0010
0000
,
0100
0000
0000
0100
0000
0000
0001
0000
,
1000
0000
0000
0001
0000
0000
0100
0000
,
0010
0000
0000
0000
0010
0000
0000
1000
,
0000
0000
0001
0000
,
1000
1000
0010
0010
,
0100
0100
0001
0001
,
1000
0010
0100
0001
,
1000
0001
1000
0010
,
0100
0100
0001
0001
,
1000
1000
0010
0010
,
0100
0001
1000
0010
,
0100
0100
0001
1000
,
1001
0000
0000
0000
;

//---------------dance-single - Copied from----------------
#NOTES:
     dance-single:
     Copied from:
     Beginner:
     3:
     0.120058,0.154252,0.000000,0.010638,0.000000,79.000000,79.000000,0.000000,1.000000,0.000000,0.000000,0.120058,0.154252,0.000000,0.010638,0.000000,79.000000,79.000000,0.000000,1.000000,0.000000,0.000000:
0000
0000
0000
0000
,
0000
0000
0000
0000
,
0000
0000
0000
0000
,
0000
0000
0000
0000
,
0010
0000
0000
0000
,
0010
0000
0000
0000
,
0010
0000
0000
0000
,
0010
0000
0000
0000
,
1000
0000
0000
0000
,
2000
0000
0000
3000
,
0100
0000
0000
0000
,
0100
0000
0000
0000
,
0100
0000
0000
0000
,
0100
0000
0000
0000
,
0010
0000
0000
0000
,
0010
0000
0000
0000
,
0010
0000
0000
0000
,
0010
0000
0000
0000
,
0001
0000
0000
0000
,
0001
0000
0000
0000
,
0001
0000
0000
0000
,
0001
0000
0000
0000
,
0100
0000
0000
0000
,
0100
0000
0000
0000
,
0100
0000
0000
0000
,
0000
0000
0000
0000
,
0010
0000
0000
0000
0000
0000
0000
0010
,
0000
0000
0000
0000
,
1000
0000
0000
0000
0000
0000
0000
1000
,
0000
0000
0000
0000
,
0001
0000
0000
0000
0000
0000
0000
0001
,
0000
0000
0000
0000
,
0100
0000
0000
0000
,
0100
0000
0010
0000
,
0010
0000
0010
0000
,
0010
0000
1000
0000
,
1000
0000
1000
0000
,
1000
0000
0000
0000
0001
0000
0000
0001
,
0000
0000
0000
0000
0100
0000
0000
0100
,
0000
0000
0000
0000
0010
0000
0000
0010
,
0000
0000
0000
0000
1000
0000
0000
1000
,
0000
0000
0001
0000
,
0100
0000
0000
0010
0000
0000
0000
0000
,
1000
0000
0000
0001
0000
0000
0000
0100
,
0000
0000
0000
0010
0000
0000
0000
1000
,
0000
0000
0000
1000
0000
0000
0000
0000
,
0001
0000
0000
0001
0000
0000
0000
0000
,
0100
0000
0000
0100
0000
0000
0000
0000
,
0010
0000
0000
0000
0010
0000
0000
0010
,
0000
0000
1000
0000
,
0001
0000
0001
0000
,
1000
0000
1000
0000
,
0001
0000
0001
0000
,
1000
0000
1000
0000
,
0010
0000
0010
0000
,
0100
0000
0100
0000
,
0010
0000
0010
0000
,
0100
0000
0100
0000
,
0100
0000
0000
0000
;
