#TITLE:DOO-BE-DI-BOY (Euro Mix);
#SUBTITLE:;
#ARTIST:SMILE.dk;
#TITLETRANSLIT:;
#SUBTITLETRANSLIT:;
#ARTISTTRANSLIT:;
#GENRE:;
#CREDIT:SupremeX;
#BANNER:DOO-BE-DI-BOY (Euro Mix).png;
#BACKGROUND:DOO-BE-DI-BOY (Euro Mix)-bg.png;
#LYRICSPATH:;
#CDTITLE:CDTitle.png;
#MUSIC:DOO-BE-DI-BOY (Euro Mix).ogg;
#OFFSET:-4.050470;
#SAMPLESTART:40.369999;
#SAMPLELENGTH:13.000000;
#SELECTABLE:YES;
#DISPLAYBPM:155.000000;
#BPMS:0.000000=155.000000
,238.750000=157.399994
,242.000000=155.000000
,258.750000=154.800003
;
#STOPS:
;
#BGCHANGES:0.000=glidlight.avi=1.000=0=0=1=====,
16.000=drop.avi=1.000=0=0=1=====,
32.000=ants.avi=1.000=0=0=1=====,
48.000=heart12.avi=1.000=0=0=1=====,
64.000=ddr4.avi=1.000=0=0=1=====,
73.000=cards2.avi=1.000=0=0=1=====,
80.000=ddr4.avi=1.000=0=0=1=====,
92.500=DOO-BE-DI-BOY (Euro Mix)-bg.png=1.000=0=0=1=====,
96.000=milk1.avi=1.000=0=0=1=====,
104.000=bear1.avi=1.000=0=0=1=====,
112.000=milk1.avi=1.000=0=0=1=====,
120.000=bear1.avi=1.000=0=0=1=====,
128.000=glidlight.avi=1.000=0=0=1=====,
144.000=drop.avi=1.000=0=0=1=====,
160.000=bagpipe2.avi=1.000=0=0=1=====,
168.000=face1.avi=1.000=0=0=1=====,
176.000=bagpipe2.avi=1.000=0=0=1=====,
184.000=face1.avi=1.000=0=0=1=====,
192.000=ddr4.avi=1.000=0=0=1=====,
201.000=milk1.avi=1.000=0=0=1=====,
208.000=ddr4.avi=1.000=0=0=1=====,
217.000=milk1.avi=1.000=0=0=1=====,
220.500=DOO-BE-DI-BOY (Euro Mix)-bg.png=1.000=0=0=1=====,
224.000=heart12.avi=1.000=0=0=1=====,
232.000=cards2.avi=1.000=0=0=1=====,
240.000=bear1.avi=1.000=0=0=1=====,
248.000=heart12.avi=1.000=0=0=1=====,
256.000=DOO-BE-DI-BOY (Euro Mix)-bg.png=1.000=0=0=1=====,
99999=-nosongbg-=1.000=0=0=0 // don't automatically add -songbackground-
;
#KEYSOUNDS:;
#ATTACKS:;

//---------------dance-single - ----------------
#NOTES:
     dance-single:
     :
     Hard:
     8:
     0.520255,0.527280,0.226432,0.122651,0.056608,386.000000,362.000000,24.000000,13.000000,0.000000,0.000000,0.520255,0.527280,0.226432,0.122651,0.056608,386.000000,362.000000,24.000000,13.000000,0.000000,0.000000:
1000
0000
0000
1000
0000
0000
1000
0000
0000
0000
0100
0000
0010
0000
0001
0000
,
0100
0000
0000
0100
0000
0000
0100
0000
0000
0000
0001
0000
0010
0000
0100
0000
,
1000
0000
0000
1000
0000
0000
1000
0000
0000
0000
0010
0000
0100
0000
0001
0000
,
0010
0001
0010
0100
1000
0000
1100
0000
,
0001
0000
0000
0001
0000
0000
0001
0000
0000
0000
0100
0000
0010
0000
1000
0000
,
0010
0000
0000
0010
0000
0000
0010
0000
0000
0000
1000
0000
0001
0000
0010
0000
,
0100
0000
0000
1000
0000
0000
0100
0000
0000
0000
0010
0000
0001
0000
0010
0000
,
0100
1000
0010
0100
0001
0000
0101
0000
,
1000
0010
1000
0010
0100
0001
0100
0000
,
0010
0010
1000
1000
,
0001
0100
0001
0100
0010
1000
0010
0000
,
0000
0100
0100
0000
0000
0001
0001
0000
,
1000
0100
1000
0010
0100
0010
0100
0000
,
0001
1000
0100
0010
,
0001
0000
1000
0000
0001
0000
1000
0100
,
0000
0010
0001
0000
1000
1000
1000
0000
,
0001
0100
0001
1000
,
0020
0000
0000
0130
0000
0202
0000
0303
,
0000
0000
0010
1000
0010
1000
0100
0010
,
0001
1000
0001
0010
0100
1000
0100
0010
,
0001
0000
1001
0000
1000
0000
0010
0200
,
0000
0300
0010
1000
0000
2020
0000
3030
,
0000
0000
1000
0010
1000
0001
0010
0100
,
0000
1001
0000
0000
0101
0000
1010
0000
,
1000
0100
0010
0001
0000
2000
0000
3100
,
0010
0001
1000
0000
1100
0000
1001
0000
,
0001
0000
0010
0000
0100
0000
1000
0010
,
1000
0010
0100
0001
0000
0001
0000
1000
,
0100
0010
0001
1000
0000
2000
0000
3001
,
0010
0100
1000
0000
1010
0000
0101
0000
,
1000
0100
0010
0001
1000
0000
0010
1000
,
0100
1000
0100
0010
0000
0001
0001
0000
,
1000
0000
0000
1000
0000
0000
1000
0000
0000
0000
0100
0000
0010
0000
0100
0000
,
0001
0000
0000
1000
0000
0000
0010
0000
0000
0000
0100
0000
0001
0000
1000
0000
,
0010
0000
0000
0010
0000
0000
1000
0000
0000
0000
0001
0000
0010
0000
0100
0000
,
1000
0001
1000
0010
0100
0000
0101
0000
,
0010
0000
0000
0010
0000
0000
0010
0000
0000
0000
1000
0000
0100
0000
1000
0000
,
0001
0000
0000
0001
0000
0000
0001
0000
0000
0000
0100
0000
0010
0000
1000
0000
,
0100
0000
0000
0100
0000
0000
0100
0000
0000
0000
1000
0000
0001
0000
1000
0000
,
0010
0100
0010
1000
0001
0000
1001
0000
,
1000
0100
0010
0001
1000
0010
1000
0000
,
0001
0001
1000
1000
,
0010
0100
0010
1000
0001
0100
0001
0000
,
0000
1000
1000
0000
0000
0001
0001
0000
,
1000
0010
1000
0001
0010
0001
0100
0000
,
0010
0010
1000
1000
,
0001
0010
0100
1000
0010
0000
0100
0100
,
0000
0001
0001
0000
1000
0010
1000
0000
,
1001
0100
0001
0010
,
0100
0000
1000
0010
0000
0220
0000
0330
,
0000
0000
0001
0010
0100
1000
0100
0010
,
0001
0100
0010
1000
0001
0100
0010
1000
,
0001
0000
0100
0000
0001
0000
1000
0020
,
0000
0000
0100
0130
0000
2002
0000
3003
,
0000
0000
1000
0001
0010
0100
1000
0001
,
0000
1001
0000
0000
0100
0000
0010
0000
,
0100
0001
1000
0001
0000
1100
0000
0000
,
0010
0001
0110
1001
,
1000
0000
0001
0000
0100
0000
0010
1000
,
0100
0010
0001
0100
0000
0010
0000
1000
,
0001
0010
0100
1000
0000
1001
0000
0100
,
0010
0100
0010
0000
1001
0000
0110
0000
,
1000
0100
0010
0001
0100
0000
0010
1000
,
0010
0100
0001
0001
0000
1000
1000
0000
,
0010
0000
0100
0000
0001
0000
1000
0010
,
0100
0001
1000
0010
0000
0100
0100
0000
;

//---------------dance-single - ----------------
#NOTES:
     dance-single:
     :
     Medium:
     6:
     0.390865,0.372198,0.226432,0.084912,0.056608,290.000000,266.000000,24.000000,9.000000,0.000000,0.000000,0.390865,0.372198,0.226432,0.084912,0.056608,290.000000,266.000000,24.000000,9.000000,0.000000,0.000000:
1000
0000
0000
1000
0000
0000
1000
0000
0000
0000
0000
0000
0010
0000
0000
0000
,
0100
0000
0000
0100
0000
0000
0100
0000
0000
0000
0000
0000
0010
0000
0000
0000
,
1000
0000
0000
1000
0000
0000
1000
0000
0000
0000
0000
0000
0100
0000
0000
0000
,
0010
0010
1000
1100
,
0001
0000
0000
0001
0000
0000
0001
0000
0000
0000
0000
0000
0100
0000
0000
0000
,
0010
0000
0000
0010
0000
0000
0010
0000
0000
0000
0000
0000
0001
0000
0000
0000
,
0100
0000
0000
0100
0000
0000
0100
0000
0000
0000
0000
0000
0001
0000
0000
0000
,
0100
0010
0001
0101
,
1000
1000
0100
0100
,
0010
0010
1000
1000
,
0001
0000
0001
0000
0010
1000
0010
0000
,
0000
0100
0100
0000
0000
0001
0001
0000
,
1000
1000
0100
0100
,
0001
0010
0100
1000
,
0010
0000
1000
0000
0001
0000
0100
0010
,
0000
0100
0010
0000
1000
1000
1000
0000
,
0001
0100
0001
1000
,
0020
0000
0000
0230
0000
0302
0000
0003
,
0000
0010
0010
0100
,
0001
0001
0100
0100
,
0001
0000
1001
0000
1000
0000
0010
0200
,
0000
0300
0010
1000
0000
2000
0000
3000
,
0000
0000
0100
0000
0100
0000
0010
0100
,
0000
1001
0000
0000
0101
0000
0101
0000
,
1000
0000
0010
0000
0000
0200
0000
0300
,
0001
0001
1000
1001
,
0001
0010
0100
1000
,
1000
0000
0100
0001
0000
0001
0000
0000
,
0100
0000
0001
0000
0000
0110
0000
0000
,
0010
1000
1010
0101
,
1000
0010
0100
0010
,
0100
0000
0100
0010
0000
0001
0001
0000
,
0100
0000
0000
0100
0000
0000
0100
0000
0000
0000
0000
0000
1000
0000
0000
0000
,
0001
0000
0000
0001
0000
0000
0001
0000
0000
0000
0000
0000
0110
0000
0000
0000
,
1000
0000
0000
1000
0000
0000
1000
0000
0000
0000
0000
0000
0110
0000
0000
0000
,
0001
0010
0100
1100
,
0001
0000
0000
0001
0000
0000
0001
0000
0000
0000
0000
0000
1010
0000
0000
0000
,
0100
0000
0000
0100
0000
0000
0100
0000
0000
0000
0000
0000
0101
0000
0000
0000
,
0010
0000
0000
0010
0000
0000
0010
0000
0000
0000
0000
0000
1000
0000
0000
0000
,
0100
0010
0001
0101
,
1000
0000
0010
0000
1000
0100
1000
0000
,
0001
0001
0100
0100
,
0010
0000
0010
0000
1000
0100
0010
0000
,
0000
0001
0001
0000
0000
1000
1000
0000
,
0010
0100
0010
0100
,
0001
0001
1000
1000
,
0001
0000
0100
0000
0001
0000
0100
0100
,
0000
0010
0010
0000
1000
0001
1000
0000
,
0101
0010
1000
0010
,
0100
0000
0001
1000
0000
0220
0000
0330
,
0000
0001
0001
1000
,
0010
1000
0100
0010
,
0001
0000
0100
0000
1001
0000
1000
0100
,
0000
0000
1000
0001
0000
0002
0000
0003
,
0000
0000
0100
0000
0010
0000
0100
0001
,
0000
0101
0000
0000
0010
0000
1000
0000
,
0010
0000
1000
0000
0000
1010
0000
0000
,
0100
0001
0100
0101
,
0010
0010
0010
1000
,
0100
0000
1000
0010
0000
0010
0000
1000
,
0001
0000
0001
0100
0000
0110
0000
0000
,
0001
0010
0100
1100
,
1000
0100
0010
0001
,
0100
0000
0010
0010
0000
1000
1000
0000
,
0001
0100
0001
1000
,
0010
0000
1000
0000
0000
0001
0001
0000
;

//---------------dance-single - ----------------
#NOTES:
     dance-single:
     :
     Easy:
     4:
     0.309996,0.310165,0.075477,0.037739,0.000000,230.000000,222.000000,8.000000,4.000000,0.000000,0.000000,0.309996,0.310165,0.075477,0.037739,0.000000,230.000000,222.000000,8.000000,4.000000,0.000000,0.000000:
0001
0001
1000
1000
,
0010
0010
0100
0100
,
0001
0001
1000
1000
,
0010
0100
0010
0100
,
0001
0001
1000
1000
,
0010
0010
0100
0100
,
0001
0001
1000
1000
,
0010
0100
0010
0100
,
0001
1000
0010
0100
,
0001
0001
1000
1000
,
0010
0100
0001
1000
,
0000
0110
0000
0110
,
0001
1000
0010
0100
,
0001
0001
1000
1000
,
0010
0000
0100
0000
0001
0000
0000
1000
,
0000
0010
0100
0100
,
0002
0000
0000
0003
,
1000
0000
0000
1000
0000
0010
0000
0000
,
0000
0100
0001
0100
,
0010
0100
0001
0100
,
0020
0000
0000
0000
0000
0030
0000
1000
,
0000
0000
0000
1000
0000
0010
0000
0000
,
0000
0000
0001
0000
0100
0000
0000
0010
,
0000
0010
0000
0000
1000
0000
0001
0000
,
0100
0100
0010
0010
,
1000
1000
0001
0001
,
0100
0010
0100
0001
,
0010
0100
1000
0001
,
0100
0100
0010
0010
,
1000
1000
0001
0001
,
1000
0010
0100
0001
,
1000
0000
0000
0010
0000
0000
0100
0000
,
0001
0001
1000
1000
,
0010
0010
0100
0100
,
0001
0001
1000
1000
,
0010
0100
0010
0100
,
0001
0001
1000
1000
,
0010
0010
0100
0100
,
0001
0001
1000
1000
,
0010
0100
0010
0100
,
0001
0010
0100
1000
,
0010
0010
0100
0100
,
0001
0010
0100
1000
,
0000
0001
0000
0110
,
1000
0100
0010
0001
,
0100
0100
0010
0010
,
1000
0000
0001
0000
0100
0000
0000
0010
,
0000
0100
0001
0001
,
2000
0000
0000
3000
,
0010
0000
0000
0010
0000
0100
0000
0000
,
0000
0001
0010
0100
,
1000
0010
0100
0001
,
2000
0000
0000
0000
0000
3000
0000
0001
,
0000
0000
0000
0001
0000
0100
0000
0000
,
0000
0000
0010
0000
1000
0000
0000
0001
,
0000
0001
0000
0000
0100
0000
0010
0000
,
0100
0000
0000
1001
0000
0000
0000
0000
,
0010
0000
1001
0000
,
0010
0010
0100
0100
,
0001
0000
0000
1000
0000
0000
0000
0000
,
0001
0000
0000
0110
0000
0000
0000
0000
,
1000
0000
0110
0000
,
0001
0001
0001
0100
,
0010
1000
0000
0000
,
0100
0100
0100
0010
,
0001
0100
0000
1001
;

//---------------dance-single - Copied from----------------
#NOTES:
     dance-single:
     Copied from:
     Beginner:
     2:
     0.079521,0.090573,0.000000,0.037739,0.000000,59.000000,59.000000,0.000000,4.000000,0.000000,0.000000,0.079521,0.090573,0.000000,0.037739,0.000000,59.000000,59.000000,0.000000,4.000000,0.000000,0.000000:
0001
0000
0000
0000
,
0001
0000
0000
0000
,
0001
0000
0000
0000
,
0001
0000
0000
0000
,
0100
0000
0000
0000
,
0100
0000
0000
0000
,
0100
0000
0000
0000
,
0100
0000
0000
0000
,
0010
0000
0000
0000
,
0010
0000
0000
0000
,
1000
0000
0000
0000
,
1000
0000
0000
0000
,
0010
0000
0000
0000
,
0010
0000
0000
0000
,
1000
0000
0000
0000
,
1000
0000
0000
0000
,
0002
0000
0000
0000
,
0000
0000
0003
0000
,
0000
0000
0100
0000
,
0000
0000
0100
0000
,
0020
0000
0000
0000
,
0000
0000
0000
0000
0000
0030
0000
0000
,
0000
0000
0100
0000
,
0000
0000
0000
0000
,
0001
0000
0000
0000
,
0001
0000
0000
0000
,
1000
0000
0000
0000
,
1000
0000
0000
0000
,
0100
0000
0000
0000
,
0100
0000
0000
0000
,
0010
0000
0000
0000
,
0010
0000
0000
0000
,
0001
0000
0000
0000
,
0001
0000
0000
0000
,
0001
0000
0000
0000
,
0001
0000
0000
0000
,
0100
0000
0000
0000
,
0100
0000
0000
0000
,
0100
0000
0000
0000
,
0100
0000
0000
0000
,
0010
0000
0000
0000
,
0010
0000
0000
0000
,
1000
0000
0000
0000
,
1000
0000
0000
0000
,
0010
0000
0000
0000
,
0010
0000
0000
0000
,
1000
0000
0000
0000
,
1000
0000
0000
0000
,
0200
0000
0000
0000
,
0000
0000
0000
0300
0000
0000
0000
0000
,
0000
0000
0001
0000
,
0000
0000
0001
0000
,
2000
0000
0000
0000
,
0000
0000
3000
0000
,
0000
0000
0010
0000
,
0000
0000
0000
0000
,
0100
0000
0000
0000
,
0100
0000
0000
0000
,
0001
0000
0000
0000
,
0001
0000
0000
0000
,
1000
0000
0000
0000
,
1000
0000
0000
0000
,
0010
0000
0000
0000
,
0010
0000
0000
0000
,
0100
0000
0000
0000
;
