#TITLE:DO YOU LOVE SOMEBODY;
#SUBTITLE:;
#ARTIST:SARINA PARIS;
#TITLETRANSLIT:;
#SUBTITLETRANSLIT:;
#ARTISTTRANSLIT:;
#GENRE:;
#CREDIT:SupremeX;
#BANNER:DO YOU LOVE SOMEBODY-bn.png;
#BACKGROUND:DO YOU LOVE SOMEBODY-BG.png;
#LYRICSPATH:;
#CDTITLE:d3.png;
#MUSIC:Do You Love Somebody.ogg;
#OFFSET:-6.764888;
#SAMPLESTART:56.250000;
#SAMPLELENGTH:12.000000;
#SELECTABLE:YES;
#BPMS:0.000000=143.000000
;
#STOPS:
;
#BGCHANGES:0.000=8 Bubble.avi=1.000=0=0=1=====,
16.000=text16.avi=1.000=0=0=1=====,
32.000=star3.avi=1.000=0=0=1=====,
47.500=Ring8.avi=1.000=0=0=1=====,
64.000=text17.avi=1.000=0=0=1=====,
72.000=frog2.avi=1.000=0=0=1=====,
90.000=blizzard6.avi=1.000=0=0=1=====,
104.000=star3.avi=1.000=0=0=1=====,
120.000=Ring8.avi=1.000=0=0=1=====,
136.000=text17.avi=1.000=0=0=1=====,
152.000=8 Bubble.avi=1.000=0=0=1=====,
168.000=Ring8.avi=1.000=0=0=1=====,
184.000=DO YOU LOVE SOMEBODY-BG.png=1.000=0=0=1=====,
99999=-nosongbg-=1.000=0=0=0 // don't automatically add -songbackground-
;
#KEYSOUNDS:;
#ATTACKS:;

//---------------dance-single - ----------------
#NOTES:
     dance-single:
     :
     Hard:
     7:
     0.404120,0.427189,0.377942,0.125981,0.045811,247.000000,214.000000,33.000000,11.000000,0.000000,0.000000,0.404120,0.427189,0.377942,0.125981,0.045811,247.000000,214.000000,33.000000,11.000000,0.000000,0.000000:
0100
0000
0010
0000
1000
0100
1000
0000
,
0010
0000
0100
0000
0001
0010
0001
0000
,
1000
0000
0100
0000
0010
0001
0010
0000
,
0100
0000
1000
0000
0010
0100
0010
0000
,
1010
0000
0101
0000
1000
0010
1000
0000
,
0101
0000
0101
0000
0010
1000
0100
0000
,
1010
0000
1010
0000
0001
0100
0010
0000
,
2002
0000
0000
3003
,
0010
0000
0000
0100
0000
0000
0001
0000
0000
0000
1001
0000
0000
0000
1000
0000
,
0010
0000
0000
1000
0000
0000
0010
0000
0000
0000
0110
0000
0000
0000
0001
0000
,
0100
0001
0000
1000
0000
1010
0000
0001
,
0010
0100
0000
1100
0000
1001
0000
0100
,
0001
0010
0000
0100
0000
1001
0000
0010
,
0100
0010
0000
1000
0000
1100
0000
0010
,
0100
0001
0000
1000
0000
0101
0000
0010
,
0010
0000
0000
1000
1000
0000
0000
0010
,
0100
0000
0100
0000
0001
0001
0001
0000
,
1000
0000
1000
0000
0010
0010
0010
0000
,
0100
0000
0000
0000
0001
0000
1000
0000
0000
0000
0100
0000
0000
0010
0000
0000
,
0002
0000
0000
0100
,
0203
0300
0000
0020
,
1000
1030
0000
0001
0002
0000
0000
0000
,
0103
0000
0000
0000
0000
0000
0000
0000
1000
0000
0000
1000
0000
0000
0001
0000
,
0200
0000
0000
0000
0000
0010
0310
0000
,
1000
0000
1010
0000
0100
0001
0100
0000
,
0010
0000
0000
1000
0000
0000
0010
0000
0010
0000
0000
0000
0100
0000
0000
0000
,
0001
1000
0010
0000
1000
0000
1000
0000
,
0010
0100
0001
0000
0010
0000
0100
0000
,
1000
0000
0100
0000
0010
0000
0000
0000
0001
0000
0000
0100
0000
0000
0010
0000
,
0220
0000
0000
0330
0100
0010
1000
0001
,
0100
0000
0000
0010
0000
0000
0010
0000
0000
0000
1001
0000
0000
0000
0001
0000
,
0001
0000
0000
1000
0000
0000
1000
0000
0000
0000
0110
0000
0000
0000
0000
0000
,
1000
1000
0000
0100
0000
1100
0000
0000
,
0001
0001
0000
0010
0000
0011
0000
0000
,
0100
0000
0000
0010
0000
0110
0000
1000
,
0001
0100
0000
0001
0000
1001
0000
0100
,
0010
1000
0000
0010
0000
1010
0000
0001
,
0001
0000
0100
0010
0010
0000
1000
0000
,
0001
0000
1001
0000
1000
0010
1000
0000
,
0001
0000
0101
0000
0010
0100
0010
0000
,
1000
0000
1001
0000
0001
0100
0001
0000
,
1000
1010
0100
0010
,
0001
1000
0001
0000
0100
0000
0110
0000
,
0001
1000
0010
0000
1000
0000
1100
0000
,
0100
0010
1000
0000
0101
0000
1010
0000
,
0001
0100
0010
0000
1000
0100
0010
0001
,
2002
0000
0000
0000
0000
3003
0000
0000
;

//---------------dance-single - ----------------
#NOTES:
     dance-single:
     :
     Medium:
     5:
     0.278139,0.266993,0.022906,0.068717,0.040085,170.000000,168.000000,2.000000,6.000000,0.000000,0.000000,0.278139,0.266993,0.022906,0.068717,0.040085,170.000000,168.000000,2.000000,6.000000,0.000000,0.000000:
0100
0010
1000
1000
,
0010
0100
0001
0001
,
1000
0100
0010
0001
,
0010
0100
1000
0010
,
1000
0001
1000
0001
,
0100
0010
0100
0001
,
1000
0100
0010
0001
,
0200
0000
0000
0300
,
0010
0000
0000
0010
0000
0000
0010
0000
0000
0000
1000
0000
0000
0000
0000
0000
,
0100
0000
0000
0100
0000
0000
0100
0000
0000
0000
0010
0000
0000
0000
0000
0000
,
0001
0000
0000
1000
0000
1000
0000
0000
,
0010
0000
0000
0100
0000
0100
0000
0000
,
0001
0000
0000
1000
0000
1000
0000
0000
,
0100
0000
0000
0010
0000
0010
0000
0000
,
0001
0000
0000
0100
0000
0100
0000
0000
,
0010
0000
0000
0000
1000
0000
0000
0010
,
0100
0100
0001
0001
,
1000
1000
0010
0010
,
0100
0000
0000
0000
0001
0000
1000
0000
0000
0000
0001
0000
0000
0001
0000
0000
,
0002
0000
0000
0100
,
0103
0000
0000
0001
,
1000
0010
0000
0100
0001
0000
0000
0000
,
1010
0000
0000
0000
0000
0000
0000
0000
1000
0000
0000
1000
0000
0000
1000
0000
,
0002
0000
0000
0000
0000
0003
0000
0000
,
0100
0010
0100
0010
,
1000
0000
0000
1000
0000
0000
0001
0000
0001
0000
0000
0000
0100
0000
0000
0000
,
0001
0010
0100
1000
,
0100
0010
0001
0010
,
0100
0000
1000
0000
0010
0000
0000
0100
,
0020
0000
0000
0030
1000
0000
1000
0000
,
0001
0000
0000
0100
0000
0000
0100
0000
0000
0000
0010
0000
0000
0000
0000
0000
,
1000
0000
0000
0001
0000
0000
0001
0000
0000
0000
0100
0000
0000
0000
0000
0000
,
0010
0000
0000
0100
0000
0100
0000
0000
,
0001
0001
0000
0010
0000
0010
0000
0000
,
0100
0000
0000
0010
0000
1000
0000
0000
,
0001
0100
0000
0010
0000
1000
0000
0000
,
0001
1000
0000
1000
0000
0010
0000
0000
,
0100
0100
0010
1000
,
0001
1000
0100
1000
,
0010
0100
0010
0100
,
0001
0010
0001
0010
,
0100
1000
0100
0010
,
0001
0001
0100
0010
,
1000
0010
0100
0001
,
0100
0001
0100
0010
,
1000
0010
1000
0010
,
2002
0000
0000
0000
0000
3003
0000
0000
;

//---------------dance-single - ----------------
#NOTES:
     dance-single:
     :
     Easy:
     3:
     0.258506,0.240294,0.137433,0.045811,0.000000,158.000000,146.000000,12.000000,4.000000,0.000000,0.000000,0.258506,0.240294,0.137433,0.045811,0.000000,158.000000,146.000000,12.000000,4.000000,0.000000,0.000000:
1000
0010
1000
0010
,
0100
0001
0100
0001
,
1000
0010
1000
0010
,
0100
0001
0100
0001
,
1000
1000
0010
0010
,
0100
0100
0001
0001
,
1000
1000
0010
0010
,
0200
0000
0000
0300
,
0001
0000
0000
1001
0000
0000
0000
0000
,
1000
0000
0000
1001
0000
0000
0000
0000
,
0010
0000
0000
0110
0000
0000
0000
0000
,
0100
0000
0000
0110
0000
0000
0000
0000
,
0001
0000
0000
0101
0000
0000
0000
0000
,
1000
0000
0000
1010
0000
0000
0000
0000
,
0001
0000
0000
1001
0000
0000
0000
0000
,
0100
0010
0100
0001
,
1000
1000
0010
0010
,
0100
0100
0001
0001
,
1000
0000
0000
0010
0000
0000
0000
0000
,
2000
0000
0000
0000
0000
3000
0001
0000
,
0001
0100
0100
0010
,
1000
0000
0001
0000
,
0101
0000
1000
0010
,
0200
0000
0000
0300
,
0001
0001
1000
1000
,
0010
0100
0001
1000
,
0010
0010
0100
0100
,
0001
0001
1000
1000
,
0010
0010
0100
0100
,
0001
0000
1000
0100
,
0010
0000
0000
0011
0000
0000
0000
0000
,
1000
0000
0000
1100
0000
0000
0000
0000
,
0010
0000
0000
0110
0000
0000
0000
0000
,
1000
0000
0000
1001
0000
0000
0000
0000
,
0010
0000
0000
0100
0000
0100
0000
0000
,
0001
0000
0000
1000
0000
1000
0000
0000
,
0100
0000
0000
0010
0000
0010
0000
0000
,
0001
0100
0001
1000
,
0010
1000
0010
0100
,
0001
1000
0001
0100
,
0010
1000
0100
0010
,
0001
0100
0010
0100
,
0001
1000
0001
0100
,
0010
1000
0010
0100
,
0001
0010
0100
1000
,
0010
0100
0001
1000
,
0002
0000
0000
0000
0000
0003
0000
0000
;

//---------------dance-single - Copied from----------------
#NOTES:
     dance-single:
     Copied from:
     Beginner:
     1:
     0.076897,0.079024,0.000000,0.000000,0.000000,47.000000,47.000000,0.000000,0.000000,0.000000,0.000000,0.076897,0.079024,0.000000,0.000000,0.000000,47.000000,47.000000,0.000000,0.000000,0.000000,0.000000:
0001
0000
0000
0000
,
0001
0000
0000
0000
,
0001
0000
0000
0000
,
0001
0000
0000
0000
,
0100
0000
0000
0000
,
0100
0000
0000
0000
,
0100
0000
0000
0000
,
0100
0000
0000
0000
,
0010
0000
0000
0000
,
0010
0000
0000
0000
,
0010
0000
0000
0000
,
0010
0000
0000
0000
,
1000
0000
0000
0000
,
1000
0000
0000
0000
,
1000
0000
0000
0000
,
1000
0000
0000
0000
,
0001
0000
0000
0000
,
0100
0000
0000
0000
,
0001
0000
0000
0000
,
0001
0000
0000
0000
,
0100
0000
0000
0000
,
0100
0000
0000
0000
,
0010
0000
0000
0000
,
0010
0000
0000
0000
,
1000
0000
0000
0000
,
1000
0000
0000
0000
,
0010
0000
0000
0000
,
0100
0000
0000
0000
,
0010
0000
0000
0000
,
0100
0000
0000
0000
,
0001
0000
0000
0000
,
0001
0000
0000
0000
,
0001
0000
0000
0000
,
0001
0000
0000
0000
,
1000
0000
0000
0000
,
1000
0000
0000
0000
,
1000
0000
0000
0000
,
1000
0000
0000
0000
,
0010
0000
0000
0000
,
0010
0000
0000
0000
,
0010
0000
0000
0000
,
0100
0000
0000
0000
,
0100
0000
0000
0000
,
0100
0000
0000
0000
,
0001
0000
0000
0000
,
0001
0000
0000
0000
,
1000
0000
0000
0000
;
