#TITLE:DEEP PURPLE;
#SUBTITLE:;
#ARTIST:NAOKI;
#TITLETRANSLIT:;
#SUBTITLETRANSLIT:;
#ARTISTTRANSLIT:;
#CREDIT:SupremeX;
#BANNER:DEEP PURPLE.png;
#BACKGROUND:DEEP PURPLE-bg.png;
#LYRICSPATH:;
#CDTITLE:CDTitle.png;
#MUSIC:DEEP PURPLE.ogg;
#OFFSET:-1.774;
#SAMPLESTART:27.670;
#SAMPLELENGTH:12.000;
#SELECTABLE:YES;
#BPMS:0.000=148.000;
#STOPS:;
#BGCHANGES:16.000=mirrorb_a.avi=1.000=0=0=1,
32.000=spiral3.avi=1.000=0=0=1,
64.000=robot5.avi=1.000=0=0=1,
80.000=robot8.avi=1.000=0=0=1,
96.000=robot10.avi=1.000=0=0=1,
112.000=robot9.avi=1.000=0=0=1,
128.000=kaliedoscope6.avi=1.000=0=0=1,
144.000=spiral3.avi=1.000=0=0=1,
160.000=mirrorb_a.avi=1.000=0=0=1,
176.000=robot5.avi=1.000=0=0=1,
192.000=kaliedoscope6.avi=1.000=0=0=1,
208.000=robot8.avi=1.000=0=0=1,
223.000=DEEP PURPLE-bg.png=1.000=0=0=1,
99999=-nosongbg-=1.000=0=0=0 // don't automatically add -songbackground-
;

//---------------dance-single - ----------------
#NOTES:
     dance-single:
     :
     Challenge:
     9:
     0.641,0.672,0.010,0.030,0.414: // measure 1
0000
0000
0000
0000
,  // measure 2
0000
0000
0000
0000
,  // measure 3
0000
0000
0000
0000
,  // measure 4
0000
0000
0000
0000
,  // measure 5
0010
1000
0100
0010
0001
1000
0001
1000
,  // measure 6
0010
0100
0010
0100
0001
1000
0100
0010
,  // measure 7
0001
1000
0100
1000
0010
0100
0001
1000
,  // measure 8
0001
0100
0010
1000
0100
0010
0001
0100
,  // measure 9
0010
0000
0010
0000
1000
0000
1000
0001
,  // measure 10
0100
0000
0100
0001
0100
0000
0010
1000
,  // measure 11
0010
0000
0010
1000
0010
0000
1000
0100
,  // measure 12
1000
0000
1000
0100
1000
0000
0001
0100
,  // measure 13
0001
0000
0001
0100
0001
0000
0001
0100
,  // measure 14
0001
0000
1000
0010
1000
0000
0100
0010
,  // measure 15
0001
1000
0100
0010
0001
1000
0010
1000
,  // measure 16
0001
0100
0001
1000
0010
0100
0001
0000
,  // measure 17
0010
1000
0010
0000
1000
0010
1000
0000
0010
1000
0010
0000
1000
0010
0000
0000
,  // measure 18
0100
0001
0100
0000
0001
0100
0001
0000
0100
0001
0100
0000
0001
0100
0000
0000
,  // measure 19
0001
1000
0001
0000
1000
0001
1000
0000
0001
1000
0001
0000
1000
0001
0000
0000
,  // measure 20
0100
0010
0100
0000
0010
0100
0010
0000
0100
0010
0100
0000
0010
0100
0000
0000
,  // measure 21
0001
0010
0001
0000
0010
0001
0010
0000
0001
1000
0001
0000
1000
0001
0000
0000
,  // measure 22
0100
0010
0100
0000
0010
1000
0010
0000
1000
0010
1000
0000
0010
1000
0000
0000
,  // measure 23
0001
0100
0001
0000
0100
0010
0100
0000
0010
0100
0001
0000
1000
0001
0000
0000
,  // measure 24
1000
0010
1000
0000
0010
1000
0010
0000
0100
0001
0100
0000
0001
0100
0000
0000
,  // measure 25
0010
1000
0100
0010
0001
0100
0001
0000
,  // measure 26
1000
0100
0010
0001
1000
0010
1000
0000
,  // measure 27
0010
1000
0010
0100
0001
0100
0010
0000
,  // measure 28
1000
0100
0010
0001
0100
0010
0100
0000
,  // measure 29
0010
1000
0010
0100
0001
0100
0001
0001
,  // measure 30
1000
0100
1000
0010
1000
0010
0100
0100
,  // measure 31
0001
0010
0100
1000
0010
1000
0100
0100
,  // measure 32
0020
0001
0001
0031
,  // measure 33
0001
0000
0010
0000
0100
0000
1000
0000
0100
1000
0000
0000
0100
1000
0000
0000
,  // measure 34
0010
0000
0001
0000
0010
0000
0100
0000
1000
0010
0000
0000
0100
0001
0000
0000
,  // measure 35
1000
0000
0001
0000
1000
0000
0010
0000
0100
0001
0000
0000
1000
0010
0000
0000
,  // measure 36
0100
0000
0001
0000
1000
0000
0001
0000
0100
0010
0000
0000
0100
0010
0000
0000
,  // measure 37
1000
0000
0100
0000
0010
0000
0001
0000
1000
0001
0000
0000
1000
0001
0000
0000
,  // measure 38
0100
0000
0010
0000
0100
0000
0010
0000
1000
0100
0000
0000
0010
0001
0000
0000
,  // measure 39
1000
0000
0010
0000
0100
0000
0001
0000
1000
0010
0000
0000
0100
0001
0000
0000
,  // measure 40
1000
0000
0010
0000
1000
0000
0000
0000
0001
0010
0000
0000
0100
1000
0000
0000
,  // measure 41
0001
0100
0001
1000
0010
1000
0001
0000
,  // measure 42
0001
1000
0010
0000
1000
0001
1000
0000
,  // measure 43
0010
0100
0010
0000
0100
0000
0000
0000
0010
1000
0010
0000
1000
0000
0000
0000
,  // measure 44
0001
0100
0001
1000
0100
0010
0001
0000
,  // measure 45
1000
0010
1000
0000
0010
0000
1000
0010
1000
0000
0010
0000
0100
0000
0001
0100
,  // measure 46
0001
0000
0100
0000
0001
0000
1000
0100
1000
0000
0100
0000
0010
0000
0001
0010
,  // measure 47
0001
0000
0010
0000
0100
0000
1000
0010
1000
0000
0010
0000
0100
0000
0001
1000
,  // measure 48
0001
0000
1000
0000
0100
0000
0010
0001
0010
0000
0001
0000
0010
0000
0000
0000
,  // measure 49
0100
1000
0100
0000
1000
0100
1000
0000
0010
0100
0010
0000
0100
0010
0000
0000
,  // measure 50
0100
0001
0100
0000
0001
0100
0001
0000
1000
0010
1000
0000
0010
1000
0000
0000
,  // measure 51
0001
0010
0001
0000
0010
0001
0010
0000
0001
1000
0001
0000
1000
0001
0000
0000
,  // measure 52
0010
0100
0010
0000
0100
0010
0100
0000
0010
1000
0010
0000
1000
0010
0000
0000
,  // measure 53
1000
0000
0100
0000
0010
0000
0001
0100
0001
0000
0100
0000
0010
0000
1000
0000
,  // measure 54
0010
0000
1000
0000
0100
0000
0010
0001
0010
0000
0001
0000
1000
0000
0010
0000
,  // measure 55
1000
0010
1000
0000
0010
1000
0010
0000
0100
0000
0010
0000
0001
0000
1000
0100
,  // measure 56
1000
0000
0100
1000
0100
0000
0010
0001
0010
0000
0001
0010
0001
0000
0000
0000
,  // measure 57
0000
2002
0000
0000
,  // measure 58
0000
0000
0000
0000
0000
0000
0000
3003
;

//---------------dance-single - ----------------
#NOTES:
     dance-single:
     :
     Hard:
     8:
     0.514,0.497,0.091,0.030,0.000:
0000
0000
0000
0000
,
0000
0000
0000
0000
,
0000
0000
0000
0000
,
0000
0000
0000
0000
,
0010
0000
0100
0000
0001
1000
0001
0000
,
0100
0000
0010
0000
1000
0100
0010
0001
,
0010
0000
0100
0000
1000
0000
0001
0100
,
0001
0000
1000
0100
1000
0010
0100
0010
,
1000
0000
1000
0000
0001
0000
0001
0100
,
0010
0000
0010
0000
0010
0000
0100
0001
,
1000
0000
1000
0000
1000
0000
0001
0100
,
0001
0000
0010
0000
0010
0000
0100
1000
,
0100
0000
0010
0000
0010
0000
0001
1000
,
0001
0100
0010
0100
0010
1000
0100
0010
,
0001
1000
0010
1000
0001
0010
0100
1000
,
0001
0100
0001
1000
0010
0100
0001
0000
,
0001
1000
0100
1000
0100
1000
0100
0000
,
0010
0001
0010
0001
0010
0001
0010
0000
,
0100
1000
0100
1000
0100
1000
0010
0000
,
0100
0010
0100
0010
0100
0010
0100
0000
,
0001
1000
0001
1000
0001
1000
0001
0000
,
0100
0001
0100
0010
0100
0001
0100
0000
,
0010
1000
0010
0100
0010
1000
0010
0000
,
0100
0001
0100
0010
0100
0001
0100
0000
,
0010
1000
0100
0010
0001
0100
0001
0000
,
1000
0100
0010
0001
0100
0010
1000
0000
,
0010
0100
0001
1000
0010
0100
0010
0000
,
1000
0001
1000
0001
0100
0010
0100
0000
,
0001
0010
0100
1000
0100
0010
0001
0100
,
0010
0100
0010
1000
0100
0010
0001
0100
,
0001
1000
0010
1000
0001
0100
0010
0100
,
0002
0100
0100
0103
,
0010
1000
0010
1000
0010
1000
0010
0100
,
0001
0100
0001
0100
0001
0100
0001
0100
,
0010
1000
0001
0100
0010
1000
0001
0100
,
0010
1000
0100
0010
0001
0100
0001
0000
,
1000
0100
1000
0100
1000
0100
0010
0001
,
0100
0010
0100
0001
1000
0010
0100
0001
,
1000
0100
1000
0100
1000
0100
0010
0001
,
0100
0001
0100
0001
0010
0100
1000
0000
,
0010
1000
0010
0100
0001
0100
0010
0000
,
1000
0100
0010
0000
0001
0100
0010
0000
,
1000
1000
0001
0001
,
0100
0010
1000
0001
0100
0010
1000
0000
,
0001
0010
0100
1000
0010
1000
0001
0000
,
0100
0001
0100
0000
0010
1000
0010
0000
,
0100
0001
1000
0001
0100
0010
1000
0000
,
0001
0100
0001
1000
0010
0100
0001
0000
,
1000
1000
1100
1100
,
0010
0010
0011
0011
,
0100
0100
0110
0110
,
0001
0001
1001
1001
,
0100
0010
1000
0010
0100
0010
1000
0010
,
0100
0001
1000
0001
0100
0001
1000
0001
,
0100
0010
1000
0010
0100
0010
1000
0001
,
0010
0100
1000
0100
0010
0001
1000
0000
,
0000
2002
0000
0000
,
0000
0000
0000
0000
0000
0000
0000
3003
;

//---------------dance-single - ----------------
#NOTES:
     dance-single:
     :
     Easy:
     3:
     0.303,0.256,0.010,0.000,0.000:
0000
0000
0000
0000
,
0000
0000
0000
0000
,
0000
0000
0000
0000
,
0000
0000
0000
0000
,
0001
0010
0100
1000
,
0001
0010
0100
1000
,
0010
0100
0010
0100
,
0010
0100
0010
0010
,
1000
1000
0010
0100
,
0001
0001
0100
0010
,
1000
1000
0001
0100
,
0010
1000
0001
1000
,
0010
0010
0100
0100
,
0001
0001
0001
0100
,
0100
0100
0010
1000
,
0010
0010
0100
0100
,
0001
0001
0001
0001
,
1000
1000
1000
1000
,
0010
0010
0010
0010
,
0100
0100
0100
0100
,
0001
1000
0001
1000
,
0010
0100
0010
0100
,
0001
0001
1000
1000
,
0010
0010
0100
0100
,
0001
1000
0010
0100
,
0001
1000
0010
0100
,
0001
1000
0010
0100
,
0001
1000
0001
1000
,
0010
0100
0001
1000
,
0010
0100
0001
1000
,
0010
0100
0001
1000
,
0010
0100
0010
0100
,
0001
0001
1000
1000
,
0010
0010
0100
0100
,
0010
1000
0001
0100
,
0010
1000
0001
0100
,
0010
0010
0010
0010
,
1000
1000
1000
1000
,
0001
0001
0001
0001
,
0100
0100
0100
0100
,
0001
0010
0100
1000
,
0010
0100
0010
0100
,
0001
0010
0100
1000
,
0001
0100
0010
1000
,
0001
0001
0100
0100
,
0010
0010
1000
1000
,
0001
0100
0010
1000
,
0001
0001
0010
0100
,
1000
1000
0100
0100
,
0010
0010
0001
0001
,
0100
0010
0100
0100
,
0001
1000
0001
0001
,
1000
0100
0010
0001
,
1000
0100
0010
0001
,
0100
0010
0100
0100
,
0001
0010
0100
1000
,
0000
1001
0000
0000
;

//---------------dance-single - Copied from----------------
#NOTES:
     dance-single:
     Copied from:
     Beginner:
     1:
     0.076,0.085,0.000,0.000,0.000:
0000
0000
0000
0000
,
0000
0000
0000
0000
,
0000
0000
0000
0000
,
0000
0000
0000
0000
,
0001
0000
0000
0000
,
0001
0000
0000
0000
,
0001
0000
0000
0000
,
0001
0000
0000
0000
,
0100
0000
0000
0000
0000
0000
0000
0100
,
0000
0000
0000
0000
0000
0000
0000
0100
,
0000
0000
0000
0000
0000
0000
0000
0100
,
0000
0000
0000
0000
0000
0000
0000
0100
,
0000
0000
0000
0000
0000
0000
0000
0100
,
0000
0000
0000
0000
0000
0000
0000
0100
,
0000
0000
0000
0000
0000
0000
0000
0100
,
0000
0000
0000
0000
,
0010
0000
0000
0000
,
0010
0000
0000
0000
,
0010
0000
0000
0000
,
0010
0000
0000
0000
,
1000
0000
0000
0000
,
1000
0000
0000
0000
,
1000
0000
0000
0000
,
1000
0000
0000
0000
,
0010
0000
0000
0000
,
0010
0000
0000
0000
,
0010
0000
0000
0000
,
0010
0000
0000
0000
,
0100
0000
0000
0000
,
0100
0000
0000
0000
,
0100
0000
0000
0000
,
0100
0000
0000
0000
,
0001
0000
0000
0000
,
0001
0000
0000
0000
,
0001
0000
0000
0000
,
0001
0000
0000
0000
,
1000
0000
0000
0000
,
1000
0000
0000
0000
,
1000
0000
0000
0000
,
1000
0000
0000
0000
,
0100
0000
0000
0000
,
0100
0000
0000
0000
,
0100
0000
0000
0000
,
0100
0000
0000
0000
,
0010
0000
0000
0000
,
0010
0000
0000
0000
,
0010
0000
0000
0000
,
0010
0000
0000
0000
,
0001
0000
0000
0000
,
0001
0000
0000
0000
,
0001
0000
0000
0000
,
0001
0000
0000
0000
,
1000
0000
0000
0000
,
1000
0000
0000
0000
,
1000
0000
0000
0000
,
1000
0000
0000
0000
,
0000
1000
0000
0000
;

//---------------dance-single - ----------------
#NOTES:
     dance-single:
     :
     Medium:
     6:
     0.359,0.369,0.010,0.000,0.000:
0000
0000
0000
0000
,
0000
0000
0000
0000
,
0000
0000
0000
0000
,
0000
0000
0000
0000
,
1000
1000
1000
1000
,
1000
1000
1000
1000
,
0001
0001
0001
0001
,
0001
0001
0001
0001
,
1000
0000
0010
0000
0100
0000
0001
1000
,
0001
0000
0100
0000
0010
0000
1000
0001
,
1000
0000
0010
0000
0100
0000
0001
0100
,
0001
0000
1000
0000
0010
0000
1000
0010
,
1000
0000
0001
0000
1000
0000
0010
0100
,
0010
0000
1000
0000
0001
0000
0100
0010
,
0100
0000
0001
0000
0001
0000
1000
0100
,
1000
0001
0100
0010
,
1000
1000
0010
0100
,
0001
0001
0100
0010
,
0100
0001
0100
0000
0001
0100
0001
0000
,
1000
0010
1000
0000
0010
1000
0010
0000
,
0100
0100
0001
0001
,
1000
1000
0010
0010
,
0100
0001
0100
0000
0001
0100
0001
0000
,
1000
0010
1000
0000
0010
1000
0010
0000
,
0100
0001
1000
0010
,
0100
0001
1000
0010
,
0100
0100
0001
0001
,
1000
1000
0010
0010
,
0100
0000
0001
0000
1000
0010
1000
0000
,
0001
0000
0100
0000
0010
1000
0010
0000
,
0100
0000
0001
0000
1000
0010
1000
0000
,
0010
0010
0100
0100
,
0001
0000
0001
0000
1000
0100
1000
0000
,
0100
0000
0100
0000
0010
0001
0010
0000
,
1000
0010
1000
0000
0010
1000
0010
0000
,
0100
0001
0100
0000
0001
0100
0001
0000
,
1000
0000
1000
0000
0010
0100
0010
0000
,
0100
0000
0100
0000
0001
1000
0001
0000
,
1000
0000
0001
0000
0100
0010
0100
0000
,
0010
1000
0010
0000
0100
0001
0100
0000
,
0010
0000
0010
0000
1000
0001
1000
0000
,
0100
0100
0010
0010
,
0001
0010
0100
1000
,
0100
0010
0001
1000
,
0010
0000
0100
0000
0001
1000
0001
0000
,
1000
1000
0010
0010
,
0100
0001
1000
0010
,
0100
0100
0100
0100
,
0001
0000
0001
0000
1000
0100
1000
0000
,
0100
0000
0100
0000
0010
0001
0010
0000
,
0100
0000
1000
0000
1000
0100
1000
0000
,
0010
0000
0010
0000
0100
0001
0100
0000
,
0001
0000
1000
0000
0010
1000
0010
0000
,
0100
0000
0100
0000
0001
0100
0001
0000
,
0100
0000
0010
0000
1000
0010
1000
0000
,
0100
0000
0010
0000
0001
0100
0001
0000
,
0000
1001
0000
0000
;
