#TITLE:Curse of Doll;
#SUBTITLE:;
#ARTIST:KO3;
#TITLETRANSLIT:;
#SUBTITLETRANSLIT:;
#ARTISTTRANSLIT:;
#GENRE:;
#CREDIT:SupremeX;
#BANNER:Curse of Doll.png;
#BACKGROUND:Curse of Doll-bg.png;
#LYRICSPATH:;
#CDTITLE:CDTitle.png;
#MUSIC:Curse of Doll.ogg;
#OFFSET:-0.886020;
#SAMPLESTART:89.449997;
#SAMPLELENGTH:12.000000;
#SELECTABLE:YES;
#BPMS:0.000000=130.000000
;
#STOPS:
;
#BGCHANGES:32.000=fire2.avi=1.000=0=0=1=====,
48.000=fire3.avi=1.000=0=0=1=====,
64.000=gradius1.avi=1.000=0=0=1=====,
80.000=blizzard3.avi=1.000=0=0=1=====,
96.000=blizzard6.avi=1.000=0=0=1=====,
124.000=Curse of Doll-bg.png=1.000=0=0=1=====,
128.000=room2.avi=1.000=0=0=1=====,
144.000=fire3.avi=1.000=0=0=1=====,
160.000=water2.avi=1.000=0=0=1=====,
188.000=Curse of Doll-bg.png=1.000=0=0=1=====,
192.000=fire2.avi=1.000=0=0=1=====,
208.000=blizzard3.avi=1.000=0=0=1=====,
224.000=blizzard6.avi=1.000=0=0=1=====,
240.000=gradius1.avi=1.000=0=0=1=====,
256.000=Curse of Doll-bg.png=1.000=0=0=1=====,
99999=-nosongbg-=1.000=0=0=0 // don't automatically add -songbackground-
;
#KEYSOUNDS:;
#ATTACKS:;

//---------------dance-single - ----------------
#NOTES:
     dance-single:
     :
     Challenge:
     9:
     0.547261,0.646453,0.250012,0.024195,0.229850,475.000000,444.000000,31.000000,3.000000,0.000000,0.000000,0.547261,0.646453,0.250012,0.024195,0.229850,475.000000,444.000000,31.000000,3.000000,0.000000,0.000000:
0000
0000
0000
0000
,
0000
0000
0000
0000
,
0000
0000
0000
0000
,
0000
0000
0000
0000
,
1000
0000
0010
0100
0010
1000
0001
1000
,
0010
0000
0100
0010
0100
0000
0010
0000
0110
0000
0000
0000
0000
0000
0000
0000
,
1000
0000
0100
1000
0100
0010
0001
0010
,
0100
0000
0000
1000
0001
0000
1000
0000
0001
0000
0000
0000
0011
0000
0000
0000
,
0010
0100
2000
3001
0010
0100
1000
0010
,
1000
0000
0010
1000
0010
0000
1000
0000
1010
0000
0000
0000
0000
0000
0000
0000
,
1000
0000
0001
0010
0100
1000
0010
0100
,
0010
0000
0100
0010
0100
0000
0001
0000
1001
0000
0000
0000
1001
0000
0000
0000
,
0100
0000
0100
0010
1000
0100
0010
0001
,
1000
0000
0100
1000
0100
0000
1000
0000
1001
0000
0010
0000
1000
0000
0000
0000
,
0001
0000
0001
0010
0100
1000
0010
1000
,
0010
0000
0100
0001
0100
0000
0001
0000
0101
0000
0000
0000
1010
0000
0000
0000
,
0010
0000
1000
0001
0010
0100
1000
0010
,
1000
0000
0010
1000
0010
0000
1000
0000
1010
0000
0000
0000
0000
0000
0000
0000
,
0100
0000
0001
0010
0100
1000
0010
0100
,
0001
0000
0000
0100
0001
0000
0100
0000
0101
0000
0000
0000
1010
0000
0000
0000
,
1000
0000
1000
0001
0100
0001
1000
0010
,
0100
0000
0010
0100
0010
0000
1000
0000
0100
0000
0010
0000
0011
0000
0000
0000
,
0100
0000
1000
0010
1000
0010
0100
0001
,
0100
0000
0000
0010
1000
0000
0010
0000
0100
0000
0000
0000
1001
0000
0000
0000
,
1000
0000
0001
0010
0100
1000
0010
0100
,
0110
0000
0000
0001
1000
0000
0001
0000
1000
0000
0001
0000
1001
0000
0000
0000
,
0100
0000
0100
0001
0010
0100
1000
0001
,
1000
0000
0000
0001
0100
0000
0001
0000
0010
0000
0100
0000
1100
0000
0000
0000
,
0010
0001
0010
0100
1000
0100
0010
0001
,
0100
0010
1000
0001
1000
0010
0100
0010
,
1000
0100
1000
0100
1000
0100
1000
0100
1000
0100
1000
0100
1000
0100
1000
0000
,
1100
0000
0011
0000
1000
1000
0110
0001
,
0001
0000
0000
0000
1000
0000
0010
0000
1000
0000
0000
0010
0100
0000
0010
0000
,
0100
0000
0001
0000
1000
0010
0000
0010
1000
0000
0001
0100
0000
0100
0001
0000
,
1000
0000
0000
0000
0010
0000
0100
0000
0001
0000
0000
0100
0010
0000
0100
0000
,
0010
0000
0000
0000
1000
0100
0000
1000
0100
0000
0010
0000
0001
0000
0010
0000
,
0000
0000
0000
0100
1000
0000
0100
0000
1000
0000
0000
0010
0100
0000
0010
0000
,
0100
0000
0001
0000
1000
0100
0000
0100
1000
0001
0000
0001
0100
0000
0010
0000
,
0100
0000
0000
0000
0001
0000
1000
0000
0010
0000
0000
1000
0010
0000
1000
0000
,
1010
0000
0101
0001
0010
0100
1000
0100
,
1000
0000
0000
0010
0100
0000
0010
0000
0100
0000
0001
0000
0010
0000
0100
0000
,
1000
0000
0001
1000
0001
0000
1000
0000
0010
0100
0000
0100
0010
0000
1000
0000
,
0100
0000
0010
0001
0010
0100
1000
0100
,
0010
0000
0000
0001
0010
0000
0001
0000
1000
0000
0000
0000
1001
0000
0000
0000
,
0001
0000
1000
0100
0010
0001
0100
0010
,
1000
0000
0010
1000
0010
0000
1000
0000
0100
0000
0010
0000
0001
0000
1000
0000
,
0010
0000
0100
0010
0100
0010
1000
0001
,
1001
0000
0000
0000
0110
0000
0000
0010
0100
0010
0100
0000
0001
0000
1000
0000
,
0001
0000
1000
0100
0010
0001
0100
0010
,
1000
0000
0010
1000
0010
0000
1000
0000
0100
0000
0010
0000
0011
0000
0000
0000
,
1000
0000
0001
0100
0010
1000
0010
0100
,
0001
0000
0000
0001
1000
0000
0001
0000
1000
0000
0000
0000
0110
0000
0000
0000
,
0001
0000
1000
0100
0010
0001
0100
0010
,
1000
0000
0000
1000
0010
0000
1000
0000
0001
0100
0000
0100
0001
0000
0000
0000
,
1000
0000
0010
0100
0010
1000
0001
1000
,
0010
0000
0000
0100
0001
0000
0100
0000
0101
0000
0000
0000
1010
0000
0000
0000
,
0100
0000
0100
0001
1000
0001
0100
0010
,
0100
0000
0010
1000
0010
0000
1000
0000
0010
0100
0000
0100
0001
0000
0000
0000
,
1000
0000
0001
0010
0100
1000
0100
1000
,
0010
0000
0000
0100
0010
0000
0100
0000
0110
0000
0000
0000
1001
0000
0000
0000
,
0001
0000
1000
0100
0010
0001
1000
0100
,
1000
0000
0000
0010
0100
0000
0001
0000
1000
0010
0000
0010
1000
0000
0000
0000
,
0100
0000
0010
0001
0010
0100
1000
0100
,
0010
0000
0001
0100
0001
0100
0001
0000
1000
0000
0010
0000
0100
0000
0000
0000
,
2002
3003
0000
0000
0000
0000
0000
0000
;

//---------------dance-single - ----------------
#NOTES:
     dance-single:
     :
     Hard:
     8:
     0.448178,0.438731,0.153233,0.008065,0.024195,389.000000,370.000000,19.000000,1.000000,0.000000,0.000000,0.448178,0.438731,0.153233,0.008065,0.024195,389.000000,370.000000,19.000000,1.000000,0.000000,0.000000:
0000
0000
0000
0000
,
0000
0000
0000
0000
,
0000
0000
0000
0000
,
0000
0000
0000
0000
,
1000
0000
0010
0100
0010
1000
0001
1000
,
0010
0000
0100
0010
0100
0000
0010
0000
1000
0000
0000
0000
0000
0000
0000
0000
,
0010
0000
0100
0001
0010
0100
1000
0010
,
0100
0000
0000
0001
1000
0000
0001
0000
1000
0000
0000
0000
0010
0000
0000
0000
,
0100
0000
0100
0001
0010
0100
1000
0010
,
0100
0000
0001
0100
0001
0000
0100
0000
0010
0000
0000
0000
0000
0000
0000
0000
,
1000
0000
1000
0100
0010
0001
0010
0001
,
1000
0000
0010
1000
0010
0000
1000
0000
0001
0000
0000
0000
1001
0000
0000
0000
,
0100
0000
0100
0010
1000
0100
0010
0001
,
1000
0000
0100
1000
0100
0000
1000
0000
0100
0000
0000
0000
0000
0000
0000
0000
,
0010
0000
0001
0010
0100
1000
0001
0100
,
0010
0000
0100
0010
0100
0000
0010
0000
1000
0000
0000
0000
1001
0000
0000
0000
,
0100
0000
0100
0010
1000
0010
0100
0001
,
0100
0001
0010
0100
1000
0000
0000
0000
,
0010
0000
0100
0001
0100
0010
1000
0010
,
1000
0000
0001
0100
0001
0000
1001
0000
,
0010
0000
0010
0100
0001
0100
0010
1000
,
0010
0000
1000
0100
0010
0001
1000
0000
,
1000
0000
0010
1000
0100
0010
0001
0100
,
0001
0000
1000
0100
1000
0000
0110
0000
,
0001
0000
1000
0010
0100
0010
1000
0001
,
1000
0000
0010
0100
0001
1000
0010
0000
,
0100
0000
0001
1000
0100
1000
0001
0100
,
0001
0000
1000
0001
1000
0001
0100
0000
,
0001
0010
0100
1000
0010
0100
0010
1000
,
0100
1000
0100
0010
0001
0010
0100
1000
,
0200
0000
0000
0000
0000
0000
0000
0300
,
1100
0000
1001
0000
0100
0010
0001
0100
,
0001
0000
1000
0000
1000
0000
0010
0100
,
0001
0100
0010
1000
0010
0100
0001
0100
,
0010
0000
1000
0000
1000
0000
0001
0010
,
0100
0000
1000
0100
0010
0001
0100
0010
,
0100
0000
0010
0000
0010
0000
1000
0100
,
1000
0100
0010
0001
0010
0000
1100
0000
,
0011
0000
1000
0100
0010
0000
0001
0100
,
0001
0000
1000
0000
1000
0010
0100
0001
,
0100
0000
0010
0100
0001
1000
0001
0100
,
0010
0000
1000
0001
1000
0000
0010
0000
,
0010
0000
1000
0100
1000
0010
1000
0010
,
0100
0000
0001
0010
0100
0000
1100
0000
,
0001
0000
0010
0100
1000
0100
0010
0001
,
0100
0000
0010
1000
0010
0000
0101
0000
,
1000
0000
0010
0100
0010
0100
0001
1000
,
0001
0000
1010
0000
0100
0001
1000
0010
,
0100
0000
0001
1000
0001
0010
0100
1000
,
0010
0000
0100
0010
1000
0000
1100
0000
,
0001
0000
0001
0100
0010
1000
0010
0100
,
0001
0000
1000
0001
1000
0000
0110
0000
,
0001
0000
1000
0100
0010
0001
0100
0010
,
1000
0000
0001
1000
0001
0000
0100
0000
,
0100
0000
0010
1000
0010
0100
0001
0100
,
0010
1000
1100
1001
,
0100
0000
0100
0010
1000
0010
0100
0001
,
0100
0000
0010
1000
0010
0000
0100
0000
,
0100
0000
0001
0010
0001
1000
0001
1000
,
0010
0000
0100
0001
1000
0000
0101
0000
,
1000
0000
0001
0010
0100
1000
0010
0100
,
0001
0000
1000
0100
1000
0000
0100
0000
,
0010
0000
0001
0010
0100
1000
0001
0100
,
0010
1000
0110
0101
,
1010
0000
0000
0000
;

//---------------dance-single - ----------------
#NOTES:
     dance-single:
     :
     Medium:
     5:
     0.329509,0.361308,0.056454,0.000000,0.000000,286.000000,279.000000,7.000000,0.000000,0.000000,0.000000,0.329509,0.361308,0.056454,0.000000,0.000000,286.000000,279.000000,7.000000,0.000000,0.000000,0.000000:
0000
0000
0000
0000
,
0000
0000
0000
0000
,
0000
0000
0000
0000
,
0000
0000
0000
0000
,
1000
0000
0010
0100
0010
0000
1000
0000
,
1000
0000
0001
0100
0001
0000
0000
0000
,
0010
0100
1000
0001
,
1000
0000
0010
0100
0010
0000
0100
0000
,
0001
0000
1000
0001
1000
0000
0001
0000
,
0010
0000
0100
1000
0100
0000
0010
0000
,
0001
0000
1000
0001
1000
0000
0001
0000
,
0100
0000
0010
1000
0010
0000
0010
0000
,
0100
0000
0100
0001
0100
0000
0100
0000
,
0001
0000
1000
0001
1000
0000
0001
0000
,
0100
0000
0010
0100
0010
0000
0100
0000
,
0001
0000
1000
0001
1000
0000
0001
0000
,
0100
0000
0001
0000
1000
0100
0010
0000
,
0001
0000
0010
0100
1000
0000
0010
0000
,
0100
0000
0001
1000
0001
0000
0100
0000
,
0100
0000
0010
1000
0001
0000
0100
0000
,
0001
0000
1000
0010
0100
0000
0001
0000
,
1000
0000
0010
0100
0010
0000
1000
0000
,
0001
0000
0100
0001
0100
0000
0100
0000
,
0010
0000
0010
1000
0010
0000
1000
0000
,
0001
0000
0100
0001
0100
0000
0010
0000
,
1000
0000
0010
1000
0010
0000
1000
0000
,
0001
0000
0100
0010
1000
0000
0001
0000
,
1000
0000
0001
0010
0100
0000
1000
0000
,
0010
1000
0001
0100
,
0001
1000
0001
0000
0100
0010
0100
0000
,
0001
0010
0100
1000
0010
1000
0010
0000
,
0100
0100
0001
0001
,
1000
0010
1000
0001
,
0100
0010
1000
0001
,
0100
0001
1000
0010
,
0100
0001
1000
0001
,
1000
0010
0100
0001
,
1000
0010
0100
0001
,
1000
0100
0010
0001
,
0100
0100
0010
0010
,
1000
0001
1000
0001
,
0100
0010
0100
0010
0100
0000
0000
0000
,
0001
1000
0010
0100
,
0001
1000
1010
0101
,
0010
1000
0010
1000
,
0001
1000
0001
1000
0001
0000
0100
0000
,
0010
1000
0001
1000
,
0011
1100
0110
1001
,
1000
0001
1000
0001
,
1000
0000
0010
0100
0010
0000
1000
0000
,
0001
1000
0010
0100
,
0001
0000
1000
0001
1000
0000
1000
0000
,
0001
0100
0010
1000
,
0001
0000
0100
0010
0100
0000
0001
0000
,
1000
0001
0010
0100
,
1000
0000
0010
1000
0010
0000
0010
0000
,
0100
0001
0100
0010
,
1000
0000
0001
1000
0001
0000
1000
0000
,
0010
0100
0010
1000
,
0001
0000
1000
0001
1000
0000
0001
0000
,
0010
0100
1000
0010
,
1000
0000
1000
0001
1000
0000
0010
0000
,
0100
0010
1000
0001
,
1000
0000
0010
0100
0010
0000
1000
0000
,
1001
0000
0000
0000
;

//---------------dance-single - ----------------
#NOTES:
     dance-single:
     :
     Easy:
     4:
     0.270750,0.309692,0.161298,0.064519,0.000000,235.000000,215.000000,20.000000,8.000000,0.000000,0.000000,0.270750,0.309692,0.161298,0.064519,0.000000,235.000000,215.000000,20.000000,8.000000,0.000000,0.000000:
0000
0000
0000
0000
,
0000
0000
0000
0000
,
0000
0000
0000
0000
,
0000
0000
0000
0000
,
0010
0100
0001
1000
,
0010
0010
0100
0000
,
0001
1000
0010
0100
,
0001
1000
0001
1000
,
0020
0000
0000
0000
0000
0030
0000
0000
,
0200
0000
0000
0000
0000
0300
0000
0000
,
0002
0000
0000
0000
0000
0003
0000
0000
,
2000
0000
0000
0000
0000
3000
0000
0000
,
0020
0000
0000
0000
0000
0030
0000
0000
,
0200
0000
0000
0000
0000
0300
0000
0000
,
0002
0000
0000
0000
0000
0003
0000
0000
,
2000
0000
0000
0000
0000
3000
0000
0000
,
0010
0100
0001
1000
,
0010
0010
0100
0000
,
0001
1000
0010
0100
,
0001
0001
1000
0001
,
0100
0010
1000
0001
,
0100
0100
0010
1000
,
0001
0100
0010
1000
,
0001
0001
0100
0010
,
1000
1000
0010
0010
,
0100
0100
0001
0001
,
1000
0010
1000
0001
,
0100
0010
0100
0001
,
1000
1000
0010
0010
,
0100
0100
0001
0001
,
1000
0010
0100
0001
,
1000
0001
1001
1001
,
0010
0100
0010
0100
,
0010
0100
0010
0100
,
0010
1000
0001
1000
,
0001
1000
0001
1000
,
0001
0100
0010
0100
,
0010
0100
0010
0100
,
0010
1000
0001
1000
,
0001
0100
0110
0110
,
0001
0001
1000
1000
,
0010
0100
0001
1000
,
0010
0010
0100
0100
,
0001
1000
0010
0100
,
0001
0001
1000
1000
,
0010
0100
0010
0100
,
0001
0001
1000
1000
,
0010
0100
0001
1000
,
1001
0010
0100
0010
,
1001
0100
0010
0100
,
1001
0010
0100
0010
,
1001
0010
0100
0010
,
1100
0100
0010
0001
,
0011
0010
0100
1000
,
1100
0100
0010
0001
,
0011
0010
0100
1000
,
0001
0001
0100
0010
,
1010
0100
0001
0010
,
0101
0010
1000
0001
,
1010
0100
0001
1000
,
1001
0010
0100
0001
,
0110
1000
0100
0010
,
1001
0010
0100
0010
,
0110
1000
0001
1000
,
1001
0000
0000
0000
;

//---------------dance-single - Copied from----------------
#NOTES:
     dance-single:
     Copied from:
     Beginner:
     1:
     0.063367,0.077423,0.000000,0.000000,0.000000,55.000000,55.000000,0.000000,0.000000,0.000000,0.000000,0.063367,0.077423,0.000000,0.000000,0.000000,55.000000,55.000000,0.000000,0.000000,0.000000,0.000000:
0000
0000
0000
0000
,
0000
0000
0000
0000
,
0000
0000
0000
0000
,
0000
0000
0000
0000
,
0001
0000
0000
0000
,
1000
0000
0000
0000
,
0001
0000
0000
0000
,
1000
0000
0000
0000
,
0010
0000
0000
0000
,
0010
0000
0000
0000
,
0010
0000
0000
0000
,
0010
0000
0000
0000
,
0100
0000
0000
0000
,
0100
0000
0000
0000
,
0100
0000
0000
0000
,
0100
0000
0000
0000
,
0001
0000
0000
0000
,
0001
0000
0000
0000
,
0001
0000
0000
0000
,
0001
0000
0000
0000
,
1000
0000
0000
0000
,
1000
0000
0000
0000
,
1000
0000
0000
0000
,
1000
0000
0000
0000
,
0010
0000
0000
0000
,
0010
0000
0000
0000
,
0010
0000
0000
0000
,
0010
0000
0000
0000
,
0100
0000
0000
0000
,
0000
0000
0000
0000
,
0000
0000
0000
0000
,
0100
0000
0000
0000
,
0001
0000
0000
0000
,
0000
0000
0000
0000
,
0000
0001
0000
0000
,
0000
0000
0000
0000
,
0000
1000
0000
0000
,
0000
0000
0000
0000
,
0000
1000
0000
0000
,
0000
0000
0000
0000
,
0010
0000
0000
0000
,
0010
0000
0000
0000
,
0010
0000
0000
0000
,
0010
0000
0000
0000
,
0100
0000
0000
0000
,
0100
0000
0000
0000
,
0100
0000
0000
0000
,
0100
0000
0000
0000
,
0001
0000
0000
0000
,
0001
0000
0000
0000
,
0001
0000
0000
0000
,
0001
0000
0000
0000
,
1000
0000
0000
0000
,
1000
0000
0000
0000
,
1000
0000
0000
0000
,
1000
0000
0000
0000
,
0010
0000
0000
0000
,
0010
0000
0000
0000
,
0010
0000
0000
0000
,
0010
0000
0000
0000
,
0100
0000
0000
0000
,
0100
0000
0000
0000
,
0100
0000
0000
0000
,
0100
0000
0000
0000
,
0001
0000
0000
0000
;
