#TITLE:BOYS BOYS BOYS;
#SUBTITLE:;
#ARTIST:JEMMA & ELISE;
#TITLETRANSLIT:;
#SUBTITLETRANSLIT:;
#ARTISTTRANSLIT:;
#CREDIT:SupremeX;
#BANNER:BOYS BOYS BOYS.png;
#BACKGROUND:BOYS BOYS BOYS-bg.png;
#LYRICSPATH:;
#CDTITLE:CDTitle.png;
#MUSIC:BOYS BOYS BOYS.ogg;
#OFFSET:-1.156;
#SAMPLESTART:60.120;
#SAMPLELENGTH:12.000;
#SELECTABLE:YES;
#BPMS:0.000=130.000;
#STOPS:;
#BGCHANGES:16.000=water3.avi=1.000=0=0=1,
32.000=tropical1.avi=1.000=0=0=1,
48.000=tropical2.avi=1.000=0=0=1,
64.000=car5.avi=1.000=0=0=1,
72.000=sun3.avi=1.000=0=0=1,
80.000=car5.avi=1.000=0=0=1,
88.000=sun3.avi=1.000=0=0=1,
96.000=sun1b.avi=1.000=0=0=1,
104.000=surf1.avi=1.000=0=0=1,
112.000=sun1b.avi=1.000=0=0=1,
120.000=surf1.avi=1.000=0=0=1,
128.000=smoke3.avi=1.000=0=0=1,
136.000=car5.avi=1.000=0=0=1,
144.000=smoke3.avi=1.000=0=0=1,
152.000=car5.avi=1.000=0=0=1,
160.000=tropical2.avi=1.000=0=0=1,
176.000=tropical1.avi=1.000=0=0=1,
192.000=BOYS BOYS BOYS-bg.png=1.000=0=0=1,
99999=-nosongbg-=1.000=0=0=0 // don't automatically add -songbackground-
;

//---------------dance-single - ----------------
#NOTES:
     dance-single:
     :
     Hard:
     8:
     0.437,0.439,0.352,0.075,0.139: // measure 1
0000
0000
0000
0000
,  // measure 2
0000
0000
0000
0000
,  // measure 3
0000
0000
0000
0000
,  // measure 4
0000
0000
0000
0000
,  // measure 5
0010
1000
0001
0100
,  // measure 6
1001
0010
1000
0001
,  // measure 7
0100
0010
1000
0000
,  // measure 8
0001
1000
0001
0100
0010
1000
0010
1000
,  // measure 9
0001
0000
0000
1000
0000
0000
1100
0000
0000
0000
0010
0000
0001
0000
0010
0000
,  // measure 10
0100
0000
0000
1000
0000
0000
1001
0000
0000
0000
0010
0000
0100
0000
1000
0000
,  // measure 11
0001
0000
0000
1000
0000
0000
0110
0000
0000
0000
0001
0000
0100
0000
0001
0000
,  // measure 12
1000
0100
0000
0000
0010
0001
0000
0000
1000
0000
0000
0000
0001
0000
0100
0000
,  // measure 13
0001
0000
0000
1000
0000
0000
0110
0000
0000
0000
0001
0000
0010
0000
0100
0000
,  // measure 14
1000
0000
0000
0001
0000
0000
1001
0000
0000
0000
0100
0000
0010
0000
0100
0000
,  // measure 15
0001
0000
0000
1000
0000
0000
1100
0000
0000
0000
0010
0000
0001
0000
0000
0000
,  // measure 16
1000
0100
1000
0001
0100
0010
1000
0001
,  // measure 17
0100
0000
0000
0000
0010
0000
0000
0010
0000
0000
1000
0000
0001
0000
0010
0000
,  // measure 18
0100
0000
1000
1000
0000
0000
0001
0000
,  // measure 19
1100
0000
1001
0000
0110
0000
0001
1000
,  // measure 20
0001
0100
0010
0100
0001
1000
0010
0000
,  // measure 21
0200
0000
0301
0001
0000
1000
0010
0100
,  // measure 22
0002
0000
1003
1000
0000
0010
0100
0000
,  // measure 23
0110
0000
1001
0000
1100
0000
0001
0010
,  // measure 24
0000
1000
0010
1000
0001
0100
0001
0000
,  // measure 25
2000
0000
3010
0010
0000
1001
0000
0000
,  // measure 26
1000
0100
0010
0001
0000
1000
0010
0000
,  // measure 27
1000
0000
0001
0100
0000
0100
0000
1001
,  // measure 28
0000
1000
0100
1000
0010
0100
0010
1000
,  // measure 29
0002
0000
0103
0100
0000
1010
0000
0000
,  // measure 30
0001
0010
0100
1000
0000
0010
0010
0000
,  // measure 31
2000
0000
3100
1000
0000
0110
0000
0000
,  // measure 32
0002
0000
0013
0001
0000
0110
0000
0000
,  // measure 33
1001
0000
0110
0000
1001
0000
0000
1000
,  // measure 34
0100
0000
0010
0000
0001
0000
1000
0010
0000
1000
0000
0000
0000
0000
0000
0000
,  // measure 35
0110
0000
0101
0000
1010
0000
0000
0001
,  // measure 36
0100
0000
0010
0000
1000
0000
0010
2000
0000
0000
3000
0000
0000
0000
0000
0000
,  // measure 37
0110
0000
1001
0000
0110
0000
0000
0001
,  // measure 38
0010
0000
0100
0000
1000
0000
0010
1000
0000
0010
0000
0000
0000
0000
0000
0000
,  // measure 39
0101
0000
1010
0000
1001
0000
0000
0001
,  // measure 40
0100
0000
0010
0000
1000
0000
0001
0100
0000
0000
0010
0000
1000
0000
0010
1000
,  // measure 41
0010
0000
0000
0100
0000
0000
0100
0000
0000
0000
0001
0000
0010
0000
0100
0000
,  // measure 42
1000
0000
0000
0100
0000
0000
1000
0000
0000
0000
0100
0000
0010
0000
1000
0000
,  // measure 43
0001
0000
0000
0100
0000
0000
0100
0000
0000
0000
0001
0000
0010
0000
0100
0000
,  // measure 44
1000
0010
0000
0000
0100
0001
0000
0000
1000
0000
0100
0000
0010
0000
0001
0000
,  // measure 45
1000
0000
0000
1000
0000
0000
1000
0000
0000
0000
0001
0000
1000
0000
0010
0000
,  // measure 46
0100
0000
0000
0100
0000
0000
0100
0000
0000
0000
0001
0000
0010
0000
0100
0000
,  // measure 47
1000
0000
0000
0010
0000
0000
1000
0000
0000
0000
0001
0000
1000
0000
0000
0000
,  // measure 48
0001
0010
0000
0000
0100
1000
0000
0000
0001
0000
0000
0000
1000
0000
0000
0000
,  // measure 49
1010
0101
1001
0000
;

//---------------dance-single - ----------------
#NOTES:
     dance-single:
     :
     Medium:
     5:
     0.289,0.336,0.043,0.011,0.085:
0000
0000
0000
0000
,
0000
0000
0000
0000
,
0000
0000
0000
0000
,
0000
0000
0000
0000
,
1000
0100
0010
0001
,
0100
0010
1000
0001
,
0010
0100
1000
0000
,
0010
0010
0100
0001
,
0001
0000
0000
1000
0000
0000
1000
0000
0000
0000
0100
0000
0010
0000
0100
0000
,
0001
0000
0000
0001
0000
0000
0001
0000
0000
0000
0100
0000
0010
0000
1000
0000
,
0001
0000
0000
1000
0000
0000
0001
0000
0000
0000
0000
0000
0100
0000
0000
0000
,
0010
1000
0000
0000
0010
1000
0000
0000
0001
0000
0000
0000
0010
0000
0000
0000
,
0100
0000
0000
1000
0000
0000
0100
0000
0000
0000
0010
0000
0001
0000
0100
0000
,
0001
0000
0000
0100
0000
0000
0001
0000
0000
0000
1000
0000
0100
0000
1000
0000
,
0010
0000
0000
1000
0000
0000
0010
0000
0000
0000
0100
0000
0001
0000
0000
0000
,
1000
0010
1000
0010
,
0100
0000
0000
0000
0001
0000
0000
0001
0000
0000
0000
0000
1000
0000
0000
0000
,
1000
0000
0010
0010
0000
0000
0000
0000
,
0100
0000
0001
0000
0100
0000
0010
0010
,
0000
1000
1000
0001
,
0100
0000
0010
0010
0000
0000
0000
0000
,
1000
0000
0001
0001
0000
0000
0000
0000
,
0100
0000
0001
0000
0100
0000
0010
0010
,
0000
1000
0100
1000
,
0010
0000
0100
0001
0000
0001
0000
0000
,
1000
0000
0010
0100
0000
0010
1000
0000
,
0010
0000
0100
0001
0000
0100
0000
0010
,
0000
1000
0100
0010
,
0001
0000
0100
0010
0000
1000
0000
0000
,
0001
0000
0100
0001
0000
1000
0010
0000
,
0100
0000
0001
1000
0000
0001
0000
0000
,
0100
0000
0010
1000
0000
1000
0000
0000
,
0001
0100
0001
0000
,
1000
0000
0010
0000
0100
0100
0000
0000
,
0001
1000
1001
0000
,
0010
0000
0000
0000
0100
0000
0000
0200
0000
0000
0300
0000
0000
0000
0000
0000
,
0001
1000
1001
0000
,
0001
0000
0100
0000
0010
0010
0000
0000
,
1000
0010
1010
0000
,
0100
0001
0010
0100
,
1000
0000
0000
0100
0000
0000
1000
0000
0000
0000
0000
0000
0010
0000
0000
0000
,
0100
0000
0000
0001
0000
0000
0100
0000
0000
0000
0000
0000
0010
0000
0000
0000
,
1000
0000
0000
0100
0000
0000
1000
0000
0000
0000
0001
0000
0100
0000
0000
0000
,
0010
0010
1000
0000
,
0001
0100
0010
1000
,
0001
0000
0000
1000
0000
0000
0001
0000
0000
0000
0000
0000
0100
0000
0000
0000
,
0010
1000
0001
1000
,
0010
0100
0000
0000
0010
0100
0000
0000
0001
0000
0000
0000
1000
0000
0000
0000
,
0010
0100
1001
0000
;

//---------------dance-single - ----------------
#NOTES:
     dance-single:
     :
     Easy:
     3:
     0.236,0.233,0.011,0.000,0.000:
0000
0000
0000
0000
,
0000
0000
0000
0000
,
0000
0000
0000
0000
,
0000
0000
0000
0000
,
1000
0000
0001
1000
,
0010
0000
0100
0000
,
0001
1000
0001
0000
,
0100
0010
1000
0001
,
0010
0010
0010
0100
,
1000
1000
1000
0100
,
0010
0010
0010
0001
,
0100
0001
0100
0010
,
1000
1000
1000
0100
,
0010
0010
0010
0001
,
0100
0010
1000
1000
,
0001
0001
0001
0001
,
1000
0010
0100
0000
,
0001
0000
0000
0100
0000
0000
0000
0000
,
0001
1000
0010
0100
,
0010
0100
0001
0100
,
0010
0000
0000
1000
0000
0000
0000
0000
,
0001
0000
0000
0100
0000
0000
0000
0000
,
0010
1000
0001
0100
,
0010
1000
0010
1000
,
0001
0000
0000
0100
0000
0000
0000
0000
,
0010
0000
0000
1000
0000
0000
0001
0000
,
0100
0000
0000
0010
0000
1000
0000
0010
,
0000
0100
0001
0100
,
0010
0000
0000
1000
0000
0001
0000
0000
,
0100
0000
0000
0010
0000
0000
1000
0000
,
0010
0100
0001
1000
,
0100
0010
0001
1000
,
0010
0100
0010
0000
,
1000
1000
0001
0000
,
0100
0010
0100
0000
,
0001
0001
1000
0000
,
0010
0100
0010
0000
,
1000
1000
0001
0000
,
0100
0010
0100
0000
,
0001
1000
0010
0100
,
0001
0001
0001
1000
,
0010
0010
0010
1000
,
0100
0100
0100
0001
,
1000
0001
0100
0010
,
1000
1000
1000
0010
,
0100
0100
0100
0010
,
1000
1000
1000
0001
,
0100
0001
0100
0000
,
0010
1000
1001
0000
;

//---------------dance-single - Copied from----------------
#NOTES:
     dance-single:
     Copied from:
     Beginner:
     1:
     0.064,0.075,0.000,0.000,0.000:
0000
0000
0000
0000
,
0000
0000
0000
0000
,
0000
0000
0000
0000
,
0000
0000
0000
0000
,
0001
0000
0000
0000
,
0001
0000
0000
0000
,
1000
0000
0000
0000
,
1000
0000
0000
0000
,
0010
0000
0000
0000
,
0010
0000
0000
0000
,
0010
0000
0000
0000
,
0010
0000
0000
0000
,
0100
0000
0000
0000
,
0100
0000
0000
0000
,
0100
0000
0000
0000
,
0100
0000
0000
0000
,
0001
0000
0000
0000
,
0001
0000
0000
0000
,
1000
0000
0000
0000
,
0000
0000
0000
0000
,
0010
0000
0000
0000
,
0010
0000
0000
0000
,
0100
0000
0000
0000
,
0000
0000
0000
0000
,
0001
0000
0000
0000
,
1000
0000
0000
0000
,
1000
0000
0000
0000
,
0001
0000
0000
0000
,
0100
0000
0000
0000
,
0100
0000
0000
0000
,
0010
0000
0000
0000
,
1000
0000
0000
0000
,
0001
0000
0000
0000
,
0100
0000
0000
0000
,
0001
0000
0000
0000
,
0100
0000
0000
0000
,
0010
0000
0000
0000
,
1000
0000
0000
0000
,
0010
0000
0000
0000
,
1000
0000
0000
0000
,
0001
0000
0000
0000
,
0001
0000
0000
0000
,
0001
0000
0000
0000
,
0001
0000
0000
0000
,
1000
0000
0000
0000
,
1000
0000
0000
0000
,
1000
0000
0000
0000
,
1000
0000
0000
0000
;
