#TITLE:BILLY CROCODILE;
#SUBTITLE:;
#ARTIST:BARBIE YOUNG;
#TITLETRANSLIT:;
#SUBTITLETRANSLIT:;
#ARTISTTRANSLIT:;
#CREDIT:SupremeX;
#BANNER:BILLY CROCODILE.png;
#BACKGROUND:BILLY CROCODILE-bg.png;
#LYRICSPATH:;
#CDTITLE:CDTitle.png;
#MUSIC:BILLY CROCODILE.ogg;
#OFFSET:-1.351;
#SAMPLESTART:52.300;
#SAMPLELENGTH:12.000;
#SELECTABLE:YES;
#BPMS:0.000=160.000;
#STOPS:;
#BGCHANGES:16.000=ring11.avi=1.000=0=0=1,
31.500=BILLY CROCODILE-bg.png=1.000=0=0=1,
35.500=kaliedoscope6.avi=1.000=0=0=1,
52.000=cube13.avi=1.000=0=0=1,
67.500=bottle1.avi=1.000=0=0=1,
83.500=orange1.avi=1.000=0=0=1,
99.500=bottle1.avi=1.000=0=0=1,
115.500=orange1.avi=1.000=0=0=1,
132.000=cube13.avi=1.000=0=0=1,
136.000=ring11.avi=1.000=0=0=1,
152.000=Basket1AR.avi=1.000=0=0=1,
168.000=ring11.avi=1.000=0=0=1,
184.000=Basket1AR.avi=1.000=0=0=1,
200.000=sphere4.avi=1.000=0=0=1,
216.000=fish1.avi=1.000=0=0=1,
232.000=sphere4.avi=1.000=0=0=1,
248.000=fish1.avi=1.000=0=0=1,
261.000=BILLY CROCODILE-bg.png=1.000=0=0=1,
99999=-nosongbg-=1.000=0=0=0 // don't automatically add -songbackground-
;

//---------------dance-single - ----------------
#NOTES:
     dance-single:
     :
     Hard:
     8:
     0.545,0.537,0.300,0.097,0.102: // measure 1
0000
0000
0000
0000
,  // measure 2
0000
0000
0000
0000
,  // measure 3
0000
0000
0000
0000
,  // measure 4
0000
0000
0000
0000
,  // measure 5
1000
0100
0010
0000
0001
0100
0001
0000
,  // measure 6
1000
0100
0010
0001
0000
1000
0010
1000
,  // measure 7
1000
0000
0001
0010
0100
1000
0010
0000
,  // measure 8
0100
0001
1000
0010
1000
0001
0100
0010
,  // measure 9
0000
1000
0001
0100
0001
0001
0000
1000
,  // measure 10
0010
0000
0000
0010
0000
0000
1000
0000
0001
0000
0100
0000
0010
0000
0000
0000
,  // measure 11
1000
0000
0000
1001
0000
0000
0001
0000
0010
0000
0100
0000
1000
0000
0010
0000
,  // measure 12
1000
0000
0000
0110
0000
0000
0001
0000
1000
0000
0010
0000
0100
0000
0001
0000
,  // measure 13
1000
0000
0000
1010
0000
0000
0100
0000
0010
0000
0001
0000
1000
0000
0001
0000
,  // measure 14
0100
0000
0000
0100
0000
0000
0001
0000
0010
0000
0100
0000
1000
0000
0001
0000
,  // measure 15
0100
0000
0000
0101
0000
0000
1000
0000
0001
0000
1000
0000
0100
0000
0010
0000
,  // measure 16
0001
0000
0000
1001
0000
0000
1000
0000
0100
0000
1000
0000
0100
0000
0010
0000
,  // measure 17
0001
0010
0001
0100
0010
1000
0001
1000
,  // measure 18
0000
0100
0010
0001
1000
0000
0100
0100
,  // measure 19
0000
0010
0000
0010
0000
0001
0000
1000
,  // measure 20
0000
0010
0100
0010
1000
0000
0001
0001
,  // measure 21
0000
1000
0010
0100
0001
1000
0001
0100
,  // measure 22
0000
0001
0010
0100
1000
0010
0000
0200
,  // measure 23
0000
0000
0310
0000
0000
0000
1000
0000
0000
1000
0000
0000
0000
0000
0001
0000
,  // measure 24
0000
1000
0010
1000
0001
0000
0010
0010
,  // measure 25
0000
0000
0100
0000
1000
1000
0000
0001
,  // measure 26
0000
1000
0100
0010
0001
0000
0100
0100
,  // measure 27
0000
0000
0010
0000
1000
0000
0001
0100
,  // measure 28
0000
0100
0001
1000
0001
0000
1000
0010
,  // measure 29
0100
0010
1000
0100
0010
0001
0000
0100
,  // measure 30
0000
0010
1000
0001
0100
0010
0000
1001
,  // measure 31
0000
0110
0000
1001
0000
0100
0000
0010
,  // measure 32
0000
0001
0010
0100
1000
0100
0000
2000
,  // measure 33
0000
0000
0000
3000
,  // measure 34
0002
0000
0000
0003
,  // measure 35
0101
1001
1010
1001
,  // measure 36
1000
0010
0100
0002
0000
0003
0000
1000
,  // measure 37
0000
0001
0100
0001
1000
0010
1000
0001
,  // measure 38
0100
0010
0000
1001
0000
0000
0000
0000
,  // measure 39
2000
3200
0320
0032
,  // measure 40
1003
0100
1000
0100
0000
0000
0000
0010
,  // measure 41
0000
0001
0010
0100
1000
1000
0000
0110
,  // measure 42
0000
0001
0010
0100
,  // measure 43
1100
0110
0011
1001
,  // measure 44
1000
0100
0010
0001
0000
0000
0000
1000
,  // measure 45
0000
0010
1000
0010
0100
0001
0100
0010
,  // measure 46
1000
1000
0000
1001
0000
0000
0000
0000
,  // measure 47
0011
0110
1100
1001
,  // measure 48
0001
0010
0100
1000
0000
0000
0000
0100
,  // measure 49
0000
1000
0010
0100
0001
0001
0000
1001
,  // measure 50
1000
0100
0010
0001
0100
0010
0100
0001
,  // measure 51
1000
0000
0000
1000
0000
0000
0010
0000
0100
0000
0010
0000
0100
0000
0000
0000
,  // measure 52
0001
0000
0000
0001
0000
0000
1000
0000
0010
0000
1000
0000
0001
0000
0100
0000
,  // measure 53
0010
0000
0000
0010
0000
0000
1000
0000
0001
0000
1000
0000
0001
0000
0010
0000
,  // measure 54
0100
0000
0000
0100
0000
0000
1000
0000
0010
0000
0100
0000
0001
0000
1000
0000
,  // measure 55
0010
0000
0000
0010
0000
0000
1000
0000
0001
0000
1000
0000
0010
0000
0100
0000
,  // measure 56
0001
0000
0000
0001
0000
0000
0010
0000
0100
0000
1000
0000
0001
0000
0010
0000
,  // measure 57
0100
0000
0000
0100
0000
0000
1000
0000
0100
0000
0010
0000
0001
0000
1000
0000
,  // measure 58
0100
1000
0001
0100
0001
0010
0100
1000
,  // measure 59
0010
0000
0000
1010
0000
0000
0001
0000
0100
0000
0010
0000
1000
0000
0000
0000
,  // measure 60
0001
0000
0000
0101
0000
0000
1000
0000
0100
0000
0010
0000
0001
0000
1000
0000
,  // measure 61
0100
0000
0000
1100
0000
0000
1000
0000
0001
0000
0010
0000
0100
0000
1000
0000
,  // measure 62
0001
0000
0000
1001
0000
0000
1000
0000
0001
0000
0010
0000
0100
0000
0000
0000
,  // measure 63
1000
0000
0000
1010
0000
0000
0001
0000
0010
0000
0100
0000
1000
0000
0001
0000
,  // measure 64
0010
0000
0000
0011
0000
0000
0100
0000
1000
0000
0100
0000
0010
0000
0001
0000
,  // measure 65
0000
1000
0010
0100
0001
0001
0000
2200
,  // measure 66
0000
3300
0000
0000
;

//---------------dance-single - ----------------
#NOTES:
     dance-single:
     :
     Medium:
     5:
     0.342,0.346,0.058,0.029,0.000:
0000
0000
0000
0000
,
0000
0000
0000
0000
,
0000
0000
0000
0000
,
0000
0000
0000
0000
,
0010
0100
0001
1000
,
0010
0000
0100
0001
0000
0000
1000
0001
,
1000
0010
0010
0010
,
0100
0000
0100
0000
0100
0000
0100
0001
,
0000
0000
0001
0000
1000
0010
0000
0000
,
0010
0000
0100
0000
0001
1000
0001
0000
,
0100
0000
0100
0000
0010
1000
0010
0000
,
1000
0000
0100
0000
0010
0001
0010
0000
,
0100
0000
0100
0000
1000
0010
1000
0000
,
0001
0000
0001
0000
0010
0100
1000
0000
,
0010
0000
0010
0000
1000
0100
1000
0000
,
0100
0000
0010
0000
0001
1000
0001
0000
,
1000
0100
0010
0001
,
1000
0000
0010
0000
1000
0000
0001
0001
,
0000
0010
0100
1000
,
0010
0000
1000
0000
0001
0000
1000
1000
,
0000
0100
0010
0001
,
1000
0000
0010
0000
0010
0100
0000
0200
,
0000
0300
0000
0000
0000
0000
0000
0001
,
0000
0100
0010
1000
0001
0000
0100
0100
,
0000
0010
1000
0010
,
0100
0000
0001
0000
0100
0000
0010
0010
,
0000
1000
0100
0010
,
0001
0000
0010
0000
0100
0000
1000
1000
,
0000
0100
0010
0001
,
0100
0100
0010
1000
,
0001
0100
0010
1000
,
0100
0000
0010
0000
0001
0000
0000
0200
,
0000
0000
0000
0000
0000
0300
0000
0000
,
0020
0000
0000
0030
,
1000
1000
0001
0001
,
0100
0010
0100
0000
,
0001
1000
0001
0100
,
0010
0000
0000
1010
0000
0000
0000
0000
,
0001
0001
1000
1000
,
0010
0100
0010
0100
,
0001
0000
1000
0000
0001
0001
0000
1001
,
0000
0000
0000
0000
,
1000
0100
0010
0001
,
1000
0000
0000
1100
0000
0000
0000
0000
,
0001
0010
0100
1000
,
0001
0000
0000
0011
0000
0000
0000
0000
,
1000
0010
0100
0001
,
1000
0000
0001
0000
0000
0000
0000
1000
,
0000
0000
0010
0000
0100
0100
0000
0110
,
0000
0001
0001
0001
,
1000
1000
0010
0100
,
0001
0001
1000
0010
,
1000
1000
0001
0001
,
0100
0000
0010
0000
1000
0100
0010
0000
,
0001
0000
0001
0000
0010
0100
1000
0000
,
0010
0000
0010
0000
0100
0001
0100
0000
,
0010
0010
1000
1000
,
0001
0000
1000
0000
0010
0100
0010
0000
,
1000
1000
0001
0001
,
0100
0100
0010
0010
,
1000
1000
0001
0001
,
0100
0000
0100
0000
0001
0010
0100
0000
,
1000
1000
0010
0010
,
0100
0100
0001
0010
,
0100
0000
1000
0000
0001
1000
0000
1001
;

//---------------dance-single - ----------------
#NOTES:
     dance-single:
     :
     Easy:
     3:
     0.292,0.283,0.058,0.058,0.000:
0000
0000
0000
0000
,
0000
0000
0000
0000
,
0000
0000
0000
0000
,
0000
0000
0000
0000
,
0010
1000
0010
0100
,
0001
0100
0000
0000
,
0010
0000
1000
0000
,
0001
0001
1000
1000
,
0000
0000
0000
0000
0010
0010
0000
0000
,
0100
0100
0001
0001
,
1000
1000
0010
0010
,
0100
0100
0001
0001
,
1000
0010
1000
0010
,
0100
0100
0001
0001
,
1000
1000
0010
0010
,
0100
0100
0001
0001
,
2000
0000
0000
3000
,
0010
0000
0010
0000
0010
0000
0000
0100
,
0000
0001
0001
0001
,
1000
0000
0010
0000
1000
0000
0000
0010
,
0000
0100
0001
0100
,
0010
0000
1000
0000
0001
0000
0000
1000
,
0000
0010
0010
0000
,
0100
0000
0001
0000
0100
0000
0000
0001
,
0000
1000
0010
1000
,
0001
0000
0010
0000
0100
0000
0000
1000
,
0000
0010
0010
0100
,
0001
0000
1000
0000
0010
0000
0000
0100
,
0000
0001
1000
0010
,
0100
0000
0001
0000
0001
0000
0000
1000
,
0000
0001
0000
1000
0000
0010
0000
0100
,
0000
0000
0001
0000
1000
0000
0000
0220
,
0000
0000
0000
0000
0000
0330
0000
0000
,
2002
0000
0000
3003
,
0010
0010
0010
0010
,
0100
0100
0100
0000
,
0001
1000
0001
1000
,
0010
0000
0000
0110
0000
0000
0000
0000
,
0001
0001
1000
1000
,
0010
0100
0010
0000
,
1000
0000
0001
0000
1000
0000
0000
1001
,
0000
0000
0000
0000
,
0010
0100
0010
1000
,
0001
0000
0000
1000
0000
0000
0000
0000
,
0010
0010
0100
0100
,
0001
0000
0000
1000
0000
0000
0000
0000
,
0010
0100
0001
1000
,
0001
0000
0000
0100
0000
0000
0000
0000
,
0010
0000
1000
0000
0001
0000
0000
1001
,
0000
0000
0000
0000
,
1000
0010
1000
1000
,
0001
0100
0001
0001
,
1000
0010
0100
0100
,
0001
1000
0010
0010
,
1000
0010
1000
1000
,
0001
0100
0001
0001
,
1000
0010
0100
0100
,
0002
0000
0000
0003
,
1000
1000
0010
0100
,
0001
0001
1000
0010
,
0100
0100
0001
1000
,
0010
0010
0100
0001
,
1000
1000
0010
0100
,
0001
0001
1000
0010
,
0100
0000
0100
0000
0001
0000
0000
1001
;

//---------------dance-single - Copied from----------------
#NOTES:
     dance-single:
     Copied from:
     Beginner:
     1:
     0.086,0.094,0.000,0.000,0.000:
0000
0000
0000
0000
,
0000
0000
0000
0000
,
0000
0000
0000
0000
,
0000
0000
0000
0000
,
0001
0000
0000
0000
,
0001
0000
0000
0000
,
0001
0000
0000
0000
,
0001
0000
0000
0000
0000
0000
0000
0100
,
0000
0000
0000
0000
,
0010
0000
0000
0000
,
0010
0000
0000
0000
,
0010
0000
0000
0000
,
0010
0000
0000
0000
,
1000
0000
0000
0000
,
1000
0000
0000
0000
,
1000
0000
0000
0000
,
1000
0000
0000
0000
,
0001
0000
0000
0000
0000
0000
0000
0001
,
0000
0000
0000
0000
0000
0000
0000
0001
,
0000
0000
0000
0000
0000
0000
0000
0001
,
0000
0000
0000
0000
0000
0000
0000
0100
,
0000
0000
0000
0000
0000
0000
0000
0100
,
0000
0000
0000
0000
0000
0000
0000
0010
,
0000
0000
0000
0000
0000
0000
0000
0010
,
0000
0000
0000
0000
0000
0000
0000
1000
,
0000
0000
0000
0000
0000
0000
0000
1000
,
0000
0000
0000
0000
0000
0000
0000
0001
,
0000
0000
0000
0000
0000
0000
0000
0001
,
0000
0000
0000
0000
0000
0000
0000
0100
,
0000
0000
0000
0000
0000
0000
0000
0100
,
0000
0000
0000
0000
0000
0000
0000
0010
,
0000
0000
0000
0000
0000
0000
0000
0010
,
0000
0000
0000
0000
,
1000
0000
0000
0000
,
1000
0000
0000
0000
,
1000
0000
0000
0000
0000
0000
0000
0001
,
0000
0000
0000
0000
,
0001
0000
0000
0000
,
0010
0000
0000
0000
,
0010
0000
0000
0000
0000
0000
0000
0100
,
0000
0000
0100
0000
,
0000
0000
0000
0000
,
1000
0000
0000
0000
,
1000
0000
0000
0000
,
0010
0000
0000
0000
,
0010
0000
0000
0000
,
0100
0000
0000
0000
,
0100
0000
0000
0000
0000
0000
0000
0001
,
0000
0000
0001
0000
,
0000
0000
0000
0000
,
1000
0000
0000
0000
,
1000
0000
0000
0000
,
1000
0000
0000
0000
,
1000
0000
0000
0000
,
0010
0000
0000
0000
,
0010
0000
0000
0000
,
0010
0000
0000
0000
,
0010
0000
0000
0000
,
0100
0000
0000
0000
,
0100
0000
0000
0000
,
0100
0000
0000
0000
,
0100
0000
0000
0000
,
0001
0000
0000
0000
,
0001
0000
0000
0000
,
0001
0000
0000
0000
,
1000
0000
0000
0000
;
