#TITLE:AwakeSpeedy;
#SUBTITLE:;
#ARTIST:DJ Murasame;
#TITLETRANSLIT:;
#SUBTITLETRANSLIT:;
#ARTISTTRANSLIT:;
#GENRE:;
#CREDIT:SupremeX;
#BANNER:Awake,Speedy.png;
#BACKGROUND:Awake,Speedy-bg.png;
#LYRICSPATH:;
#CDTITLE:CDTitle.png;
#MUSIC:AwakeSpeedy.ogg;
#OFFSET:-5.323844;
#SAMPLESTART:91.660004;
#SAMPLELENGTH:12.000000;
#SELECTABLE:YES;
#BPMS:0.000000=150.000000
;
#STOPS:
;
#BGCHANGES:0.000=light8.avi=1.000=0=0=1=====,
24.000=chase1.avi=1.000=0=0=1=====,
56.000=fire1.avi=1.000=0=0=1=====,
72.000=bubble2.avi=1.000=0=0=1=====,
88.000=fire1r.avi=1.000=0=0=1=====,
104.000=circle9.avi=1.000=0=0=1=====,
120.000=film6.avi=1.000=0=0=1=====,
152.000=chase1.avi=1.000=0=0=1=====,
184.000=circle9.avi=1.000=0=0=1=====,
216.000=disco3.avi=1.000=0=0=1=====,
232.000=film6.avi=1.000=0=0=1=====,
248.000=disco3.avi=1.000=0=0=1=====,
268.000=chase1.avi=1.000=0=0=1=====,
280.000=light8.avi=1.000=0=0=1=====,
296.000=Awake=1.000=0=0=1=====,
99999=-nosongbg-=1.000=0=0=0 // don't automatically add -songbackground-
;
#KEYSOUNDS:;
#ATTACKS:;

//---------------dance-single - ----------------
#NOTES:
     dance-single:
     :
     Hard:
     9:
     0.503502,0.644728,0.093779,0.085964,0.125038,451.000000,439.000000,12.000000,11.000000,0.000000,0.000000,0.503502,0.644728,0.093779,0.085964,0.125038,451.000000,439.000000,12.000000,11.000000,0.000000,0.000000:
0010
0010
1000
1000
,
0001
0001
0200
0300
,
0010
0010
1000
1000
,
0001
0001
2000
3000
,
0100
0100
0010
0010
,
0001
0001
1000
1000
,
0001
0010
0100
1000
0010
1000
0010
0000
,
0100
0001
1000
0100
0010
0001
0100
0000
,
0001
0010
0100
1000
0010
1000
0010
0000
,
0100
0001
0100
0001
0010
0100
1000
0000
,
0010
0100
0010
1000
0100
1000
0010
0000
,
0100
0001
0100
0001
1000
0010
1000
0000
,
0001
0010
0100
1000
0010
0100
0010
0000
,
1000
0100
1000
0010
0100
0010
0100
0000
,
0001
0000
0010
0000
0100
0000
1000
0000
0010
0000
0000
0110
0000
0000
0000
0000
,
0001
0000
0100
0000
0001
0000
0100
0000
0010
0000
0000
1010
0000
0000
0000
0000
,
0100
0000
0001
0000
0100
0000
0001
0000
1000
0000
0000
1001
0000
0000
0000
0000
,
0010
0000
0100
0000
0001
0000
1000
0000
0100
0000
0000
0110
0000
0000
0000
0000
,
0001
0000
0010
0000
0100
0000
1000
0000
0010
0000
0000
1010
0000
0000
0000
0000
,
0100
0000
0010
0000
1000
0000
0001
0000
0100
0000
0000
0101
0000
0000
0000
0000
,
0010
0000
1000
0000
0010
0000
1000
0000
0001
0000
0000
0110
0000
0000
0000
0000
,
1000
0100
1000
0010
0100
0010
1000
0001
,
1000
0000
0010
0000
0100
0001
1000
0000
,
0010
0000
1001
0000
1000
0001
0100
0000
,
0001
0000
0011
0000
0100
1000
0100
0000
,
1100
0000
0010
0000
0001
0100
0001
0000
,
1100
1000
0001
0010
0100
1000
0010
0100
,
0010
1000
0100
1000
0100
0010
0001
1000
,
0001
0010
0100
1000
0010
0100
0010
1000
,
0002
0000
0000
0000
,
1003
0000
0000
1000
0000
0000
0100
0000
0000
0010
0000
0000
0001
0000
0000
0000
,
1000
0001
1000
0000
0010
0100
0010
1000
,
1000
0000
0000
0001
0000
0000
0010
0000
0000
0100
0000
0000
2000
0000
0000
0000
,
0100
0001
0100
3001
,
0001
0000
0000
1000
0000
0000
0100
0000
0000
0010
0000
0000
0001
0000
0000
0000
,
1000
0010
1000
0000
0001
1000
0001
0100
,
0100
0000
0000
0010
0000
0000
1000
0000
0000
0000
0001
0000
0001
0000
0000
0000
,
1000
1000
0010
0010
,
1000
0000
0001
0000
1000
1000
0000
0010
,
0100
0010
0000
1000
0001
1000
0000
0001
,
0010
0100
0000
1000
0100
0010
0000
0001
,
0100
0010
0000
1000
0010
0100
0000
0001
,
1000
0100
0000
0010
0001
0010
0000
0100
,
1000
0100
0000
0010
0100
0001
0000
1000
,
0100
0010
0000
0001
0100
0010
0000
1000
,
0010
1000
0000
0010
0100
0010
1000
0001
,
2000
0100
0100
0100
,
0001
0000
0001
0000
3001
1000
0001
0100
,
0020
1000
1000
1000
,
0100
0000
0100
0000
0130
0010
1000
0001
,
0201
0001
0001
0010
,
0010
0010
0001
0001
,
0302
1000
1000
1000
,
1003
0001
0010
0100
1000
0010
0100
0001
,
1000
0000
0010
0000
1000
0000
0010
0000
0100
0001
0000
0001
0100
0000
0100
0000
,
0001
0000
1000
0000
0001
0000
1000
0010
0000
0010
1000
0000
1000
0000
0001
0000
,
0100
0000
0010
0000
0100
0000
0000
0001
0000
1000
0000
0001
1000
0000
1000
0000
,
0010
0000
0100
0000
0010
0000
0100
0000
0001
0100
0001
0100
0001
0100
0001
0000
,
1000
0000
0100
0000
0010
0000
0001
0000
0100
0000
0001
0000
1000
0010
1000
0010
,
1000
0000
0100
0000
0010
0000
0001
0000
0001
0000
0100
0001
0100
0001
0100
0000
,
0001
0000
0010
0000
0100
0000
1000
0000
0010
0000
1000
0010
0000
0010
0000
0000
,
1000
0000
0100
0000
0010
0000
0001
0000
0100
0010
0000
0010
0100
0000
0010
0000
,
1000
0001
1000
0001
0100
0010
0100
0000
,
0001
0010
0100
1000
0010
0100
0010
0000
,
1000
0100
1000
0010
0100
0010
1000
0000
,
0001
0010
0100
1000
0010
0100
0010
0000
,
1000
0001
0100
0001
1000
0001
0100
0000
,
0010
1000
0010
0100
0010
1000
0010
0100
,
0001
1000
0001
0100
0001
1000
0001
0100
,
0010
0100
0001
0100
0010
0100
0001
0100
,
0020
0000
0000
0000
,
0000
0000
0000
0000
,
2030
0000
0000
0000
,
0000
0000
0000
0000
,
3002
0000
0000
0000
,
0003
0000
0000
0000
;

//---------------dance-single - ----------------
#NOTES:
     dance-single:
     :
     Medium:
     5:
     0.336040,0.359875,0.015630,0.078149,0.027352,301.000000,299.000000,2.000000,10.000000,0.000000,0.000000,0.336040,0.359875,0.015630,0.078149,0.027352,301.000000,299.000000,2.000000,10.000000,0.000000,0.000000:
0001
1000
0001
1000
,
0010
1000
0010
0100
,
0001
0100
0010
1000
,
0010
0100
0001
0000
,
1000
0010
0100
0001
,
1000
0010
0100
0000
,
0001
0001
1000
1000
,
0010
0010
0100
0100
,
0001
1000
0010
1000
,
0001
0100
0010
0100
,
0001
0001
1000
1000
,
0010
0010
0100
0100
,
0001
1000
0010
0100
,
0001
0001
1000
1000
,
0010
0100
0010
0100
,
0001
0000
1000
0000
0001
1000
0001
0000
,
0100
0000
0100
0000
0010
0100
0010
0000
,
1000
0000
1000
0000
0001
0010
0100
0000
,
1000
0000
0010
0000
1000
0010
1000
0000
,
0001
0000
0100
0000
0001
0100
0001
0000
,
1000
0000
0100
0000
0010
0100
0010
0000
,
0001
0100
0010
1000
,
0001
0010
0100
1000
,
0001
1000
0001
1000
,
0010
0100
0001
1000
,
0010
0100
0001
0010
,
0100
1000
1000
1000
,
1000
0001
0001
0001
,
0100
0010
1000
0010
,
0200
0000
0000
0000
0000
0000
0000
0300
,
0001
0000
0000
0001
0000
0000
0001
0000
0000
0001
0000
0000
1000
0000
0000
0000
,
1000
0010
0100
0001
,
1000
0000
0000
1000
0000
0000
1000
0000
0000
1000
0000
0000
1000
0000
0000
0000
,
0010
0000
0100
0000
0220
0000
0000
0330
,
0001
0000
0000
0001
0000
0000
0001
0000
0000
0001
0000
0000
0001
0000
0000
0000
,
1000
0010
0100
0001
,
1000
0000
0000
1000
0000
0000
1000
0000
0000
0000
1000
0000
1000
0000
0000
0000
,
0010
0000
0100
0000
0001
1000
0001
0000
,
0100
0000
0010
0000
1000
1000
0000
0000
,
0001
0001
0000
0000
0100
0100
0000
0000
,
0010
0010
0000
0000
1000
0000
0001
0000
,
0100
0010
1000
0001
,
0100
0000
0000
0000
0010
0010
0000
0000
,
1000
1000
0000
0001
0001
0000
0000
0000
,
0100
0100
0000
0000
0010
0000
1000
0000
,
0010
0100
0001
0100
,
0001
1000
0010
0100
,
0001
1000
0010
0100
,
0002
1000
1000
1000
,
1000
0000
1000
0000
1000
0003
1000
0000
,
0200
0001
0001
0001
,
0001
0001
0001
0301
,
0020
1000
1000
1000
,
1000
0000
1000
0000
1000
0030
1000
0000
,
0001
0000
0100
0000
0010
1000
0010
0000
,
0100
0000
0100
0000
0001
1000
0001
0000
,
0100
0000
0010
0000
1000
0001
1000
0000
,
0010
0000
0100
0000
0010
0100
0010
0100
,
0001
0000
0001
0000
1000
0010
1000
0000
,
0001
0000
0100
0000
0010
0100
0010
0000
,
1000
0000
1000
0000
0001
0100
0001
0000
,
1000
0000
0010
0000
0100
0001
0100
0000
,
0010
1000
0001
0100
,
0010
0010
1000
1000
,
0001
0100
0001
0000
1000
0000
1000
0000
,
0010
0100
0010
0000
1000
0000
0001
0000
,
0100
0010
0100
0000
0001
0000
0001
0000
,
1000
0010
0100
0010
,
0100
0010
0100
0010
,
1000
0001
0100
0010
,
2000
0000
0000
0000
,
0000
0000
0000
3000
,
0002
0000
0000
0000
,
0000
0000
0000
0003
,
2002
0000
0000
0000
,
0000
0000
0000
0000
,
0000
0000
0000
3003
;

//---------------dance-single - ----------------
#NOTES:
     dance-single:
     :
     Easy:
     3:
     0.271288,0.269906,0.007815,0.054704,0.000000,243.000000,242.000000,1.000000,7.000000,0.000000,0.000000,0.271288,0.269906,0.007815,0.054704,0.000000,243.000000,242.000000,1.000000,7.000000,0.000000,0.000000:
1000
1000
1000
1000
,
1000
1000
1000
0000
,
0010
0010
0010
0010
,
0010
0010
0010
0000
,
0100
0100
0100
0100
,
0100
0100
0100
0000
,
0001
0001
0001
0001
,
0001
0001
0001
0001
,
1000
0010
1000
0010
,
1000
0010
1000
0010
,
0100
0001
0100
0001
,
0100
0001
0100
0001
,
1000
0010
1000
0001
,
1000
0010
0100
0001
,
1000
1000
0010
0010
,
0100
0100
0001
0001
,
1000
0010
0100
0100
,
0001
1000
0010
0010
,
0100
0001
1000
1000
,
0010
0100
0001
0001
,
1000
0010
0100
0100
,
0001
1000
0010
0010
,
1000
0000
0001
0000
,
1000
0000
0001
0000
,
1000
0010
0100
0001
,
1000
1000
0010
0010
,
0100
0000
0001
0000
,
1000
0000
0010
0000
,
0100
0001
1000
0010
,
0200
0000
0000
0000
0000
0000
0000
0300
,
0001
1000
0010
1000
,
0001
0100
0010
1000
,
0001
0100
0010
1000
,
0001
0000
0100
0000
0020
0000
0000
0030
,
1000
1000
0001
0001
,
0100
0100
0010
0010
,
1000
0000
0000
0001
0000
0000
1000
0000
,
0010
0100
0010
0100
,
0001
0000
1000
0000
,
0001
0000
1000
0000
,
0001
0000
1000
0000
,
0001
0000
1000
0000
,
0010
0100
0010
0100
,
0010
0100
0010
0100
,
0020
0000
0000
0000
0000
0000
0000
0030
,
0100
0100
0100
0100
,
0001
1000
0001
1000
,
0001
1000
0010
0100
,
0002
0000
0000
0000
,
0000
0000
0000
0000
0000
0003
0000
0000
,
0100
0010
1000
0001
,
0100
0010
1000
0001
,
2000
0000
0000
0000
,
0000
0000
0000
3000
,
0010
0010
0100
0100
,
0001
0001
1000
1000
,
0010
0010
0100
0100
,
0001
0001
1000
1000
,
0010
0100
0001
1000
,
0010
0100
0001
0001
,
1000
0010
0100
0001
,
1000
0010
0100
0001
,
1000
1000
0010
0010
,
0100
0100
0001
0001
,
1000
0010
1000
0001
,
0100
0001
1000
1000
,
0010
0010
0100
0100
,
0001
1000
0010
1000
,
0001
0100
0001
0100
,
0010
1000
0010
1000
,
0001
0000
0000
0000
,
0000
0000
0000
0000
,
1000
0000
0000
0000
,
0000
0000
0000
0000
,
2002
0000
0000
0000
,
0000
0000
0000
0000
,
0000
0000
0000
3003
;

//---------------dance-single - Copied from----------------
#NOTES:
     dance-single:
     Copied from:
     Beginner:
     1:
     0.085964,0.144575,0.000000,0.000000,0.000000,77.000000,77.000000,0.000000,0.000000,0.000000,0.000000,0.085964,0.144575,0.000000,0.000000,0.000000,77.000000,77.000000,0.000000,0.000000,0.000000,0.000000:
1000
0000
0000
0000
,
1000
0000
0000
0000
,
1000
0000
0000
0000
,
1000
0000
0000
0000
,
0001
0000
0000
0000
,
0001
0000
0000
0000
,
0001
0000
0000
0000
,
0001
0000
0000
0000
,
0100
0000
0000
0000
,
0100
0000
0000
0000
,
0010
0000
0000
0000
,
0010
0000
0000
0000
,
0010
0000
0000
0000
,
0010
0000
0000
0000
,
1000
0000
0000
0000
,
0010
0000
0000
0000
,
1000
0000
0000
0000
,
0010
0000
0000
0000
,
0100
0000
0000
0000
,
0001
0000
0000
0000
,
0100
0000
0000
0000
,
0001
0000
0000
0000
,
1000
0000
0000
0000
,
1000
0000
0000
0000
,
0010
0000
0000
0000
,
0010
0000
0000
0000
,
0100
0000
0000
0000
,
0100
0000
0000
0000
,
0001
0000
0000
0000
,
0001
0000
0000
0000
,
1000
0000
0000
0000
,
0000
0000
0000
0000
,
1000
0000
0000
0000
,
0000
0000
0000
0000
,
0010
0000
0000
0000
,
0000
0000
0000
0000
,
0010
0000
0000
0000
,
0000
0000
0000
0000
,
0100
0000
0000
0000
,
0100
0000
0000
0000
,
0001
0000
0000
0000
,
0001
0000
0000
0000
,
1000
0000
0000
0000
,
1000
0000
0000
0000
,
0010
0000
0000
0000
,
0010
0000
0000
0000
,
0100
0000
0000
0000
,
0100
0000
0000
0000
,
0001
0000
0000
0000
,
0001
0000
0000
0000
,
1000
0000
0000
0000
,
1000
0000
0000
0000
,
0010
0000
0000
0000
,
0010
0000
0000
0000
,
0100
0000
0001
0000
,
0100
0000
0001
0000
,
0100
0000
0001
0000
,
0100
0000
0001
0000
,
0010
0000
1000
0000
,
0010
0000
1000
0000
,
0010
0000
1000
0000
,
0010
0000
1000
0000
,
0001
0000
0000
0000
,
1000
0000
0000
0000
,
0001
0000
0000
0000
,
1000
0000
0000
0000
,
0010
0000
0000
0000
,
0100
0000
0000
0000
,
0010
0000
0000
0000
,
0100
0000
0000
0000
,
0001
0000
0000
0000
,
0000
0000
0000
0000
,
1000
0000
0000
0000
,
0000
0000
0000
0000
,
0010
0000
0000
0000
;
