#TITLE:All U Need;
#SUBTITLE:;
#ARTIST:MesoPhunk;
#TITLETRANSLIT:;
#SUBTITLETRANSLIT:;
#ARTISTTRANSLIT:;
#CREDIT:SupremeX;
#BANNER:All U Need.png;
#BACKGROUND:All U Need-bg.png;
#LYRICSPATH:;
#CDTITLE:CDTitle.png;
#MUSIC:All U Need.ogg;
#OFFSET:-3.027;
#SAMPLESTART:3.000;
#SAMPLELENGTH:12.000;
#SELECTABLE:YES;
#BPMS:0.000=175.000;
#STOPS:;
#BGCHANGES:0.000=wave145.avi=1.000=0=0=1,
32.000=wave3.avi=1.000=0=0=1,
60.000=All U Need-bg.png=1.000=0=0=1,
64.000=web1.avi=1.000=0=0=1,
80.500=thunder1.avi=1.000=0=0=1,
96.500=web1.avi=1.000=0=0=1,
112.500=wave3.avi=1.000=0=0=1,
128.000=space1.avi=1.000=0=0=1,
160.000=wind1.avi=1.000=0=0=1,
192.000=spiral3.avi=1.000=0=0=1,
224.000=wave3.avi=1.000=0=0=1,
256.000=spiral3.avi=1.000=0=0=1,
288.000=thunder1.avi=1.000=0=0=1,
319.500=wave145.avi=1.000=0=0=1,
352.000=All U Need-bg.png=1.000=0=0=1,
99999=-nosongbg-=1.000=0=0=0 // don't automatically add -songbackground-
;

//---------------dance-single - ----------------
#NOTES:
     dance-single:
     :
     Hard:
     9:
     0.579,0.583,0.328,0.062,0.012: // measure 1
0010
0000
0110
0000
1000
0001
0100
0000
,  // measure 2
0100
0001
0010
0100
1000
0010
0100
0000
,  // measure 3
0001
0000
1001
0000
1000
0010
1000
0000
,  // measure 4
0001
0010
0100
1000
0010
1000
0001
0000
,  // measure 5
0101
0000
1010
0000
0001
1000
0001
0000
,  // measure 6
0100
0010
1000
0001
1000
0010
0100
0000
,  // measure 7
1001
0000
1001
0000
0010
0100
0010
0000
,  // measure 8
1000
0001
1000
0010
0100
0001
1000
0000
,  // measure 9
1100
0000
1100
0000
0010
0001
0010
0000
,  // measure 10
0100
1000
0100
0010
0001
1000
0010
0000
,  // measure 11
0101
0000
0101
0000
0010
1000
0010
0000
,  // measure 12
0100
0001
1000
0001
0100
0001
1000
0000
,  // measure 13
0110
0000
0110
0000
1000
0100
1000
0000
,  // measure 14
0001
0100
0010
1000
0001
1000
0010
0000
,  // measure 15
0100
0001
1000
0010
0100
0001
1000
0000
,  // measure 16
0001
0010
0001
1000
0010
1000
0001
0000
,  // measure 17
1000
0100
0010
0001
0000
1000
0010
1000
,  // measure 18
0000
0001
0100
0010
0000
0010
1000
0001
,  // measure 19
0000
0001
1000
0010
0000
0010
1000
0001
,  // measure 20
0000
0100
0001
0100
0000
0010
1000
0010
,  // measure 21
0000
0100
0001
1000
0000
1000
0001
0100
,  // measure 22
0000
0100
0010
1000
0000
1000
0001
0100
,  // measure 23
0000
0010
1000
0010
0000
1000
0001
0100
,  // measure 24
0000
0100
0001
1000
0000
0010
1000
0010
,  // measure 25
0000
1000
0100
0010
0000
0001
0100
0001
,  // measure 26
0000
1000
0100
1000
0000
0001
0010
0100
,  // measure 27
0000
1000
0010
1000
0000
0001
0100
0010
,  // measure 28
0000
0010
1000
0001
0000
0001
1000
0010
,  // measure 29
0000
0010
0100
0001
0000
1000
0100
1000
,  // measure 30
0000
0001
0100
0001
0000
1000
0001
0100
,  // measure 31
0000
0010
1000
0001
0100
0010
0100
0001
,  // measure 32
1000
0001
1000
0100
1000
0100
0010
0001
,  // measure 33
0200
0000
0000
0000
,  // measure 34
0320
0000
2030
0000
,  // measure 35
3002
0000
0000
0000
0000
0003
0000
0000
,  // measure 36
0000
0000
0000
0000
,  // measure 37
1000
0000
0000
0000
0010
0000
0000
0100
0000
0000
0000
0000
0001
0000
0000
0000
,  // measure 38
1000
0000
0000
0000
0000
0010
0000
0000
0100
0000
0000
0020
0000
0000
0000
0000
,  // measure 39
0000
0030
2000
0000
0000
0000
0000
0000
,  // measure 40
0000
3000
0002
0000
,  // measure 41
0103
0010
1000
0100
,  // measure 42
0010
0001
0100
0001
,  // measure 43
2000
0010
3010
0010
,  // measure 44
1000
0100
0010
0001
,  // measure 45
1000
0010
0100
0001
,  // measure 46
1000
0001
0010
0100
,  // measure 47
1000
0100
1000
0100
0010
0001
0010
0001
,  // measure 48
1000
0010
1000
0001
0100
0000
1010
0000
,  // measure 49
0101
1000
1100
0010
,  // measure 50
0001
0100
0010
1000
,  // measure 51
0010
0101
0010
1001
,  // measure 52
1000
0110
0001
0011
,  // measure 53
1000
1100
0010
1010
,  // measure 54
0100
0101
1000
1001
,  // measure 55
0001
0101
1000
1010
,  // measure 56
0001
0110
1000
1100
,  // measure 57
0010
0001
0100
0001
0010
0100
1000
0100
,  // measure 58
0010
0001
0100
0000
0010
1000
0010
0000
,  // measure 59
0100
0001
1000
0010
0100
0001
1000
0000
,  // measure 60
0100
0000
0010
0000
0001
1000
0001
0000
,  // measure 61
1000
0100
0010
0001
0000
1010
0000
0101
,  // measure 62
0000
1010
0000
0101
0000
0010
1000
0001
,  // measure 63
1000
0001
0000
0100
0000
1010
0000
1001
,  // measure 64
0000
0100
0000
0110
0000
0001
1000
0001
,  // measure 65
1000
0000
0010
0000
0100
0001
0100
0000
,  // measure 66
0010
0000
0010
0000
1000
0100
1000
0000
,  // measure 67
0001
0000
0001
0000
0100
0010
1000
0000
,  // measure 68
0001
0010
0100
0000
1000
0001
1000
0000
,  // measure 69
0100
0000
0100
0000
0010
0001
0010
0000
,  // measure 70
1000
0001
0100
0000
0100
0010
1000
0000
,  // measure 71
0010
0000
0010
0000
0100
0001
1000
0000
,  // measure 72
0010
0100
0001
1000
0001
1000
0010
0100
,  // measure 73
0001
0000
1000
0000
0010
1000
0010
0000
,  // measure 74
1000
0000
0100
0000
0010
0001
0010
0000
,  // measure 75
0100
0000
1000
0000
0010
1000
0010
0000
,  // measure 76
0100
0001
1000
0010
0100
0001
1000
0000
,  // measure 77
0010
0000
0100
0000
0001
1000
0001
0000
,  // measure 78
0100
0010
0100
0001
1000
0001
0100
0000
,  // measure 79
0010
0000
1000
0000
0001
1000
0001
0000
,  // measure 80
1000
0100
0010
0001
0100
0010
0100
0001
,  // measure 81
1000
0000
1001
0000
0010
1000
0010
0000
,  // measure 82
0100
0001
1000
0010
0100
0001
1000
0000
,  // measure 83
0110
0000
0110
0000
0001
0010
0100
0000
,  // measure 84
1000
0100
0010
0001
1000
0010
1000
0000
,  // measure 85
0101
0000
0101
0000
1000
0010
0100
0000
,  // measure 86
0001
1000
0001
0100
0010
1000
0001
0000
,  // measure 87
1010
0000
1010
0000
0100
0001
0100
0000
,  // measure 88
0010
1000
0100
0010
0001
1000
0010
0000
,  // measure 89
1001
0000
0000
0000
;

//---------------dance-single - ----------------
#NOTES:
     dance-single:
     :
     Easy:
     3:
     0.372,0.343,0.016,0.055,0.000:
1000
1000
0010
0100
,
0010
0100
0001
1000
,
0010
0010
0100
0001
,
1000
0010
0100
0001
,
0100
0100
0010
1000
,
0010
0100
0001
1000
,
0010
0010
0100
0100
,
0001
1000
0010
0100
,
0001
0001
1000
1000
,
0010
0100
0001
1000
,
0010
0010
0100
0100
,
0001
1000
0010
0100
,
0001
1000
0001
1000
,
0010
0100
0010
0100
,
0001
0010
0100
1000
,
0010
0100
0010
1000
,
0001
0100
0010
0100
,
0010
0100
0010
0100
,
0010
1000
0010
1000
,
0010
1000
0010
1000
,
0010
1000
0001
1000
,
0001
1000
0001
1000
,
0001
0100
0001
0100
,
0001
0100
0001
0100
,
0001
0010
0100
1000
,
0010
0100
0010
0100
,
0001
0010
0100
1000
,
0001
0010
0100
1000
,
0010
0100
0010
0100
,
0001
1000
0001
1000
,
0001
0100
0010
0100
,
0010
0100
0001
0100
,
0020
0000
0000
0030
,
2000
0000
0000
3000
0002
0000
0000
0003
,
0200
0000
0300
0000
,
0000
0000
0000
0000
,
1000
0000
0000
0000
,
0001
0000
0000
0000
,
2002
0000
0000
0000
,
0000
0000
0000
3003
,
0010
0010
0100
0100
,
0001
1000
0001
1000
,
0010
0010
0100
0100
,
0001
1000
0010
0100
,
0001
0001
1000
1000
,
0010
0010
0100
0100
,
0001
1000
0001
1000
,
0020
0000
0000
0030
,
0100
0100
0100
0100
,
0100
0100
0100
0100
,
0001
0001
0001
0001
,
0001
0001
0001
0001
,
1000
1000
1000
1000
,
1000
1000
1000
1000
,
0010
0010
0010
0010
,
0010
0010
0010
0010
,
0100
0001
0100
0001
,
0100
0001
0100
0001
,
1000
0010
1000
0010
,
1000
0010
1000
0010
,
0100
0100
0100
0100
,
0100
0100
0100
0100
,
0001
0001
0001
0001
,
0001
0001
0001
0001
,
1000
1000
1000
1000
,
0010
0010
0010
0010
,
0100
0100
0100
0100
,
0001
0001
0001
0001
,
1000
0010
0100
0010
,
0100
0001
0100
0001
,
1000
0100
0010
0001
,
0100
0010
0100
0010
,
0100
0100
0001
0001
,
1000
0100
0010
0001
,
1000
1000
0010
0010
,
0100
0100
0001
0001
,
1000
0100
0010
0001
,
0100
0100
0010
0010
,
1000
0100
0010
0001
,
0100
0010
0100
0001
,
1000
0010
0100
0100
,
0001
1000
0010
0100
,
0001
0001
1000
1000
,
0010
0100
0001
1000
,
0010
0010
0100
0100
,
0001
0010
0100
1000
,
0010
0010
0100
0100
,
0001
1000
0010
0100
,
1001
0000
0000
0000
;

//---------------dance-single - Copied from----------------
#NOTES:
     dance-single:
     Copied from:
     Beginner:
     2:
     0.153,0.172,0.000,0.008,0.000:
0001
0000
0001
0000
,
0001
0000
0001
0000
,
1000
0000
1000
0000
,
1000
0000
1000
0000
,
0010
0000
0010
0000
,
0010
0000
0010
0000
,
0100
0000
0100
0000
,
0100
0000
0100
0000
,
0001
0000
0001
0000
,
0001
0000
0001
0000
,
1000
0000
1000
0000
,
1000
0000
1000
0000
,
0010
0000
0010
0000
,
0010
0000
0010
0000
,
0100
0000
0100
0000
,
0100
0000
0100
0000
,
0001
0000
0000
1000
,
0000
0001
0000
1000
,
0000
0001
0000
1000
,
0000
0001
0000
1000
,
0000
0001
0000
1000
,
0000
0001
0000
1000
,
0000
0001
0000
1000
,
0000
0001
0000
1000
,
0000
0010
0000
0100
,
0000
0010
0000
0100
,
0000
0010
0000
0100
,
0000
0010
0000
0100
,
0000
0001
0000
1000
,
0000
0001
0000
1000
,
0000
0001
0000
1000
,
0000
0000
0000
0000
,
0002
0000
0000
0000
,
0000
0000
0000
0000
,
0003
0000
0000
0000
,
0000
0000
0000
0000
,
0000
1000
0000
0000
0000
0000
0000
0000
,
0000
0000
0000
0000
,
0000
0000
0000
0000
,
0000
0000
0000
0000
,
0010
0000
0000
0000
,
0010
0000
0000
0000
,
0010
0000
0000
0000
,
0000
0000
0000
0000
,
0100
0000
0000
0000
,
0100
0000
0000
0000
,
0100
0000
0000
0000
,
0100
0000
0000
0000
,
0001
0000
0000
0000
,
0001
0000
0000
0000
,
0001
0000
0000
0000
,
0001
0000
0000
0000
,
1000
0000
0000
0000
,
1000
0000
0000
0000
,
1000
0000
0000
0000
,
1000
0000
0000
0000
,
0010
0000
0000
0000
,
0010
0000
0000
0000
,
0010
0000
0000
0000
,
0010
0000
0000
0000
,
0100
0000
0000
0000
,
0100
0000
0000
0000
,
0100
0000
0000
0000
,
0100
0000
0000
0000
,
0001
0000
0001
0000
,
0001
0000
0001
0000
,
0001
0000
0001
0000
,
0001
0000
0001
0000
,
1000
0000
1000
0000
,
1000
0000
1000
0000
,
1000
0000
1000
0000
,
1000
0000
1000
0000
,
0010
0000
0010
0000
,
0010
0000
0010
0000
,
0010
0000
0010
0000
,
0010
0000
0010
0000
,
0100
0000
0100
0000
,
0100
0000
0100
0000
,
0100
0000
0100
0000
,
0100
0000
0100
0000
,
0100
0000
0001
0000
,
1000
0000
0001
0000
,
1000
0000
0001
0000
,
1000
0000
0001
0000
,
1000
0000
0001
0000
,
1000
0000
0001
0000
,
1000
0000
0001
0000
,
1000
0000
0001
0000
,
1000
0000
0000
0000
;

//---------------dance-single - ----------------
#NOTES:
     dance-single:
     :
     Medium:
     6:
     0.407,0.446,0.039,0.039,0.000:
0100
0000
0010
0000
1000
0100
0010
0000
,
0001
0001
1000
0010
,
0100
0000
0100
0000
0001
0010
0100
0000
,
1000
1000
0010
0010
,
0100
0000
0100
0000
0001
1000
0010
0000
,
0100
0001
1000
0001
,
0010
0000
0100
0000
1000
0100
0010
0000
,
0001
0001
1000
1000
,
0010
0000
0010
0000
0100
0001
0100
0000
,
0010
1000
0001
0100
,
0010
0000
1000
0000
0001
0100
0001
0000
,
1000
1000
0010
0010
,
0100
0000
0001
0000
1000
0100
0010
0000
,
0001
0010
0100
1000
,
0010
0000
0100
0000
0001
0100
0001
0000
,
1000
1000
0010
0010
,
0100
0001
0100
0010
,
1000
0010
0100
0001
,
1000
0001
0100
0001
,
1000
0010
1000
0001
,
0100
0010
1000
0001
,
0100
0010
1000
0100
,
0010
0001
0100
0010
,
1000
0010
0100
0001
,
1000
1000
0100
0100
,
0010
0010
0001
0001
,
0010
0100
1000
0100
,
1000
0010
0100
0010
,
1000
0001
1000
0010
,
0100
0010
0100
0001
,
1000
1000
0100
0100
,
0010
0010
0001
0001
,
0200
0000
0000
0000
,
0301
0000
0001
0000
,
1010
0000
0000
0000
,
0000
0000
0000
0000
,
0001
0000
1000
0000
,
0001
0000
0100
0001
,
0000
0000
0000
0000
,
0000
0000
0000
0000
,
1000
1000
0010
0010
,
0100
0001
1000
0001
,
2002
0000
3003
0000
,
1000
0100
0010
0001
,
0100
0100
0010
0010
,
1000
0100
1000
0100
,
0010
0001
0010
0001
,
0100
0100
0010
0010
,
1000
0000
0001
0000
1000
0010
1000
0000
,
0010
1000
0010
1000
,
0100
0010
0001
0100
,
0100
0010
0000
0010
0000
0010
0000
0010
,
0000
1000
0001
1000
0000
1000
0000
1000
,
0000
0010
0000
0100
0000
0001
0100
0001
,
0000
1000
0000
0001
0000
0010
0000
0200
,
0000
0000
0000
0000
0000
0300
0000
0000
,
1000
0100
0010
0001
,
0100
0000
0010
0000
1000
0000
0010
1000
,
0010
0100
0001
0100
,
0010
0000
1000
0000
0010
0000
1000
0100
,
1000
0100
0010
0001
,
1000
0000
0010
0000
1000
0000
0010
0100
,
0001
0010
0100
1000
,
0200
0000
0000
0000
0000
0300
0000
0000
,
0010
0000
0010
0000
0001
0100
0001
0000
,
1000
0000
1000
0000
0010
0100
0010
0000
,
1000
0000
0001
0000
1000
0001
1000
0000
,
0010
0000
1000
0000
0100
0010
0100
0000
,
0001
0000
0001
0000
0010
0100
0010
0000
,
1000
0000
1000
0000
0100
0010
0001
0000
,
0001
0000
0100
0000
0010
0000
1000
0010
,
1000
0100
0100
0010
,
0001
0000
0100
0000
0010
1000
0010
0000
,
0100
0000
0100
0000
0001
1000
0001
0000
,
0100
0000
0100
0000
0001
0010
0100
0000
,
1000
0000
1000
0000
0100
0010
0001
0000
,
0100
0000
0100
0000
0010
1000
0010
0000
,
1000
0000
1000
0000
0100
0010
0001
0000
,
0100
0000
0010
0000
1000
0010
1000
0000
,
0001
0010
0100
1000
,
1001
0000
1001
0000
0010
0100
0010
0000
,
1000
0000
1000
0000
0001
1000
0001
0000
,
0010
0000
0100
0000
1000
0100
1000
0000
,
0100
0010
0001
0001
,
1000
0000
0010
0000
1000
0010
1000
0000
,
0001
0001
0100
0100
,
0010
0000
1000
0000
0010
1000
0010
0000
,
0100
0000
0001
0000
1000
0001
1000
0000
,
1001
0000
0000
0000
;
