#TITLE:ALL I WANNA SAY;
#SUBTITLE:;
#ARTIST:CHERRI;
#TITLETRANSLIT:;
#SUBTITLETRANSLIT:;
#ARTISTTRANSLIT:;
#CREDIT:SupremeX;
#BANNER:ALL I WANNA SAY.png;
#BACKGROUND:ALL I WANNA SAY-bg.png;
#LYRICSPATH:;
#CDTITLE:CDTitle.png;
#MUSIC:ALL I WANNA SAY.ogg;
#OFFSET:-0.023;
#SAMPLESTART:42.760;
#SAMPLELENGTH:12.000;
#SELECTABLE:YES;
#BPMS:0.000=140.000;
#STOPS:;
#BGCHANGES:20.000=water1.avi=1.000=0=0=1,
36.000=fish2.avi=1.000=0=0=1,
52.000=sheep1.avi=1.000=0=0=1,
68.000=helix1.avi=1.000=0=0=1,
84.000=ring10.avi=1.000=0=0=1,
96.000=ALL I WANNA SAY-bg.png=1.000=0=0=1,
100.000=light2.avi=1.000=0=0=1,
108.000=light5.avi=1.000=0=0=1,
116.000=light2.avi=1.000=0=0=1,
125.000=helix1.avi=1.000=0=0=1,
132.000=light2.avi=1.000=0=0=1,
140.000=light5.avi=1.000=0=0=1,
148.000=light2.avi=1.000=0=0=1,
157.000=helix1.avi=1.000=0=0=1,
164.000=water1.avi=1.000=0=0=1,
172.000=fish2.avi=1.000=0=0=1,
180.000=max2.avi=1.000=0=0=1,
196.000=helix1.avi=1.000=0=0=1,
212.000=ALL I WANNA SAY-bg.png=1.000=0=0=1,
216.000=light2.avi=1.000=0=0=1,
225.000=sheep1.avi=1.000=0=0=1,
232.000=light5.avi=1.000=0=0=1,
248.000=ALL I WANNA SAY-bg.png=1.000=0=0=1,
99999=-nosongbg-=1.000=0=0=0 // don't automatically add -songbackground-
;

//---------------dance-single - ----------------
#NOTES:
     dance-single:
     :
     Hard:
     8:
     0.440,0.446,0.277,0.062,0.165:
0000
0000
0000
0000
,
0000
0000
0000
0000
,
0000
0000
0000
0000
,
0000
0000
0000
0000
,
2000
0000
0002
3003
,
0100
0010
0100
0000
1010
0000
0101
0000
,
0010
1000
0010
0000
1100
0000
0011
0000
,
0100
1000
0100
0000
0110
0000
1001
0000
,
0001
0000
0001
0000
1000
0000
0000
0100
1000
0000
0100
0000
0100
0000
0010
0000
,
0001
0000
1100
0000
0001
1000
0001
0000
,
0100
0000
0110
0000
1000
0100
1000
0100
,
0010
0000
0011
0000
0100
0010
0100
0000
,
0001
0000
0010
0000
0100
0000
0000
1000
0100
0000
0000
0000
0000
0000
0000
0000
,
1000
1000
0001
0001
,
0010
0000
0000
0100
0000
0000
2000
0000
0000
0000
3010
0000
0010
0000
0010
0000
,
0000
1000
1000
0001
,
0001
0000
0000
1000
0000
0000
0002
0000
0000
0000
0103
0000
0100
0000
0100
0000
,
0000
0010
1000
0100
0010
0000
0001
0000
,
1000
0000
0000
0010
0000
0000
0200
0000
0000
0000
0310
0000
1000
0000
0010
0000
,
0000
0000
0100
0000
0001
0000
0000
0100
0010
0000
0000
0000
1000
0000
0000
0000
,
0001
0000
0000
0001
0000
0000
1000
0000
1000
0000
0000
0000
0010
0000
0000
0000
,
0101
0000
0000
0010
0000
0000
1000
0000
0001
0000
0000
0100
0000
0000
0001
0000
,
1000
0000
0000
0010
0000
0000
0100
0000
0010
0000
0000
1000
0000
0000
0001
0000
,
1001
0000
0000
0100
0000
0000
0010
0000
0001
0000
0000
1000
0000
0000
0100
0000
,
1000
0000
0000
0100
0000
0000
0010
0000
0010
0000
0000
0000
0000
0000
0000
0000
,
0001
0000
0000
0100
0001
0000
0010
0000
0100
0000
0000
0000
0000
0000
1000
0000
,
0010
0000
0000
0010
0000
0000
1000
0000
0100
0000
0010
0000
0001
0000
0000
0000
,
1000
0000
0000
0010
0100
0000
0001
0000
0001
0000
0000
0000
1000
0000
0010
0000
,
1000
0000
0000
0001
0000
0000
1000
0000
1001
0000
0000
0000
0110
0000
0000
0000
,
0001
0000
0000
1000
0100
0000
1000
0000
1000
0000
0000
0000
0000
0000
0001
0000
,
0100
0000
0000
0100
0000
0000
0010
0000
1000
0000
0100
0000
0010
0000
0001
0000
,
0000
1100
0110
0011
,
1000
0000
0000
0010
0000
0000
1000
0000
0001
0000
0010
0000
0100
0000
0000
0000
,
1000
0000
0000
0010
1000
0000
0010
0000
0100
0000
0000
0000
0000
0000
0010
0000
,
1000
0000
0000
1000
0000
0000
0001
0000
0010
0000
0100
0000
1000
0000
0000
0000
,
0010
0000
0000
0010
1000
0000
0100
0000
0100
0000
0000
0000
0010
0000
0001
0000
,
0010
0000
0000
0100
0000
0000
1000
0000
1100
0000
0000
0000
0110
0000
0000
0000
,
0001
0000
0000
0100
0010
0000
1000
0000
1000
0000
0000
0000
0000
0000
0010
0000
,
0100
0000
0000
0100
0000
0000
0001
0000
1000
0000
0010
0000
0100
0000
0010
0000
,
0000
1100
0110
0011
,
1000
0000
0000
0100
0000
0000
1000
0000
0010
0000
0100
0000
0001
0000
0000
0000
,
1000
0100
1000
0000
0010
0000
1001
0000
,
0001
0100
0001
0000
1000
0000
0110
0000
,
0001
0100
0001
0000
1000
0000
1100
0000
,
1000
0000
1000
0000
0001
0000
0000
0100
0001
0000
0000
0000
0000
0000
0000
0000
,
1000
0010
1000
1001
,
0000
1000
0010
1010
,
0000
0001
0100
0101
,
1000
0000
0001
0000
1000
0010
1000
0000
,
0001
0000
0000
0100
0000
0000
0010
0000
,
1000
0000
0001
0100
,
0001
0000
1000
0010
,
1000
0000
0000
0001
0000
0000
0100
0000
0100
0000
0000
0000
0000
0000
0000
0000
,
2002
0000
0000
3003
,
0100
0000
0000
0010
1000
0000
0001
0000
0001
0000
0000
0000
0000
0000
1000
0000
,
0010
0000
0000
0010
0000
0000
1000
0000
0100
0000
0010
0000
0001
0000
1000
0000
,
0000
0110
0101
1010
,
1000
0100
0010
0001
1000
0001
0100
0000
,
0010
0100
0000
0000
0010
0000
0010
0000
1000
0100
0000
0000
1000
0000
1000
0000
,
0010
0100
0010
1000
0001
1000
0010
0000
,
0100
0001
0000
0000
0100
0000
0100
0000
0010
1000
0000
0000
0010
0000
0010
0000
,
0100
0001
1000
0010
0100
0010
1000
0000
,
0001
0000
0000
1000
0010
0000
1000
0000
0001
0000
0000
0000
0000
0000
0000
0000
;

//---------------dance-single - ----------------
#NOTES:
     dance-single:
     :
     Medium:
     6:
     0.316,0.307,0.009,0.027,0.040:
0000
0000
0000
0000
,
0000
0000
0000
0000
,
0000
0000
0000
0000
,
0000
0000
0000
0000
,
0020
0000
0000
0030
,
0100
0100
0001
0001
,
1000
0010
1000
0000
0100
0000
0010
0000
,
0001
0001
0100
0100
,
0010
0010
1000
0000
1000
0000
0100
0000
,
0010
0001
0100
0001
,
1000
0000
0010
0000
1000
0000
0001
0100
,
0010
1000
0100
1000
,
0010
0000
0000
0000
0100
0000
0000
0010
0100
0000
0000
0000
0000
0000
0000
0000
,
0001
0001
1000
1000
,
0010
0000
0000
0010
0000
0000
0010
0000
0000
0000
0100
0000
0001
0000
0100
0000
,
0000
0010
1000
0010
,
0100
0000
0000
0100
0000
0000
0100
0000
0000
0000
0001
0000
1000
0000
0001
0000
,
0000
0100
0010
1000
,
0001
0000
0000
0001
0000
0000
0001
0000
0000
0000
0100
0000
0010
0000
0100
0000
,
0000
0001
0010
0100
,
1000
0000
0000
0010
0100
0000
0100
0000
,
0001
0000
0000
1000
0010
0000
0000
0100
,
0001
0000
0000
1000
0001
0000
0000
0100
,
0010
0000
0000
1000
0001
0000
0000
0100
,
0001
0000
0000
1000
1000
0000
0000
0000
,
0010
0000
0100
0001
1000
0000
0000
0010
,
0100
0000
0000
0100
0000
0000
0000
0000
0001
0000
0000
0000
0010
0000
0000
0000
,
0100
0000
1000
0100
1000
0000
0010
0100
,
0010
0000
0000
1000
0000
0000
1000
0000
0001
0000
0000
0000
0001
0000
0000
0000
,
0100
0000
0010
1000
0010
0000
0000
0100
,
0001
0000
0000
0100
0000
0000
0000
0000
0010
0000
0000
0000
1000
0000
0000
0000
,
0000
0001
0100
0001
,
1000
0000
0000
0010
0100
0001
1000
0000
,
0010
0000
0100
0001
1000
0000
0000
0010
,
0100
0000
0000
0100
0000
0000
0000
0000
0001
0000
0000
0000
1000
0000
0000
0000
,
0010
0000
1000
0000
0001
0000
0100
0010
,
0100
0000
0001
1000
0001
0000
0100
0000
,
0010
0000
1000
0001
1000
0000
0000
0010
,
0100
0100
0001
1000
,
0000
0001
0100
0010
,
1000
0000
0000
0001
0100
0001
0100
0000
,
0010
0010
1000
1000
,
0001
0100
0001
0000
1000
0000
0010
0000
,
0100
0001
1000
1000
,
0010
0100
0010
0000
0100
0000
0000
0000
,
0001
0010
0001
0100
,
0000
0010
1000
0010
,
0000
0100
0001
0100
,
0010
0000
1000
0000
0001
0100
0001
0000
,
1000
0000
0000
0010
0000
0000
0100
0000
,
0010
0000
1000
0001
,
1000
0000
0010
0100
,
0001
0000
0000
1000
1000
0000
0000
0000
,
2002
0000
0000
3003
,
0001
0000
1000
0100
1000
0000
0000
0001
,
0100
0000
0000
0100
0000
0000
0000
0000
0010
0000
0000
0000
1000
0000
0000
0000
,
0010
0100
0001
0100
,
0010
0000
1000
0000
0001
0100
0010
0000
,
1000
1000
0001
0001
,
0100
0000
0100
0000
0010
1000
0010
0000
,
0100
0001
1000
0100
,
0010
0000
0001
0000
0100
0010
1000
0000
,
0001
0000
0100
0001
1000
0000
0000
0000
;

//---------------dance-single - ----------------
#NOTES:
     dance-single:
     :
     Easy:
     3:
     0.231,0.251,0.018,0.027,0.000:
0000
0000
0000
0000
,
0000
0000
0000
0000
,
0000
0000
0000
0000
,
0000
0000
0000
0000
,
0020
0000
0000
0030
,
1000
1000
0001
0001
,
0100
0100
0010
0010
,
1000
0001
1000
0001
,
0100
0010
0100
0010
,
1000
1000
0001
0001
,
0100
0100
0010
0010
,
1000
0001
1000
0001
,
0100
0010
0100
0000
,
0001
0010
0100
1000
,
0010
0000
0000
0010
0000
0000
0000
0000
,
0000
1000
0100
0010
,
0001
0000
0000
0100
0000
0000
0000
0000
,
0000
0001
0100
0010
,
1000
0000
0000
0010
0000
0000
0000
0000
,
0000
1000
0010
0100
,
0001
0000
1000
1000
,
0010
0000
0100
0000
,
0001
0000
1000
0000
,
0010
0000
0100
0000
,
0001
0000
1001
0000
,
0010
0100
0010
0000
,
1000
1000
0001
0001
,
0100
0010
0100
0000
,
0001
0000
1000
0000
,
0001
0100
0001
0000
,
1000
1000
0010
0010
,
0000
0100
0001
0100
,
0010
1000
0100
0010
,
0001
0010
0001
0000
,
1000
0100
1000
0100
,
0010
0000
0001
0000
,
1000
0010
0100
0100
,
0001
1000
0010
0000
,
0100
0001
1000
1000
,
0000
0010
0100
0001
,
1000
1000
0010
0100
,
0001
0000
1000
0000
,
0010
0100
0001
1000
,
0010
0000
0100
0000
,
0001
0001
0001
0000
,
1000
0000
0010
0000
,
0100
0000
0001
0000
,
1000
0000
0010
0000
,
0100
0001
0100
0010
,
1000
0000
0000
1000
0000
0000
0000
0000
,
0001
0000
0000
0001
0000
0000
0000
0000
,
0100
0000
0000
0100
0000
0000
0000
0000
,
0020
0000
0000
0000
0000
0030
0000
0000
,
2000
0000
0000
3000
,
0001
0100
0001
0000
,
1000
1000
0010
0100
,
0000
0001
0010
0100
,
1000
1000
0010
0100
,
0001
0001
1000
1000
,
0010
0100
0001
1000
,
0010
0010
0100
0100
,
0001
0010
0100
1000
,
0001
0000
1001
0000
;

//---------------dance-single - Copied from----------------
#NOTES:
     dance-single:
     Copied from:
     Beginner:
     2:
     0.084,0.138,0.000,0.000,0.000:
0000
0000
0000
0000
,
0000
0000
0000
0000
,
0000
0000
0000
0000
,
0000
0000
0000
0000
,
0001
0000
0000
0000
,
1000
0000
0000
0000
,
0010
0000
0000
0000
,
1000
0000
0000
0000
,
0010
0000
0000
0000
,
0100
0000
0000
0000
,
0001
0000
0000
0000
,
0100
0000
0000
0000
,
0001
0000
0000
0000
,
1000
0000
0000
0000
,
1000
0000
0000
0000
,
0100
0000
0000
0000
,
0100
0000
0000
0000
,
0010
0000
0000
0000
,
0010
0000
0000
0000
,
0001
0000
0000
0000
,
0001
0000
0000
0000
,
0100
0000
0000
0000
,
0100
0000
0000
0000
,
0010
0000
0000
0000
,
0010
0000
0000
0000
,
1000
0000
0000
0000
,
1000
0000
0000
0000
,
0001
0000
0000
0000
,
0001
0000
0000
0000
,
0100
0000
0000
0000
,
0100
0000
0000
0000
,
0010
0000
0000
0000
,
0010
0000
0100
0000
,
0001
0000
0000
0000
,
0001
0000
0000
0000
,
1000
0000
0000
0000
,
1000
0000
0000
0000
,
0010
0000
0000
0000
,
0010
0000
0000
0000
,
0100
0000
0000
0000
,
0010
0100
0010
0000
,
1000
0000
0000
0000
,
1000
0000
0000
0000
,
0001
0000
0000
0000
,
0001
0000
0000
0000
,
0100
0000
0000
0000
,
0100
0000
0000
0000
,
0100
0000
0000
0000
,
0100
0000
0000
0000
,
0010
0000
0000
0000
,
0010
0000
0000
0000
,
0010
0000
0000
0000
,
0010
0000
0000
0000
,
1000
0000
0000
0000
,
0001
0000
0000
0000
,
0001
0000
0000
0000
,
1000
0000
0000
0000
,
0010
0000
0100
0100
,
0000
0000
0000
0000
,
0001
0000
1000
1000
,
0000
0000
0000
0000
,
0010
0000
0100
0100
,
0100
0000
0000
0000
;
