#TITLE:ACTIVATION;
#SUBTITLE:;
#ARTIST:jun feat. Kathy Sledge;
#TITLETRANSLIT:;
#SUBTITLETRANSLIT:;
#ARTISTTRANSLIT:;
#CREDIT:SupremeX;
#BANNER:ACTIVATION.png;
#BACKGROUND:ACTIVATION-bg.png;
#LYRICSPATH:;
#CDTITLE:cdtitle.png;
#MUSIC:ACTIVATION.ogg;
#OFFSET:-1.797;
#SAMPLESTART:36.174;
#SAMPLELENGTH:12.000;
#SELECTABLE:YES;
#BPMS:0.000=135.930;
#STOPS:;
#BGCHANGES:16.000=8 Moon.avi=1.000=0=0=1,
32.000=rain2.avi=1.000=0=0=1,
48.000=DanceOff_P4.avi=1.000=0=0=1,
64.000=fireworks2.avi=1.000=0=0=1,
80.000=bear3.avi=1.000=0=0=1,
96.000=DanceOff_P4.avi=1.000=0=0=1,
112.000=Bear3R.avi=1.000=0=0=1,
120.000=DanceOff_P4.avi=1.000=0=0=1,
139.500=ACTIVATION-bg.png=1.000=0=0=1,
144.000=fireworks2.avi=1.000=0=0=1,
160.000=8 Moon.avi=1.000=0=0=1,
176.000=ACTIVATION-bg.png=1.000=0=0=1,
99999=-nosongbg-=1.000=0=0=0 // don't automatically add -songbackground-
;

//---------------dance-single - ----------------
#NOTES:
     dance-single:
     :
     Beginner:
     1:
     0.067,0.078,0.000,0.000,0.000:
0000
0000
0000
0000
,
0000
0000
0000
0000
,
0000
0000
0000
0000
,
0000
0000
0000
0000
,
0010
0000
0000
0000
0000
0000
0000
0010
,
0000
0000
0000
0000
,
1000
0000
0000
0000
0000
0000
0000
1000
,
0000
0000
0000
0000
,
0001
0000
0000
0000
0000
0000
0000
0001
,
0000
0000
0000
0000
,
0100
0000
0000
0000
0000
0000
0000
0100
,
0000
0000
0000
0000
,
0010
0000
0000
0000
,
0010
0000
0000
0000
,
0010
0000
0000
0000
,
0000
0000
0000
0000
,
1000
0000
0000
0000
,
1000
0000
0000
0000
,
1000
0000
0000
0000
,
0001
0000
0000
0000
,
0100
0000
0000
0000
,
0100
0000
0000
0000
,
0100
0000
0000
0000
,
0100
0000
0000
0000
,
0100
0000
0000
0000
,
0100
0000
0000
0000
,
0100
0000
0000
0000
,
0100
0000
0000
0000
,
0010
0000
0000
0000
,
0010
0000
0000
0000
,
0010
0000
0000
0000
,
0010
0000
0000
0000
,
1000
0000
0000
0000
,
1000
0000
0000
0000
,
1000
0000
0000
0000
,
1000
0000
0000
0000
,
0001
0000
0000
0000
0000
0000
0000
0001
,
0000
0000
0000
0000
,
0001
0000
0000
0000
0000
0000
0000
0001
,
0000
0000
0000
0000
,
1000
0000
0000
0000
0000
0000
0000
1000
,
0000
0000
0000
0000
,
1000
0000
0000
0000
0000
0000
0000
0010
;

//---------------dance-single - ----------------
#NOTES:
     dance-single:
     :
     Easy:
     3:
     0.222,0.292,0.108,0.072,0.000:
0000
0000
0000
0000
,
0000
0000
0000
0000
,
0000
0000
0000
0000
,
0000
0000
0000
0000
,
1000
0010
0100
0001
,
1000
0010
0100
0000
,
0000
0001
1000
0010
,
0100
0001
1000
0010
,
0000
0100
0001
1000
,
0010
0100
0001
0000
,
0000
1000
0100
0010
,
0001
0100
0010
1000
,
0002
0000
0003
1000
,
2000
0000
0000
0000
0000
3000
0010
0000
,
0100
0000
0000
0010
0010
0000
0000
0000
,
0000
1000
0001
0100
,
0020
0000
0030
1000
,
2000
0000
0000
0000
0000
3000
0001
0000
,
0100
0000
0010
0000
,
1001
0000
0100
0010
,
0110
0000
0000
1001
0000
0000
0010
0000
,
0100
0000
0000
0110
0000
0000
0001
0000
,
1000
0010
0100
0001
,
1000
0010
0010
0100
,
0001
0000
0000
0000
1000
0000
0000
0010
,
0000
0000
0000
0100
0000
0000
0000
0000
,
0001
0000
1000
0000
0010
0000
0000
0100
,
0000
0000
0001
1000
,
1010
0000
0000
0101
0000
0000
1000
0000
,
0011
0000
0000
1100
0000
0000
0010
0000
,
0100
0001
1000
0010
,
0100
0001
0001
1000
,
0020
0000
0000
0030
0100
0000
0000
0001
,
0000
0000
0000
1000
0000
0000
0000
0010
,
0000
0100
0010
0100
,
0002
0000
0000
0003
,
1000
0010
0100
0001
,
0000
0000
1000
0010
,
0100
0001
1000
0010
,
0000
0000
0100
0100
,
0001
1000
0010
0100
,
0000
0000
0001
1000
,
0010
0000
0000
0000
0000
0000
0000
0100
,
0000
0000
0000
0000
,
1001
0000
0000
0000
;

//---------------dance-single - ----------------
#NOTES:
     dance-single:
     :
     Medium:
     5:
     0.243,0.269,0.084,0.084,0.000:
0000
0000
0000
0000
,
0000
0000
0000
0000
,
0000
0000
0000
0000
,
0000
0000
0000
0000
,
1000
0000
0010
0000
1000
0000
0001
0100
,
0000
0100
0010
0000
0010
0000
1000
0000
,
0100
0000
0010
0000
0001
0000
0100
0010
,
0000
0010
1000
0100
,
1000
0000
0001
0000
0100
0000
0010
0010
,
0000
1000
1000
0000
,
0000
0010
0010
0100
,
0001
1000
0010
0100
,
0110
0000
0000
0001
,
1001
0000
0000
1000
,
1000
0000
0000
0001
0001
0000
0000
0000
,
0000
0100
0010
1000
,
0001
0100
0001
1000
,
0010
0100
0001
1000
,
0001
0000
2000
0000
,
3020
0000
0030
0000
,
0100
0000
0000
0101
0000
0000
0000
0000
,
0010
0000
0000
1010
0000
0000
0100
0000
,
0001
0000
1000
0010
0000
1000
0000
1000
,
0000
0001
0000
0001
0000
0000
0100
0000
,
0010
0000
0000
1000
1000
0000
0000
0001
,
0000
0100
0000
0010
0000
0000
0000
1000
,
0000
0000
0010
0000
1000
0000
0000
0001
,
0000
0000
1000
0010
,
1000
0000
0000
1100
0000
0000
0001
0000
,
0100
0000
0000
0011
0000
0000
1000
0000
,
0010
0000
0100
0001
0000
0001
0000
1000
,
0000
0100
0000
1000
0000
0000
0001
0000
,
0001
0000
0000
1000
1000
0000
0000
0010
,
0000
0000
0100
0010
0000
0000
1000
0001
,
0000
0000
1000
0000
0010
0000
1000
0020
,
0000
0000
0000
0000
0000
0030
0000
0000
,
1000
0000
1000
0000
0001
0000
1000
1000
,
0000
0000
0010
1000
,
0001
0000
0100
0000
0001
0000
0100
0100
,
0000
0000
0010
1000
,
0100
0000
0010
0000
0001
0000
1000
1000
,
0000
0000
1000
0010
,
2000
0000
0000
0000
0000
0000
3000
0002
,
0000
0000
0000
0003
,
2002
0000
0000
0000
0000
3003
0000
0000
;

//---------------dance-single - ----------------
#NOTES:
     dance-single:
     :
     Hard:
     7:
     0.413,0.457,0.289,0.289,0.000: // measure 1
0000
0000
0000
0000
,  // measure 2
0000
0000
0000
0000
,  // measure 3
0000
0000
0000
0000
,  // measure 4
0000
0000
0000
0000
,  // measure 5
1000
0000
0001
0010
0100
1000
0010
0200
,  // measure 6
0000
0301
0001
0000
1000
0000
1100
0000
,  // measure 7
0011
0000
1000
0100
0010
0001
0100
0020
,  // measure 8
0000
1030
1000
0000
0101
0000
1001
0000
,  // measure 9
0100
0010
1000
0001
0100
0010
1000
0020
,  // measure 10
0000
0130
0100
0001
1000
0000
0100
0000
,  // measure 11
1100
0000
0010
0001
0010
0100
1000
0200
,  // measure 12
0000
1300
0100
0010
0001
0000
1001
0000
,  // measure 13
0110
0001
0010
1100
,  // measure 14
0011
1001
0110
1000
,  // measure 15
0200
0000
0300
0010
0020
0000
0030
0000
,  // measure 16
0000
0001
0010
0100
1000
0010
1000
0001
,  // measure 17
0100
0000
0010
1000
0010
0000
0100
0000
,  // measure 18
0101
0000
1000
0010
1000
0000
0001
0000
,  // measure 19
0020
0000
0000
0130
0200
0000
0000
1300
,  // measure 20
2000
0000
0000
3000
0010
0000
0101
0000
,  // measure 21
0020
0000
1000
1030
0000
0100
0001
1000
,  // measure 22
0002
0000
0000
0103
0000
0010
0010
0000
,  // measure 23
1000
0000
0010
1000
0000
1100
0000
0110
,  // measure 24
0000
0011
0000
1001
0000
1000
0100
0010
,  // measure 25
0002
0000
0000
0103
0100
0000
0010
1000
,  // measure 26
0000
0100
1000
0100
0000
0000
0010
0010
,  // measure 27
0000
0001
1000
0100
0010
0000
0001
2000
,  // measure 28
0000
3200
0000
0300
0010
0000
0011
0000
,  // measure 29
2000
0000
0000
3100
0000
0010
0001
0000
,  // measure 30
0200
0000
0000
0310
0000
1000
1000
0000
,  // measure 31
0001
0000
0001
0100
0000
1010
0000
0101
,  // measure 32
0000
1001
0000
0110
0000
0001
0010
0100
,  // measure 33
2000
0000
0000
3100
0100
0000
0000
0010
,  // measure 34
0000
0001
0010
0100
0000
0000
1000
1000
,  // measure 35
0000
0010
0100
0010
1000
0000
0010
0200
,  // measure 36
0000
0000
0000
0302
0000
0003
0000
1000
,  // measure 37
1000
0000
0100
0010
0001
0000
0100
0100
,  // measure 38
0010
0000
0010
0000
1000
0010
1000
0001
,  // measure 39
0010
0000
0100
1000
0100
0000
0010
0010
,  // measure 40
0000
0000
0000
0001
0000
1000
0001
0100
,  // measure 41
0010
0000
1000
0100
1000
0000
0001
0001
,  // measure 42
0000
0000
0000
1000
0000
0010
1000
0010
,  // measure 43
0200
0000
0000
0000
0000
0000
0301
2002
,  // measure 44
0000
0000
0000
3003
,  // measure 45
0220
0000
0000
0000
0000
0330
0000
0000
;
