#TITLE:A Midnight Rendezvous;
#SUBTITLE:;
#ARTIST:Shanice;
#TITLETRANSLIT:;
#SUBTITLETRANSLIT:;
#ARTISTTRANSLIT:;
#GENRE:;
#CREDIT:SupremeX;
#BANNER:A Midnight Rendezvous-bn.png;
#BACKGROUND:A Midnight Rendezvous-bg.png;
#LYRICSPATH:;
#CDTITLE:CDTitle.png;
#MUSIC:A Midnight Rendezvous.ogg;
#OFFSET:-3.088138;
#SAMPLESTART:47.410000;
#SAMPLELENGTH:12.000000;
#SELECTABLE:YES;
#BPMS:0.000000=108.000000
;
#STOPS:
;
#BGCHANGES:16.000=Tracy3.avi=1.000=0=0=1=====,
32.000=6 JumpBack.avi=1.000=0=0=1=====,
48.000=silhouette2.avi=1.000=0=0=1=====,
64.000=Tracy3.avi=1.000=0=0=1=====,
80.000=lady3.avi=1.000=0=0=1=====,
88.000=lady5.avi=1.000=0=0=1=====,
96.000=lady4.avi=1.000=0=0=1=====,
104.000=6 JumpBack.avi=1.000=0=0=1=====,
112.000=lady3.avi=1.000=0=0=1=====,
120.000=lady5.avi=1.000=0=0=1=====,
128.000=lady4r.avi=1.000=0=0=1=====,
136.000=silhouette2.avi=1.000=0=0=1=====,
144.000=Tracy3.avi=1.000=0=0=1=====,
160.000=silhouette2.avi=1.000=0=0=1=====,
176.000=lady5.avi=1.000=0=0=1=====,
192.000=A Midnight Rendezvous-bg.png=1.000=0=0=1=====,
99999=-nosongbg-=1.000=0=0=0 // don't automatically add -songbackground-
;
#KEYSOUNDS:;
#ATTACKS:;

//---------------dance-single - ----------------
#NOTES:
     dance-single:
     :
     Hard:
     9:
     0.379290,0.531006,0.203552,0.247803,0.097351,300.000000,277.000000,23.000000,28.000000,0.000000,0.000000,0.379290,0.531006,0.203552,0.247803,0.097351,300.000000,277.000000,23.000000,28.000000,0.000000,0.000000:
0000
0000
0000
0000
,
0000
0000
0000
0000
,
0000
0000
0000
0000
,
0000
0000
0000
0000
,
2000
0000
3002
0000
0103
0010
1000
0001
,
0000
0110
0000
1001
0000
0001
0010
0100
,
2000
0000
3020
0000
1030
0100
0010
0002
,
0000
0000
0103
0000
0100
0000
0000
0000
0010
1000
0000
0000
1010
0000
0000
0000
,
0001
0100
0001
0000
1000
0100
0010
0002
,
0000
0203
0000
0301
0000
1000
0010
0100
,
0001
0000
1001
0000
1000
0001
0010
0200
,
0000
1300
1000
0000
0000
0010
0100
0001
,
1000
2000
0000
0000
3000
0000
1000
0100
,
0010
0001
0100
0001
0000
0100
0010
1000
,
0001
0200
0000
0000
0300
0000
0001
0010
,
0100
1100
0011
1001
,
0010
0020
0000
0000
0000
0030
0000
1000
,
0100
0010
0001
0001
0000
0100
0001
1000
,
0010
0100
0010
0000
0100
0010
0100
0000
0001
1000
0001
0000
1000
0001
1000
0000
,
0010
0100
0010
0000
0100
0010
0100
0000
0010
1000
0010
0000
1000
0010
1000
0000
,
0002
0000
0023
0000
0130
1000
0100
0020
,
0000
0031
0000
0011
0000
0100
1000
0100
,
2000
0000
3100
0000
0010
0001
0010
0200
,
0000
0000
1300
0000
0010
0000
0100
0000
0001
0000
0001
0000
1000
0000
0100
1000
,
0200
0000
0320
0000
0031
0100
0010
1000
,
0000
1010
0000
0101
0000
0010
1000
0001
,
2000
0000
3010
0000
0100
0001
1000
0010
,
1000
0000
0100
0000
0010
0000
0001
0000
0010
0000
0100
0000
1000
0100
1000
0000
,
0002
0000
0103
0001
0010
0100
1000
2000
,
0000
3020
0000
0230
0000
0301
1000
0001
,
2000
0000
3020
0000
0130
0001
1000
0200
,
0000
0310
0001
0100
0010
0010
1000
0000
,
0101
0000
1010
0000
1000
1000
0100
0020
,
0000
0031
0000
0011
0000
1000
0010
1000
,
0002
0000
0103
0100
0001
0001
1000
0100
,
1100
0011
1001
0110
,
1001
0000
0000
1000
0100
0000
0000
1000
0100
0000
0000
0100
0010
0000
0000
0100
,
0010
0000
0000
0010
0001
0000
0000
0010
0001
0000
0000
0000
1001
0000
0000
0000
,
0010
0000
0000
0100
1000
0000
0000
1000
0100
0000
0000
0010
0001
0000
0000
0000
,
0100
0010
0100
0001
1000
0100
0010
0001
,
0001
0000
1000
0000
0010
0100
0010
0000
,
1000
0001
0100
0000
0100
0010
1000
0001
,
1000
0000
0010
0000
1000
0100
0010
0000
,
0001
0000
0000
0000
0110
0000
0000
0001
1000
0000
0001
0000
0100
0000
0010
0100
,
0010
1000
1000
0000
0001
0010
0100
0000
,
1000
0100
1000
0010
0100
0010
1000
0001
,
0101
0000
1010
0000
0001
0100
0001
0000
,
1000
0010
0100
0001
1000
0010
0100
0001
,
1001
0000
0000
0000
;

//---------------dance-single - ----------------
#NOTES:
     dance-single:
     :
     Easy:
     4:
     0.203552,0.212403,0.008850,0.061951,0.000000,161.000000,160.000000,1.000000,7.000000,0.000000,0.000000,0.203552,0.212403,0.008850,0.061951,0.000000,161.000000,160.000000,1.000000,7.000000,0.000000,0.000000:
0000
0000
0000
0000
,
0000
0000
0000
0000
,
0000
0000
0000
0000
,
0000
0000
0000
0000
,
0010
0010
0100
0100
,
0001
0001
1000
1000
,
0010
0010
0100
0001
,
0100
0010
1000
0010
,
0100
0100
0001
0001
,
1000
1000
0010
0010
,
0100
0001
0100
0010
,
1000
0010
0000
1000
,
0002
0000
0003
0100
,
0010
1000
0001
0100
,
0020
0000
0000
0000
0000
0030
1000
0000
,
0001
0100
0010
1000
,
2000
0000
0000
0000
0000
3000
0000
0000
,
0010
0100
0001
1000
,
0020
0000
0030
0100
,
0100
0100
0010
0100
,
0001
0000
0001
0000
1000
0000
0010
1000
,
0000
0001
0000
0001
0000
0000
0100
0000
,
0010
0000
1000
0000
0001
0000
0000
0100
,
0000
0000
0010
0010
0000
0000
1000
0000
,
0001
0000
0100
0000
0010
0000
1000
0001
,
0000
0100
0000
0100
0000
0000
0010
0000
,
0020
0000
0000
0030
0000
0000
1000
0000
,
0001
0100
0001
0010
,
0100
0000
1000
0000
0010
0000
0100
0010
,
0000
0100
0000
0100
0000
0001
0010
0000
,
0100
0000
0100
0000
1000
0000
1000
0010
,
0000
0100
0100
0100
,
0001
0000
0001
0000
1000
0000
0010
0100
,
0000
0100
0000
0001
0000
0000
1000
0000
,
0020
0000
0000
0030
0000
0000
0100
0000
,
0001
1000
0001
0100
,
0010
0010
0010
0010
,
0100
0100
0100
0001
,
0001
0001
0001
0001
,
1000
1000
1000
1000
,
0001
0100
0010
1000
,
0001
0001
0100
0100
,
0010
0010
1000
1000
,
0010
0100
0001
1000
,
0001
0001
0100
0100
,
0010
0010
1000
1000
,
0001
0100
0010
1000
,
0002
0000
0000
0003
,
1001
0000
0000
0000
;

//---------------dance-single - Copied from----------------
#NOTES:
     dance-single:
     Copied from:
     Beginner:
     2:
     0.058158,0.084961,0.000000,0.000000,0.000000,46.000000,46.000000,0.000000,0.000000,0.000000,0.000000,0.058158,0.084961,0.000000,0.000000,0.000000,46.000000,46.000000,0.000000,0.000000,0.000000,0.000000:
0000
0000
0000
0000
,
0000
0000
0000
0000
,
0000
0000
0000
0000
,
0000
0000
0000
0000
,
0010
0000
0000
0000
0000
0000
0000
0010
,
0000
0000
0000
0000
,
0100
0000
0000
0000
0000
0000
0000
0100
,
0000
0000
0000
0000
,
0001
0000
0000
0000
0000
0000
0000
0001
,
0000
0000
0000
0000
,
1000
0000
0000
0000
0000
0000
0000
1000
,
0000
0000
0000
0000
,
0010
0000
0000
0000
,
0100
0000
0000
0000
,
0010
0000
0000
0000
,
0100
0000
0000
0000
,
0010
0000
0000
0000
,
0100
0000
0000
0000
,
0010
0000
0000
0000
,
0100
0000
0000
0000
,
0001
0000
0000
0000
0000
0000
0000
1000
,
0000
0000
0000
0000
,
0001
0000
0000
0000
0000
0000
0000
1000
,
0000
0000
0000
0000
,
0010
0000
0000
0000
0000
0000
0000
0100
,
0000
0000
0000
0000
,
0010
0000
0000
0000
,
0100
0000
0100
0000
,
0001
0000
0000
0000
0000
0000
0000
0001
,
0000
0000
0000
0000
,
1000
0000
0000
0000
0000
0000
0000
1000
,
0000
0000
0000
0000
,
0010
0000
0000
0000
0000
0000
0000
0010
,
0000
0000
0000
0000
,
0100
0000
0000
0000
,
0100
0000
0000
0000
,
0001
0000
0000
0000
,
1000
0000
0000
0000
,
0001
0000
0000
0000
,
1000
0000
0000
0000
,
0010
0000
0000
0000
,
0100
0000
0000
0000
,
0010
0000
0000
0000
,
0100
0000
0000
0000
,
0001
0000
0000
0000
,
1000
0000
0000
0000
,
0001
0000
0000
0000
,
1000
0000
0000
0000
,
0001
0000
0000
0000
;

//---------------dance-single - ----------------
#NOTES:
     dance-single:
     :
     Medium:
     8:
     0.265503,0.361084,0.044251,0.079651,0.000000,210.000000,205.000000,5.000000,9.000000,0.000000,0.000000,0.265503,0.361084,0.044251,0.079651,0.000000,210.000000,205.000000,5.000000,9.000000,0.000000,0.000000:
0000
0000
0000
0000
,
0000
0000
0000
0000
,
0000
0000
0000
0000
,
0000
0000
0000
0000
,
1000
0000
1000
0000
0010
0000
0010
0100
,
0000
0100
0000
0001
0000
0001
1000
0000
,
0010
0000
1000
0000
0001
0100
0100
0010
,
0000
0010
1000
0000
1000
0000
0001
0000
,
0100
0000
0100
0000
0010
0000
1000
0100
,
0000
0010
0000
0001
0000
1000
0100
1000
,
0100
0000
0010
0000
0001
0000
0100
0010
,
0000
1000
1000
0000
0000
0000
0001
0000
,
0100
0200
0000
0000
0300
0000
0010
0000
,
1000
0000
0010
0010
0000
0000
0100
0000
,
0001
2000
0000
0000
3000
0000
0010
0000
,
1000
1010
1001
0101
,
0001
0002
0000
0000
0000
0003
0000
0000
,
0100
0000
0010
0010
0000
0000
1000
0000
,
0010
0100
0010
0100
0001
0010
0001
0010
,
0100
1000
0100
1000
0001
0010
0100
1000
,
0010
0000
0100
0000
0001
0000
0001
1000
,
0000
0100
0000
0010
0000
0000
0001
0000
,
1000
0000
1000
0000
0010
0000
0100
0100
,
0000
0001
0000
0001
0000
1000
0010
0100
,
0010
0000
1000
0000
0001
0000
0100
0010
,
0000
1000
0000
1000
0000
0001
0100
0001
,
0100
0000
0010
0000
1000
0000
0001
0100
,
0001
0000
1000
0000
1000
0010
0100
0100
,
0002
0000
0003
0000
0100
0000
0010
2000
,
0000
3020
0000
0130
0000
0100
0001
0000
,
0002
0000
0003
0000
0100
0000
0010
2000
,
0000
3000
0100
0010
0000
0010
0001
0000
,
0001
0000
1000
0000
1000
0000
0100
0020
,
0000
0030
0000
0100
0000
0001
0010
0100
,
1000
0010
0100
0001
,
1000
0100
0010
0001
,
0100
0010
1000
0010
,
0100
0001
1000
0001
,
0010
0100
1000
0010
,
0100
0001
1000
0100
,
1000
0000
0010
0000
0100
0001
0001
0000
,
1000
0000
0100
0000
1000
0010
0100
0000
,
0100
0000
0001
0000
1000
0010
1000
0000
,
0001
0000
0101
0000
0010
0100
1000
0010
,
0100
0010
0100
0000
0001
0010
0001
0000
,
1000
0000
1000
0000
0010
0000
0010
0100
,
0001
0000
1001
0000
1000
0100
1000
0000
,
0010
0000
0100
0000
0010
1000
0001
0010
,
0100
0000
0000
0000
;
