#VERSION:0.83;
#TITLE:true...(Trance Sunrise Mix);
#SUBTITLE:;
#ARTIST:小坂りゆ;
#TITLETRANSLIT:;
#SUBTITLETRANSLIT:;
#ARTISTTRANSLIT:RIYU KOSAKA;
#GENRE:;
#ORIGIN:;
#CREDIT:;
#BANNER:true...(Trance Sunrise Mix).png;
#BACKGROUND:true...(Trance Sunrise Mix)-bg.png;
#PREVIEWVID:;
#JACKET:true...(Trance Sunrise Mix)-jacket.png;
#CDIMAGE:;
#DISCIMAGE:;
#LYRICSPATH:;
#CDTITLE:;
#MUSIC:true...(Trance Sunrise Mix).ogg;
#OFFSET:0.000000;
#SAMPLESTART:57.830002;
#SAMPLELENGTH:15.000000;
#SELECTABLE:YES;
#DISPLAYBPM:140.000000;
#BPMS:0.000=139.291,
4.000=140.004;
#STOPS:;
#DELAYS:;
#WARPS:;
#TIMESIGNATURES:0.000=4=4;
#TICKCOUNTS:0.000=4;
#COMBOS:0.000=1;
#SPEEDS:0.000=1.000=0.000=0;
#SCROLLS:0.000=1.000;
#FAKES:;
#LABELS:0.000=Song Start;
#BGCHANGES:;
#KEYSOUNDS:;
#ATTACKS:
;

//---------------dance-single - ----------------
#NOTEDATA:;
#CHARTNAME:;
#STEPSTYPE:dance-single;
#DESCRIPTION:;
#CHARTSTYLE:;
#DIFFICULTY:Beginner;
#METER:2;
#RADARVALUES:0.087331,0.152829,0.000000,0.000000,0.000000,60.000000,60.000000,0.000000,0.000000,0.000000,0.000000,0.000000,0.000000,0.000000,0.087331,0.152829,0.000000,0.000000,0.000000,60.000000,60.000000,0.000000,0.000000,0.000000,0.000000,0.000000,0.000000,0.000000;
#CREDIT:;
#DISPLAYBPM:140.000000;
#NOTES:
0000
0000
0000
0000
,
0000
0000
0000
0000
,
0000
0000
0000
0000
,
0000
0000
0000
0000
,
0000
0000
0000
0000
,
0000
0000
0000
0000
,
0100
0000
0000
0000
,
0100
0000
0000
0000
,
0001
0000
0000
0000
,
1000
0000
0000
0000
,
0010
0000
0000
0000
,
1000
0000
0000
0000
,
0001
0000
0000
0000
,
0100
0000
0000
0000
,
0010
0000
0000
0000
,
0010
0000
0000
0000
,
0010
0000
0000
0000
,
0010
0000
0000
0000
,
1000
0000
0000
0000
,
0100
0000
0000
0000
,
0001
0000
0000
0000
,
0100
0000
0000
0000
,
0001
0000
0000
0000
,
0001
0000
1000
1000
,
1000
0000
0000
0000
,
0001
0000
0000
0000
,
0100
0000
0000
0000
,
0100
0000
0000
0000
,
0010
0000
0000
0000
,
0010
0000
0000
0000
,
1000
0000
1000
0000
,
1000
0000
1000
0000
,
0001
0000
0001
0000
,
0001
0001
0001
0000
,
1000
0000
0000
0000
,
0001
0000
0000
0000
,
0100
0000
0000
0000
,
0010
0000
0000
0000
,
1000
1000
0000
0000
,
0001
0001
0000
0000
,
0100
0000
0100
0000
,
0010
0000
0010
0000
,
1000
0000
0000
0000
,
0001
0000
0000
0000
,
0010
0000
0000
0000
,
0100
0000
0000
0000
,
0001
0000
1000
0000
,
0001
0000
1000
0000
,
0001
0000
1000
1000
,
1000
0000
0000
0000
,
0010
0000
0000
0000
,
0000
0000
0000
0000
;

//---------------dance-single - ----------------
#NOTEDATA:;
#CHARTNAME:;
#STEPSTYPE:dance-single;
#DESCRIPTION:;
#CHARTSTYLE:;
#DIFFICULTY:Easy;
#METER:4;
#RADARVALUES:0.167384,0.254715,0.030566,0.050943,0.000000,115.000000,112.000000,3.000000,5.000000,0.000000,0.000000,0.000000,0.000000,0.000000,0.167384,0.254715,0.030566,0.050943,0.000000,115.000000,112.000000,3.000000,5.000000,0.000000,0.000000,0.000000,0.000000,0.000000;
#CREDIT:;
#DISPLAYBPM:140.000000;
#NOTES:
0000
0000
0000
0000
,
0000
0000
0000
0000
,
0000
0000
0000
0000
,
0000
0000
0000
0000
,
0000
0000
0000
0000
,
0000
0000
0000
0000
,
0001
0000
0100
0000
,
1000
0000
0100
0000
,
0100
0000
0100
0000
,
1000
1000
1000
0000
,
0001
0000
0100
0000
,
1000
0000
0100
0000
,
0010
0010
0001
0001
,
0100
0100
0100
0000
,
1001
0000
0100
0000
,
0001
0000
0100
0000
,
1000
0000
0100
0000
,
0001
0001
0001
0000
,
1001
0000
0001
0000
,
1000
0000
1000
0000
,
0001
0000
0100
0000
,
0010
0010
0010
0000
,
1000
0000
0100
0000
,
0001
0000
0100
0000
,
1000
1000
0010
0010
,
0100
0001
0100
0000
,
0002
0003
0100
0000
,
2000
3000
0100
0000
,
0020
0030
0100
0000
,
0020
0030
0100
0000
,
0001
0000
0100
0000
,
1000
0000
0100
0000
,
0001
0100
1000
0100
,
0001
0001
0001
0000
,
1001
0100
0001
0100
,
1000
0100
0001
0100
,
1000
0000
0100
0000
,
0001
0000
0100
0000
,
0010
0010
0000
0000
,
0100
0100
0000
0000
,
0001
0000
1000
0000
,
0010
1000
0100
0000
,
0001
0000
0100
0000
,
1000
1000
0100
0000
,
0010
0000
0001
0000
,
1000
1000
0100
0000
,
0001
0100
1000
0100
,
0001
0100
1000
0100
,
0001
0000
1000
1000
,
0200
0000
0000
0300
,
0010
0000
0000
0000
,
0000
0000
0000
0000
;

//---------------dance-single - ----------------
#NOTEDATA:;
#CHARTNAME:;
#STEPSTYPE:dance-single;
#DESCRIPTION:;
#CHARTSTYLE:;
#DIFFICULTY:Medium;
#METER:7;
#RADARVALUES:0.285281,0.395445,0.203772,0.163017,0.020377,196.000000,176.000000,20.000000,16.000000,0.000000,0.000000,0.000000,0.000000,0.000000,0.285281,0.395445,0.203772,0.163017,0.020377,196.000000,176.000000,20.000000,16.000000,0.000000,0.000000,0.000000,0.000000,0.000000;
#CREDIT:;
#DISPLAYBPM:140.000000;
#NOTES:
0000
0000
0000
0000
,
0000
0000
0000
0000
,
0000
0000
0000
0000
,
0000
0000
0000
0000
,
0001
0001
1000
1000
,
0010
0010
1000
0100
,
1001
0000
0100
0000
0010
0001
0100
0000
,
1001
0000
0100
0000
0001
1000
0100
0000
,
1001
0100
1001
0100
,
0001
1000
0010
0100
,
1001
0100
0001
0100
,
1001
0100
1000
0100
,
0001
0001
1000
1000
,
0010
0000
0010
0000
0010
1000
0100
0000
,
0010
1001
1001
1001
,
0100
1001
1001
1001
,
0010
0100
0110
1001
,
0010
0100
2002
3003
,
0010
0100
1000
0100
,
0010
0100
0001
0100
,
0010
0100
1000
0100
,
0010
0100
0001
0100
,
1001
0000
0100
0000
0010
1000
0100
0000
,
1001
0000
0100
0000
0010
0001
0100
0000
,
1000
0100
1000
0000
0001
0100
0001
0000
,
0010
0000
1000
0000
0010
1000
0100
0000
,
0002
0000
0003
0100
0010
0000
0000
0000
,
2000
0000
3000
0100
0010
0000
0000
0000
,
0002
0000
0003
0100
0001
0000
0000
0000
,
2000
0000
3000
0100
1000
0000
0000
0000
,
0010
0010
0100
0100
,
1000
1000
0100
0100
,
0001
0100
1000
0100
,
0010
0000
0000
0001
0000
0000
0001
0000
0001
0000
0000
0000
0000
0000
0000
0000
,
1001
0000
0100
0000
0010
1000
0100
0000
,
1001
0000
0100
0000
0010
0001
0100
0000
,
1000
0100
0001
0100
,
1000
0000
0000
0000
1000
0000
0001
0000
0000
0000
1000
0000
0000
0100
0000
0000
,
0200
0000
0000
0300
,
0100
0001
0100
1000
,
0100
0001
0100
1000
,
0001
0000
0000
0001
0000
0000
0002
0000
0000
0000
0000
0000
0003
0000
0000
0000
,
2000
0000
0000
3000
,
0200
0000
0000
0300
,
1000
0100
0001
0100
,
1000
0000
0000
0000
1000
0000
0100
0000
0000
0000
0001
0000
0000
0001
0000
0000
,
0002
0000
0000
0003
,
0010
0100
0001
0100
,
2000
3000
0010
0100
,
0002
0000
0000
0003
,
0220
0000
0000
0330
,
2000
0000
0000
3000
,
0000
0000
0000
0000
;

//---------------dance-single - ----------------
#NOTEDATA:;
#CHARTNAME:;
#STEPSTYPE:dance-single;
#DESCRIPTION:;
#CHARTSTYLE:;
#DIFFICULTY:Hard;
#METER:11;
#RADARVALUES:0.474497,0.527260,0.213960,0.122263,0.198678,326.000000,305.000000,21.000000,12.000000,0.000000,0.000000,0.000000,0.000000,0.000000,0.474497,0.527260,0.213960,0.122263,0.198678,326.000000,305.000000,21.000000,12.000000,0.000000,0.000000,0.000000,0.000000,0.000000;
#CREDIT:;
#DISPLAYBPM:140.000000;
#NOTES:
0000
0000
0000
0000
,
0000
0000
0000
0000
,
0000
0000
0000
0000
,
0000
0000
0000
0000
,
0010
1000
0100
0000
0010
0001
0100
0000
,
0010
1000
0100
0010
0001
0000
0110
0000
,
0001
0000
0101
0000
0010
1000
0001
0010
,
0100
0000
1100
0000
0010
0001
0100
0010
,
1000
0101
1000
0110
,
0001
0010
0100
1000
0010
0100
0001
0000
,
0010
0000
1100
0000
0001
0010
0100
1000
,
0001
0000
0110
0000
1000
0010
0100
0001
,
0010
1100
0001
0110
,
1000
0100
0001
0100
1000
0000
0110
0000
,
1001
0000
0000
0100
0010
0000
0001
0000
0100
0000
1000
0000
0100
0000
0001
0000
,
0110
0000
0000
0001
1000
0000
0100
0000
0010
0000
0001
0000
0100
0000
0001
0000
,
1010
0000
0000
0010
0100
0000
0001
0000
0010
0000
0100
0000
1000
0000
0001
0000
,
0110
0000
0000
1000
0100
0000
0010
0000
0001
0000
0100
0000
0001
0000
0000
0000
,
1100
0000
0000
0001
0100
0000
0010
0000
0000
0000
1000
0000
0000
0000
0100
0000
,
1001
0000
0000
0100
0001
0000
0010
0000
0000
0000
0100
0000
0000
0000
0001
0000
,
0200
0000
0300
0010
0000
1000
0000
0100
,
0010
0000
0000
0001
0100
0000
0010
0000
0000
0000
1000
0000
0000
0000
0100
0000
,
1001
0000
0000
0010
0100
0000
0001
0000
0000
0000
1000
0000
0000
0000
0010
0000
,
0110
0000
0000
0001
0100
0000
0010
0000
0000
0000
0100
0000
0000
0000
1000
0000
,
0101
0000
0000
0010
1000
0000
0001
0000
0000
0000
0001
0000
0000
0000
0100
0000
,
1001
0000
0000
0010
0100
0000
0001
0000
0000
0000
1000
0000
0000
0000
1000
0000
,
0100
0010
0001
0100
0010
1000
0100
0000
,
1000
0010
0100
0001
0010
0100
1000
0000
,
0001
0100
1000
0100
0001
1000
0100
0000
,
0010
0001
0100
1000
0100
0001
0010
0000
,
0001
0100
0001
1000
0010
0100
0001
0000
,
0010
1000
0100
0001
0100
1000
0010
0000
,
0100
0001
0010
0100
1000
0010
0001
0010
,
1000
0100
0010
0001
0200
0000
0300
0000
,
0010
0000
0000
1000
0100
0000
0000
0100
0001
0000
0000
0001
0100
0000
0000
0100
,
1000
0000
0000
1000
0010
0000
0000
0010
0001
0000
0000
0001
0010
0000
0000
0010
,
1000
0000
0000
1000
0100
0000
0000
0100
0010
0000
0000
0010
0001
0000
0000
0001
,
0010
0000
0000
0010
1000
0000
0000
1000
0010
0000
0000
0010
0001
0000
0000
0001
,
0100
0000
0000
0100
1000
0000
0000
1000
0100
0000
0000
0100
0001
0000
0000
0001
,
0010
0000
0000
0010
0100
0000
0000
0100
1000
0000
0000
1000
0001
0000
0000
0001
,
1000
0000
0000
1000
0010
0000
0000
0010
0100
0000
0000
0100
0001
0000
0000
0000
,
1000
0000
0000
1000
0000
0000
2000
0000
0000
0000
0000
0000
3000
0000
0000
0000
,
0010
1000
0001
0010
0100
1000
0002
0000
,
0103
0010
1000
0100
0010
0100
2000
0000
,
3010
0100
0001
0010
0100
1000
0002
0000
,
0013
0100
1000
0001
0100
0001
2000
0000
,
3010
0100
0002
0000
0013
0100
2000
0000
,
3010
0100
0001
0010
0100
1000
0002
0000
,
0013
0100
1000
0010
0100
0001
0010
0100
,
1000
0010
0100
0001
0010
0100
1000
0001
,
0220
0000
0000
0000
,
0000
0000
0000
0330
,
0000
0000
0000
0000
;

//---------------dance-double - ----------------
#NOTEDATA:;
#CHARTNAME:;
#STEPSTYPE:dance-double;
#DESCRIPTION:;
#CHARTSTYLE:;
#DIFFICULTY:Easy;
#METER:4;
#RADARVALUES:0.181939,0.237267,0.000000,0.020377,0.000000,125.000000,125.000000,0.000000,2.000000,0.000000,0.000000,0.000000,0.000000,0.000000,0.181939,0.237267,0.000000,0.020377,0.000000,125.000000,125.000000,0.000000,2.000000,0.000000,0.000000,0.000000,0.000000,0.000000;
#CREDIT:;
#DISPLAYBPM:140.000000;
#NOTES:
00000000
00000000
00000000
00000000
,
00000000
00000000
00000000
00000000
,
00000000
00000000
00000000
00000000
,
00000000
00000000
00000000
00000000
,
00000000
00000000
00000000
00000000
,
00000000
00000000
00000000
00000000
,
10000000
00000000
01000000
00000000
,
00010000
00000000
00001000
00000000
,
00010000
00000000
01000000
00000000
,
00010000
00001000
00000100
00000000
,
00000001
00000000
00000100
00000000
,
00001000
00000000
00000100
00000000
,
00001000
00010000
01000000
00000000
,
10000000
00000000
00100000
00100000
,
00100000
10000000
01000000
00010000
,
00001000
00010000
01000000
10000000
,
00100000
10000000
01000000
00010000
,
00001000
00001000
00010000
00000100
,
00001000
00001000
00000010
00000100
,
00000001
00000001
00000010
00000100
,
00001000
00001000
00010000
00100000
,
01000000
00000000
01000000
00000000
,
10000000
00000000
01000000
01000000
,
00010000
00000000
00001000
00001000
,
00000100
00000000
00000001
00000000
,
00000100
00001000
00010000
00000000
,
10000000
00000000
01000000
00000000
,
00010000
00000000
00001000
00000000
,
00000100
00000000
00000001
00000000
,
00000010
00000000
00000100
00000100
,
00001000
00000000
00000100
00000000
,
00010000
00000000
00001000
00000000
,
00100000
00100000
01000000
01000000
,
10000000
10000000
10000000
00000000
,
10000000
01000000
00100000
00010000
,
00001000
00010000
00001000
00000100
,
00000001
00000001
00000010
00000010
,
00000100
00001000
00000001
00000100
,
00000100
00000000
00000000
00000000
,
00001000
00000000
00010000
00000000
,
00100000
00000000
10000000
00000000
,
01000000
00010000
00001000
00000000
,
00000010
00000000
00000100
00000000
,
00001000
00010000
01000000
00000000
,
00100000
00000000
01000000
00000000
,
00010000
00001000
00000100
00000000
,
00000001
00000000
00000000
00000000
,
00000100
00000000
00001000
00000000
,
00010000
01000000
10000000
00000000
,
00100000
10000000
01000000
00000000
,
00020000
00000000
00000000
00030000
,
00002000
00000000
00000000
00003000
,
00000000
00000000
00000000
00000000
;

//---------------dance-double - ----------------
#NOTEDATA:;
#CHARTNAME:;
#STEPSTYPE:dance-double;
#DESCRIPTION:;
#CHARTSTYLE:;
#DIFFICULTY:Medium;
#METER:9;
#RADARVALUES:0.359512,0.421808,0.244526,0.071320,0.000000,247.000000,223.000000,24.000000,7.000000,0.000000,0.000000,0.000000,0.000000,0.000000,0.359512,0.421808,0.244526,0.071320,0.000000,247.000000,223.000000,24.000000,7.000000,0.000000,0.000000,0.000000,0.000000,0.000000;
#CREDIT:;
#DISPLAYBPM:140.000000;
#NOTES:
00000000
00000000
00000000
00000000
,
00000000
00000000
00000000
00000000
,
00000000
00000000
00000000
00000000
,
00000000
00000000
00000000
00000000
,
00000010
00000001
00000100
00001000
,
00010000
01000000
10000000
10000000
,
11000000
00100000
00001000
00010000
,
00001000
00000000
00000100
00000000
00000001
00001000
00000100
00000000
,
00010000
00001000
00000100
00000000
00001000
00010000
01000000
00000000
,
10000000
00010000
00100000
00011000
,
00000010
00001000
00000100
00000000
00000001
00000000
00000101
00000000
,
00001000
00000001
00000100
00000000
00001000
00000000
00011000
00000000
,
00100000
00010000
01000000
00000000
00100000
10000000
01000000
00000000
,
00010000
00000000
00001000
00000000
00001000
00000100
00000001
00000000
,
00000001
00000100
00001000
00010000
,
01000000
10000000
00010000
01000000
,
10000000
01000000
00010000
00001000
,
00000100
00000001
00001000
00000100
,
00000101
00000000
00001000
00000000
00001000
00000100
00000001
00000000
,
00000001
00000100
00001000
00000000
00001000
00010000
01000000
00000000
,
01000000
10000000
00100000
00000000
00100000
10000000
01000000
00000000
,
01000000
00010000
00001000
00000000
00001000
00000100
00000001
00000000
,
00001001
00000000
00000100
00000000
00001000
00010000
01000000
00000000
,
00011000
00000000
01000000
00000000
00010000
10000000
01000000
00000000
,
10010000
01000000
00011000
00000100
,
00001001
00000100
00011000
01000000
,
00100000
10000000
01000000
10000000
00010000
00000000
01010000
00000000
,
00001000
00010000
00001000
00000100
00000001
00000000
00001100
00000000
,
00000010
00000001
00000100
00001000
00010000
00000000
00010100
00000000
,
00001000
00010000
01000000
10000000
00100000
00000000
01010000
00000000
,
00100000
10000000
01000000
10000000
00010000
00000000
11000000
00000000
,
00010000
00001000
00000010
00000001
00000100
00000000
00001100
00000000
,
00000001
00000100
00001000
00000000
00001000
00010000
01000000
00000000
,
01000000
00010000
00001000
00000000
00011000
00000000
00010100
00000000
,
00000110
00000000
00000001
00000000
00000001
00001000
00000100
00000000
,
00010000
00000000
00001000
00000000
00001000
00010000
01000000
00000000
,
10000000
01000000
00010000
01000000
,
10000000
00000000
01000000
00000000
01000000
00010000
00001000
00000000
,
00001000
00000000
00000100
00000000
00000001
00000010
00000100
00000000
,
00000100
00010000
00001000
01000000
,
00100000
00100000
10000000
10000000
,
01000000
00000000
00010000
00000000
00001000
00000100
00000001
00000000
,
00001001
00000100
00011000
01000000
,
10010000
01000000
00011000
00000100
,
00000002
00000003
00000200
00000300
,
00001000
00010000
02000000
03000000
,
20000000
30000000
00200000
00300000
,
00010000
00001000
00000010
00000001
,
00000001
00001000
00000100
00000000
00010000
00001000
01000000
00000000
,
00100000
10000000
01000000
00010000
00001000
00010000
01000000
00000000
,
00020000
00000000
00000000
00030000
,
00002000
00000000
00000000
00003000
,
00000000
00000000
00000000
00000000
;

//---------------dance-double - ----------------
#NOTEDATA:;
#CHARTNAME:;
#STEPSTYPE:dance-double;
#DESCRIPTION:;
#CHARTSTYLE:;
#DIFFICULTY:Hard;
#METER:12;
#RADARVALUES:0.464309,0.500897,0.285281,0.142640,0.056037,319.000000,291.000000,28.000000,14.000000,0.000000,0.000000,0.000000,0.000000,0.000000,0.464309,0.500897,0.285281,0.142640,0.056037,319.000000,291.000000,28.000000,14.000000,0.000000,0.000000,0.000000,0.000000,0.000000;
#CREDIT:;
#DISPLAYBPM:140.000000;
#NOTES:
00000000
00000000
00000000
00000000
,
00000000
00000000
00000000
00000000
,
00000000
00000000
00000000
00000000
,
00000000
00000000
00000000
00000000
,
00000010
00010000
00001000
00000000
00100000
00001000
00010000
00000000
,
00000010
00010000
00001000
00000100
00001000
00010000
01000000
00000000
,
10010000
00000000
01000000
00000000
11000000
00010000
00001000
00000000
,
00011000
00000000
00000100
00000000
00000101
00000010
00001000
00000000
,
00001001
00000100
00000010
00000000
00010010
00001000
00010000
00000000
,
00100000
10000000
01000000
00010000
00001000
00010000
01000000
00000000
,
10010000
00000000
01000000
00000000
00101000
00010000
00001000
00000000
,
00010010
00000000
00001000
00000000
00000011
00000100
00000010
00000000
,
00000001
00000100
00001000
00000000
00010000
00001000
00000100
00000000
,
00000001
00000010
00000001
00000100
00001000
00010000
01000000
00000000
,
20020000
30030000
10010000
01010000
,
02002000
03003000
00011000
00010010
,
00002020
00003030
00001010
00001001
,
00000202
00000303
00001000
00010000
,
01000000
00000000
10010000
00000000
00100000
10000000
01000000
00000000
,
00010000
00000000
00011000
00000000
00000010
00001000
00000100
00000000
,
00000002
00000000
00000003
00000100
00000000
00001000
00000000
00010000
,
02000000
00000000
03000000
00000000
10000000
00100000
00010000
00000000
,
00011000
00000000
01000000
00000000
01000000
00010000
00001000
00000000
,
00011000
00000000
00000100
00000000
00000100
00001000
00010000
00000000
,
00100000
10000000
01000000
00000000
00100000
00010000
01000000
00000000
,
00001000
00010000
00001000
00000100
00000001
00000010
00000100
00000000
,
00000001
00000000
00000010
00000100
00000000
00000001
00000100
00001000
,
00010000
00000000
01000000
10000000
00000000
00100000
00010000
00001000
,
00010000
00000000
00001000
00000100
00000000
00000001
00000010
00000100
,
00001000
00000001
00000100
00001000
00000000
00010000
01000000
10000000
,
00100000
00000000
10000000
01000000
00000000
00100000
00010000
01000000
,
00001000
00000000
00000100
00000001
00000000
00000010
00000100
00000001
,
00000100
00001000
00000010
00000100
00001000
00010000
01000000
10000000
,
00100000
00010000
00100000
10000000
02000000
00000000
03000000
00000000
,
00100000
10000000
01000000
00010000
00001000
00010000
01000000
00010000
,
00001000
00000000
00000100
00000000
00000001
00000000
00000010
00000000
00000100
00000000
00001000
00000000
00000001
00000000
00000100
00001000
,
00010000
01000000
10000000
00100000
00010000
00100000
10000000
01000000
,
00010000
00000000
00001000
00000000
00000010
00000000
00000001
00000000
00000100
00000000
00001000
00000000
00010000
00000000
00001000
00000100
,
00000001
00000000
00000010
00000000
00000100
00000000
00001000
00000000
00000010
00000100
00000001
00000000
00000100
00000000
00001000
00000000
,
00010000
00000000
01000000
00000000
00100000
00000000
00010000
00000000
10000000
00000000
01000000
00000000
00010000
00000000
00001000
00010000
,
00001000
00000100
00000001
00000010
00000100
00010000
00001000
00010000
,
01000000
00000000
10000000
00000000
00100000
00000000
00010000
00000000
00001000
00010000
00001000
00000000
00100000
00000000
01000000
00000000
,
10000000
00100000
01000000
00010000
00100000
01000000
00010000
00001000
,
00000100
00000000
00000001
00000000
00000010
00000000
00000100
00000000
00001000
00000000
00000001
00000000
00000100
00000000
00001000
00010000
,
00001000
00010000
01000000
10000000
00100000
00010000
00001000
00010000
,
00001000
00000000
00000100
00000000
00000001
00000000
00000010
00000000
00000100
00000000
00001000
00000000
00000010
00000000
00000100
00001000
,
00010000
00000000
00000000
00000000
01000000
00000000
00010000
10000000
00000000
00000000
01000000
00000000
00100000
00000000
00000000
00000000
,
00011000
00000000
00000000
00000000
00000100
00000000
00000001
00001000
00000010
00000000
00000000
00000000
00000100
00000000
00000000
00000000
,
00001001
00000000
00000000
00000000
00000100
00000000
00001000
00010000
00000000
00000000
01000000
00000000
10000000
00000000
00000000
00000000
,
10010000
00000000
00000000
00000000
00100000
00000000
00001000
00010000
00000000
00000000
00000010
00000000
00000100
00000000
00000000
00000000
,
00002020
00000000
00000000
00003030
,
00020000
00000000
00000000
00030000
,
00000000
00000000
00000000
00000000
;

//---------------dance-single - ----------------
#NOTEDATA:;
#CHARTNAME:;
#STEPSTYPE:dance-single;
#DESCRIPTION:;
#CHARTSTYLE:;
#DIFFICULTY:Challenge;
#METER:14;
#RADARVALUES:0.652070,0.794073,0.163017,0.081509,0.443204,448.000000,432.000000,16.000000,8.000000,0.000000,0.000000,0.000000,0.000000,0.000000,0.652070,0.794073,0.163017,0.081509,0.443204,448.000000,432.000000,16.000000,8.000000,0.000000,0.000000,0.000000,0.000000,0.000000;
#CREDIT:;
#DISPLAYBPM:140.000000;
#NOTES:
// measure 0
0000
0000
0000
0000
,  // measure 1
0000
0000
0000
0000
,  // measure 2
0000
0000
0000
0000
,  // measure 3
0000
0000
0000
0000
,  // measure 4
1000
0001
1000
0001
0100
0010
0100
0010
,  // measure 5
1000
0010
1000
0010
0100
0001
0100
0001
,  // measure 6
2000
0000
0000
3100
1000
0000
0001
0000
0100
0000
0010
0000
1000
0000
0100
0000
,  // measure 7
0020
0000
0000
0031
0010
0000
0001
0000
0100
0000
0010
0000
1000
0000
0100
0000
,  // measure 8
0002
0000
0000
0103
0001
0000
0100
0000
0010
0000
1000
0000
0010
0000
0001
0000
,  // measure 9
0200
0000
0000
0310
0100
0000
0010
0000
1000
0000
0001
0000
0100
0000
0010
0000
,  // measure 10
1000
0000
0100
0010
0100
0000
0010
0000
0001
0000
1000
0000
0010
0000
0100
0000
,  // measure 11
0001
0000
0010
0001
0010
0000
0100
0000
0010
0000
1000
0000
0001
0000
0100
0000
,  // measure 12
0010
0000
1000
0100
1000
0000
0001
0000
0100
0000
1000
0000
0010
0000
0100
0000
,  // measure 13
0101
0000
0000
0001
0100
0000
0000
0100
0010
0000
1000
0000
0001
0000
0100
0000
,  // measure 14
0110
0000
1000
0100
0000
0001
0100
0000
0000
0100
0010
0000
0100
0000
0110
0000
,  // measure 15
1001
0000
0010
1000
0000
0100
0001
0000
0000
0010
1000
0000
1000
0000
1100
0000
,  // measure 16
0011
0000
0100
0010
0000
1000
0001
0000
0000
0001
1000
0000
1000
0000
0011
0000
,  // measure 17
1100
0000
0001
0100
0000
0010
1000
0010
0100
0000
1000
0000
0010
0000
0100
0000
,  // measure 18
0001
0000
1000
0100
1000
0000
0100
0000
0001
0000
1000
0000
0010
0000
0100
0000
,  // measure 19
0001
0000
1000
0100
1000
0000
0100
0000
0010
0000
0001
0000
0100
0000
0010
0000
,  // measure 20
1000
0000
0001
0100
0001
0000
0100
0000
0010
0000
1000
0001
1000
0000
0001
0000
,  // measure 21
0100
0001
1000
0010
0001
0100
0010
0000
,  // measure 22
0010
0000
0100
0001
0100
0000
0010
0000
1000
0000
0001
0000
0100
0000
0010
0000
,  // measure 23
1000
0000
0001
0100
0001
0000
1000
0000
0010
0000
0100
0000
0001
0000
1000
0000
,  // measure 24
0100
0000
0010
0100
0010
0000
0001
0000
1000
0000
0010
0000
0100
0000
0001
0000
,  // measure 25
1000
0100
0010
0001
0101
0010
0100
1000
,  // measure 26
0001
0100
1000
0100
0001
0010
1001
0000
,  // measure 27
1000
0010
0001
0010
1000
0100
1001
0000
,  // measure 28
1000
0100
0010
0100
1000
0010
0110
0000
,  // measure 29
0001
0100
0010
0100
0001
0010
0110
0100
,  // measure 30
0001
0000
1000
0001
1000
0000
0001
0000
1000
0000
0001
1000
0001
0000
1000
0100
,  // measure 31
1000
0000
0100
0010
0100
0000
0010
0000
0001
0000
0100
0010
0100
0000
1000
0000
,  // measure 32
0001
0100
0001
0000
0010
1000
0010
0000
0001
0010
0001
0000
0100
0010
0100
0010
,  // measure 33
1000
0100
0010
0001
1000
0010
0100
0001
1000
0100
0010
0000
0100
0001
0100
0010
,  // measure 34
0100
0000
1000
0100
1000
0000
1000
0000
0001
0000
0010
0100
0010
0000
0010
0000
,  // measure 35
0100
0000
1000
0100
1000
0000
0100
0001
0200
0000
0010
0000
0310
0000
0100
0001
,  // measure 36
0100
0010
1000
0100
0001
0100
1000
0010
,  // measure 37
0001
0000
0100
0000
0010
0000
1000
0000
0000
0000
0110
0000
0000
1001
0000
0000
,  // measure 38
0110
0000
0100
0001
0100
0000
1000
0000
0001
0000
0010
0100
0010
0000
1000
0000
,  // measure 39
0001
0000
0100
0010
0100
0000
1000
0000
0010
0000
0100
0001
0100
0000
0010
0000
,  // measure 40
1000
0000
0100
1000
0100
0000
0001
0000
1000
0010
1000
0010
0100
0000
0001
0000
,  // measure 41
1000
0000
0001
0100
0000
0010
1000
0100
0010
0001
1000
0010
0100
0000
0010
0000
,  // measure 42
0001
0010
0100
1000
0100
0000
0010
0100
0001
1000
0100
0000
0010
0001
0100
0000
,  // measure 43
0010
0000
0001
0100
0000
0010
1000
0000
0200
0000
1000
0000
1300
0000
0100
0001
,  // measure 44
1000
0100
0010
0001
1000
0010
0100
0001
,  // measure 45
1000
0100
0010
0001
1000
0000
0010
0000
0000
0000
0001
0100
0000
0010
1000
0000
,  // measure 46
0010
0000
0001
0010
0100
0000
0010
0000
1000
0000
0001
1000
0100
0000
0010
0000
,  // measure 47
1000
0000
0100
0001
0010
0000
0001
0000
1000
0000
0010
0001
0100
0000
0001
0000
,  // measure 48
1000
0001
1000
0001
0100
0010
0100
0010
,  // measure 49
1000
0100
1000
0100
0010
0001
0010
0001
0100
0010
0100
0010
1000
0001
1000
0002
,  // measure 50
2000
0000
0000
0000
,  // measure 51
0000
0000
0000
0000
,  // measure 52
0000
0000
0000
0000
,  // measure 53
0000
0000
0000
3003
;
