#VERSION:0.83;
#TITLE:switch;
#SUBTITLE:;
#ARTIST:DAISUKE ASAKURA ex.TЁЯRA;
#TITLETRANSLIT:;
#SUBTITLETRANSLIT:;
#ARTISTTRANSLIT:DAISUKE ASAKURA ex. TERRA;
#GENRE:;
#ORIGIN:;
#CREDIT:;
#BANNER:switch.png;
#BACKGROUND:switch-bg.png;
#PREVIEWVID:;
#JACKET:switch-jacket.png;
#CDIMAGE:;
#DISCIMAGE:;
#LYRICSPATH:;
#CDTITLE:;
#MUSIC:switch.ogg;
#OFFSET:0.000000;
#SAMPLESTART:66.320000;
#SAMPLELENGTH:15.000000;
#SELECTABLE:YES;
#DISPLAYBPM:152.000000;
#BPMS:0.000=152.542,
4.000=152.001;
#STOPS:;
#DELAYS:;
#WARPS:;
#TIMESIGNATURES:0.000=4=4;
#TICKCOUNTS:0.000=4;
#COMBOS:0.000=1;
#SPEEDS:0.000=1.000=0.000=0;
#SCROLLS:0.000=1.000;
#FAKES:;
#LABELS:0.000=Song Start;
#BGCHANGES:;
#KEYSOUNDS:;
#ATTACKS:
;

//---------------dance-single - ----------------
#NOTEDATA:;
#CHARTNAME:;
#STEPSTYPE:dance-single;
#DESCRIPTION:;
#CHARTSTYLE:;
#DIFFICULTY:Beginner;
#METER:3;
#RADARVALUES:0.153128,0.201224,0.009744,0.000000,0.000000,110.000000,109.000000,1.000000,0.000000,0.000000,0.000000,0.000000,0.000000,0.000000,0.153128,0.201224,0.009744,0.000000,0.000000,110.000000,109.000000,1.000000,0.000000,0.000000,0.000000,0.000000,0.000000,0.000000;
#CREDIT:;
#DISPLAYBPM:152.000000;
#NOTES:
0000
0000
0000
0000
,
0000
0000
0000
0000
,
0000
0000
0000
0000
,
0001
0000
0000
0000
,
0100
0000
0000
0000
,
1000
0000
0000
0000
,
0010
0000
0000
0000
,
1000
0000
0000
0000
,
0001
0000
0000
0000
,
0010
0000
0000
0000
,
0100
0000
0000
0000
,
0001
0000
0001
0000
,
1000
0000
1000
0000
,
0010
0000
0010
0000
,
0100
0000
0100
0000
,
1000
1000
0000
0000
,
0001
0001
0000
0000
,
1000
1000
0000
0000
,
0001
0001
0000
0000
,
0100
0000
0100
0000
,
0010
0000
1000
0000
,
0001
0000
1000
0000
,
0001
0000
0001
0000
,
0100
0000
0010
0000
,
0001
0000
0100
0000
,
1000
0000
0001
0000
,
1000
0000
1000
0000
,
0010
0000
0100
0000
,
1000
0000
0000
0000
,
0100
0000
0001
0000
,
0100
0000
0001
0000
,
1000
0000
0100
0000
,
0001
0000
0100
0000
,
0100
0000
0001
0000
,
1000
0000
1000
0000
,
0010
0010
0010
0000
,
0100
0100
0100
0000
,
0001
0000
0100
0000
,
0010
0000
0001
0000
,
0100
0000
0000
0000
,
1000
0000
0000
0000
,
0010
0000
0010
0000
,
0100
0100
0100
0000
,
1000
0000
0001
0000
,
0010
0010
0010
0000
,
0100
0000
1000
0000
,
0010
0000
0001
0000
,
1000
0000
0001
0000
,
1000
0000
0010
0000
,
0001
0000
0100
0000
,
1000
0000
0100
0000
,
0010
0000
0001
0000
,
0100
0100
0100
0000
,
0001
0000
0010
0000
,
1000
0000
0100
0000
,
0001
0001
0001
0000
,
1000
1000
1000
0000
,
0001
0000
1000
0000
,
0100
0000
0010
0000
,
1001
0000
0000
0000
,
0000
0000
0000
0000
;

//---------------dance-single - ----------------
#NOTEDATA:;
#CHARTNAME:;
#STEPSTYPE:dance-single;
#DESCRIPTION:;
#CHARTSTYLE:;
#DIFFICULTY:Easy;
#METER:4;
#RADARVALUES:0.277022,0.300861,0.185145,0.116934,0.000000,199.000000,180.000000,19.000000,12.000000,0.000000,0.000000,0.000000,0.000000,0.000000,0.277022,0.300861,0.185145,0.116934,0.000000,199.000000,180.000000,19.000000,12.000000,0.000000,0.000000,0.000000,0.000000,0.000000;
#CREDIT:;
#DISPLAYBPM:152.000000;
#NOTES:
0000
0000
0000
0000
,
0000
0000
0000
0000
,
0000
0000
0000
0000
,
1001
0000
0010
0000
,
0100
0001
1000
0000
,
0100
0000
0001
0000
,
2000
0000
0002
3003
,
0010
0000
0100
0000
,
0010
0001
0010
0000
,
1000
0100
0010
0001
,
0200
0000
0020
0330
,
1001
0010
0000
0010
,
1000
0100
0000
0100
,
0001
0010
0000
0010
,
0001
0100
1000
1000
,
0100
1000
0010
0000
,
0010
0100
0001
0000
,
0010
0001
1000
0000
,
0001
1000
1001
0000
,
0100
0001
0100
0000
,
0010
0100
1000
0010
,
1000
0001
1000
0010
,
0001
0010
1001
0000
,
0100
1000
0010
0000
,
0001
0010
0100
1000
,
0100
0001
0010
1000
,
0100
0001
0110
0000
,
1000
0010
0100
0010
,
1000
0000
0010
0000
,
0100
0100
0001
0001
,
0100
0010
0001
0000
,
0001
0010
0100
1000
,
0001
0000
0100
0000
,
1000
1000
0010
0010
,
1000
0001
0100
1000
,
0001
1000
0110
0000
,
0100
0010
1001
0000
,
0010
1000
0001
0010
,
0110
0000
1001
0000
,
0100
0100
1000
1000
,
0001
0001
0100
0100
,
0010
0001
1000
0001
,
0220
0330
2002
3003
,
0100
1000
0001
0100
,
0010
1000
0110
0000
,
0100
0001
1000
0100
,
1001
0000
0001
0100
,
1000
1000
0001
0001
,
1000
0001
0110
0000
,
0001
0010
0001
0100
,
0002
0000
2000
3003
,
0010
0001
0100
1000
,
0100
0001
0110
0000
,
0001
1000
0010
0100
,
1001
0000
0100
0010
,
0100
1000
0010
0000
,
0010
0001
1000
0000
,
0001
0001
1000
1000
,
1001
0000
0110
0000
,
2002
0000
0000
0000
,
0000
0000
0000
0000
,
0000
0000
0000
3003
,
0000
0000
0000
0000
;

//---------------dance-single - ----------------
#NOTEDATA:;
#CHARTNAME:;
#STEPSTYPE:dance-single;
#DESCRIPTION:;
#CHARTSTYLE:;
#DIFFICULTY:Medium;
#METER:7;
#RADARVALUES:0.361939,0.421206,0.272846,0.146167,0.019489,260.000000,232.000000,28.000000,15.000000,0.000000,0.000000,0.000000,0.000000,0.000000,0.361939,0.421206,0.272846,0.146167,0.019489,260.000000,232.000000,28.000000,15.000000,0.000000,0.000000,0.000000,0.000000,0.000000;
#CREDIT:;
#DISPLAYBPM:152.000000;
#NOTES:
0000
0000
0000
0000
,
0000
0000
0000
0000
,
0000
0000
0000
0000
,
1001
0100
0000
0001
,
0010
0000
1000
0000
,
0010
1000
0001
0010
,
2200
3300
0001
0010
,
0200
0000
0020
0330
,
0100
0001
0200
0300
,
1000
0010
0100
0001
,
0020
0000
0200
0330
,
1001
0100
0000
0100
,
1000
0010
0000
0010
,
0001
0100
0000
0100
,
0001
0010
1000
0001
,
0010
0000
1000
0000
0100
0001
0010
0000
,
0100
0000
0010
0000
0001
0100
1000
0000
,
0100
0001
1000
0010
,
1000
0000
0010
0100
1000
0000
0001
0000
,
0010
0000
0001
0100
0010
0000
1001
0000
,
1100
0000
0010
0000
1000
0010
0100
0000
,
1000
0000
0001
0100
1000
0000
0100
0000
,
0001
1000
0100
0000
0010
0000
1001
0000
,
0010
0000
1000
0001
0100
0000
1010
0000
,
0011
0000
0100
0000
0010
1000
0100
0000
,
0010
1001
0110
0001
,
0100
0010
0001
0000
1000
0000
0110
0000
,
1000
0000
0100
0001
0010
0000
0100
0000
,
1000
0001
0100
0100
,
0010
0010
0001
0001
,
0010
1100
0010
0101
,
1000
0000
0100
0010
0100
0000
1000
0000
,
0001
0100
0010
0100
,
0001
0010
1000
0010
,
0100
0001
0010
1100
,
0001
0000
0000
0001
0000
0000
0001
0000
0200
0000
0000
0000
0300
0000
0000
0000
,
1000
0000
0000
1000
0000
0000
1000
0000
0200
0000
0000
0000
0300
0000
0000
0000
,
0001
0100
0010
0100
,
1001
0000
0000
0010
0100
0000
0000
0000
,
0010
0000
1000
0000
0001
0100
0001
0000
,
0010
0000
0001
0000
1000
0100
1000
0000
,
0010
0001
0100
1000
,
0220
0330
2002
3003
,
0011
0000
1100
0000
0001
0100
0010
0000
,
0100
0001
0010
0000
0100
0000
0000
0000
,
1010
0101
1100
0010
,
1000
0000
0000
0000
1000
0001
0010
0000
,
1000
0010
0001
0010
,
0001
1000
0100
0000
0011
0000
0000
0000
,
1000
0000
0100
0000
0001
0010
0100
0000
,
0001
0010
1000
0001
,
0110
0000
1001
0000
0010
0001
1000
0000
,
0010
0100
0001
0000
0010
0000
0000
0000
,
0001
0000
1100
0000
0101
0000
0010
0100
,
0001
0000
0000
0000
0010
1000
0100
0000
,
0010
0000
0001
0000
0100
1000
0010
0000
,
0100
0000
0001
0000
1000
0001
0100
0000
,
0001
0010
0100
1000
,
0010
0000
0000
0010
0000
0000
0010
0000
0100
0000
0000
0100
0000
0000
0100
0000
,
2002
0000
0000
0000
,
0000
0000
0000
0000
,
0000
0000
0000
3003
,
0000
0000
0000
0000
;

//---------------dance-single - ----------------
#NOTEDATA:;
#CHARTNAME:;
#STEPSTYPE:dance-single;
#DESCRIPTION:;
#CHARTSTYLE:;
#DIFFICULTY:Hard;
#METER:10;
#RADARVALUES:0.445463,0.481378,0.302079,0.155912,0.112062,320.000000,289.000000,31.000000,16.000000,0.000000,0.000000,0.000000,0.000000,0.000000,0.445463,0.481378,0.302079,0.155912,0.112062,320.000000,289.000000,31.000000,16.000000,0.000000,0.000000,0.000000,0.000000,0.000000;
#CREDIT:;
#DISPLAYBPM:152.000000;
#NOTES:
0000
0000
0000
0000
,
0000
0000
0000
0000
,
0000
0000
0000
0000
,
1001
0000
0100
0000
0010
0100
1000
0000
,
0010
0000
0000
0100
0000
0000
0002
0000
0000
0000
0000
0000
0003
0000
0000
0000
,
0010
0001
1000
0010
,
0202
0000
0303
0000
1000
0001
0010
0000
,
0200
0000
0020
0330
,
0100
0000
0000
1000
0000
0000
0010
0000
0200
0000
0000
0000
0300
0000
0000
0000
,
0001
0000
0010
0000
0100
1000
0001
0000
,
0200
0000
0020
0330
,
2001
0100
0000
3100
,
0002
0010
0000
0013
,
0200
0010
0000
0310
,
2000
0010
0001
3001
,
0010
0000
1000
0000
0001
0000
0000
0010
0100
0000
1000
0000
0010
0000
0000
0000
,
0100
0000
0010
0000
1000
0000
0000
0001
1000
0000
0100
0000
0001
0000
0000
0000
,
0100
1000
0010
0000
0100
0001
0010
0000
,
0001
1000
0010
0100
0001
0000
1100
0000
,
0010
0100
1000
0100
0010
0000
1001
0000
,
0101
0000
0010
0100
0001
0010
0100
0000
,
0001
0100
1000
0100
0001
0000
0100
0000
,
1000
0001
0100
0010
1000
0000
0101
0000
,
0010
0100
0001
1000
0100
0000
0011
0000
,
1010
0000
0100
0001
0010
0001
0100
0000
,
0010
0000
1001
0000
0110
0000
1000
0010
,
0100
0010
1000
0000
0100
0000
0011
0000
,
0001
1000
0100
1000
0010
0000
0100
0002
,
0000
0000
1000
0000
0000
0000
0100
0100
,
0000
0000
0010
0010
0003
0000
1000
0010
,
0000
0101
0000
1100
0000
0010
0100
0000
,
1000
0001
0100
0010
0100
0000
0001
2000
,
0000
0000
0100
0000
3010
0000
0100
0001
,
0010
0000
0001
1000
0000
0010
0000
0100
,
0001
0000
1000
0000
0010
1000
0100
0000
,
1000
0000
0000
0001
0000
0000
0100
0000
0010
0000
0000
0000
1001
0000
0000
0000
,
0010
0000
0000
0001
0000
0000
1000
0000
0010
0000
0000
0000
0101
0000
0000
0000
,
1000
0001
0100
0000
0010
1000
0100
0000
,
0010
0000
0000
0100
1000
0000
0000
0001
,
0010
0000
0000
0010
0000
0000
0010
0000
0001
0000
0000
0001
0000
0000
0001
0000
,
1000
0000
0000
1000
0000
0000
1000
0000
0010
0000
0000
0010
0000
0000
0010
0000
,
0100
0001
1000
0100
0001
0100
1000
0000
,
0010
0000
0000
0100
0000
0000
0001
0000
0010
0000
0000
0100
0000
0000
1000
0000
,
1010
0000
0000
0000
0101
0000
0000
0000
1000
0000
0000
0100
0000
0000
0010
0000
,
0100
0000
0000
1000
0000
0000
0010
0000
0100
0000
0001
0000
1000
0000
0000
0000
,
0011
0000
1100
0000
0101
0000
0010
0100
,
0001
0000
0010
0000
0001
1000
0010
1000
,
0001
0000
0000
0010
0000
0000
0100
0000
1000
0000
0000
0010
0000
0000
0100
0000
,
1000
0000
0000
0100
0000
0000
0001
0000
0010
0000
0000
0000
1100
0000
0000
0000
,
1010
0000
0100
0010
1000
0010
0100
0000
,
1001
0000
0110
0000
0001
0010
1000
0010
,
0100
0000
0000
0000
1001
0000
0000
0000
0010
0000
0000
1000
0000
0000
0001
0000
,
0010
0000
0000
0100
0000
0000
1000
0000
0010
0000
0000
0000
0001
0000
0010
0000
,
1000
0000
0101
0000
1100
0000
0010
0100
,
1000
0000
0101
0000
0010
0001
0100
0000
,
0010
0000
1000
0000
0001
0000
0000
0010
0100
0000
1000
0000
0010
0000
0000
0000
,
0100
0000
0010
0000
1000
0000
0000
0001
1000
0000
0100
0000
0001
0000
0000
0000
,
0100
1000
0010
0101
,
1000
0000
0000
0100
0000
0000
0010
0000
0001
0000
0000
0100
0000
0000
0010
0000
,
2002
0000
0000
0000
,
0000
0000
0000
0000
,
0000
0000
0000
3003
,
0000
0000
0000
0000
;

//---------------dance-double - ----------------
#NOTEDATA:;
#CHARTNAME:;
#STEPSTYPE:dance-double;
#DESCRIPTION:;
#CHARTSTYLE:;
#DIFFICULTY:Easy;
#METER:5;
#RADARVALUES:0.270062,0.300861,0.136423,0.155912,0.000000,194.000000,180.000000,14.000000,16.000000,0.000000,0.000000,0.000000,0.000000,0.000000,0.270062,0.300861,0.136423,0.155912,0.000000,194.000000,180.000000,14.000000,16.000000,0.000000,0.000000,0.000000,0.000000,0.000000;
#CREDIT:;
#DISPLAYBPM:152.000000;
#NOTES:
00000000
00000000
00000000
00000000
,
00000000
00000000
00000000
00000000
,
00000000
00000000
00000000
00000000
,
10010000
00000000
00100000
00000000
,
01000000
00010000
00001000
00000000
,
00000100
00000000
00000001
00000000
,
00002000
00000000
00000002
00003003
,
00000010
00000000
00000100
00000000
,
00001000
00000001
00000100
00000000
,
00001000
00010000
00100000
10000000
,
02000000
00000000
00200000
03300000
,
10010000
00100000
00000000
00100000
,
10000000
01000000
00000000
01000000
,
00010000
00001000
00000000
00001000
,
00000100
00000001
00000000
00000001
,
00000100
00000001
00000010
00000000
,
00000100
00001000
00000010
00000000
,
00000100
00001000
00010000
00000000
,
00100000
10000000
00010000
00000000
,
01000000
00010000
01000000
00000000
,
00100000
01000000
10000000
00100000
,
00010000
00001000
00000010
00001000
,
00010000
01000000
10010000
00000000
,
01000000
00010000
00001000
00000000
,
00000010
00000001
00000010
00000100
,
00001000
00000001
00000100
00001000
,
00010000
00100000
10010000
00000000
,
00100000
01000000
10000000
00000000
,
00100000
01000000
00010000
00000000
,
00001000
00001000
00000010
00000010
,
00000001
00000001
00000100
00000100
,
00001000
00010000
01000000
00000000
,
10000000
00010000
01000000
00000000
,
00100000
00100000
01000000
01000000
,
00010000
00100000
01000000
00010000
,
00001000
00010000
00011000
00000000
,
00000100
00000001
00000110
00000000
,
00000001
00000010
00000100
00001000
,
00020000
00000000
00200000
00330000
,
01000000
01000000
10000000
10000000
,
00010000
00010000
01000000
01000000
,
00100000
00010000
00001000
00000010
,
00002002
00003003
00000220
00000330
,
00000001
00001000
00000010
00000100
,
00001000
00010000
00011000
00000000
,
01000000
10000000
00010000
01000000
,
01100000
00000000
00100000
10000000
,
01000000
01000000
00010000
00010000
,
00001000
00000010
00001001
00000000
,
00000010
00001000
00000100
00001000
,
00000002
00000000
00002000
00003003
,
00000010
00001000
00010000
00100000
,
01000000
00010000
01100000
00000000
,
00010000
10000000
01000000
00100000
,
10010000
00000000
01000000
00010000
,
00001000
00000010
00000001
00000000
,
00001000
00000001
00000100
00000000
,
00001000
00001000
00010000
00010000
,
00200000
00000000
02000000
03300000
,
20020000
00000000
00000000
00000000
,
00000000
00000000
00000000
00000000
,
00000000
00000000
00000000
30030000
,
00000000
00000000
00000000
00000000
;

//---------------dance-double - ----------------
#NOTEDATA:;
#CHARTNAME:;
#STEPSTYPE:dance-double;
#DESCRIPTION:;
#CHARTSTYLE:;
#DIFFICULTY:Medium;
#METER:7;
#RADARVALUES:0.348018,0.391120,0.233868,0.126678,0.000000,250.000000,226.000000,24.000000,13.000000,0.000000,0.000000,0.000000,0.000000,0.000000,0.348018,0.391120,0.233868,0.126678,0.000000,250.000000,226.000000,24.000000,13.000000,0.000000,0.000000,0.000000,0.000000,0.000000;
#CREDIT:;
#DISPLAYBPM:152.000000;
#NOTES:
00000000
00000000
00000000
00000000
,
00000000
00000000
00000000
00000000
,
00000000
00000000
00000000
00000000
,
10100000
01000000
00010000
00100000
,
00010000
00001000
00000010
00000000
,
00000001
00001000
00000010
00000100
,
00001001
00000000
00000010
00001000
,
00020000
00000000
00200000
00330000
,
10000000
01000000
00200000
00300000
,
01000000
00010000
00001000
00000010
,
00000002
00000000
00002000
00003003
,
00000110
00001000
00000000
00001000
,
00010000
00100000
00000000
00100000
,
10000000
01000000
00000000
01000000
,
00010000
00001000
00000100
00000100
,
00000010
00000000
00001000
00000000
00000001
00000010
00000100
00000000
,
00001000
00000000
00000001
00000000
00000100
00001000
00010000
00000000
,
00100000
10000000
01000000
00010000
,
01000000
10000000
00100000
01010000
,
00100000
00000000
00010000
00001000
00000010
00000000
00000100
00000000
,
00001000
00000000
00000001
00000000
00000100
00001000
00010000
00000000
,
01000000
00000000
10000000
00010000
01000000
00000000
00100000
00000000
,
01000000
00010000
00100000
11000000
,
00010000
00000000
00001000
00000010
00000001
00000000
00001000
00000000
,
00000010
00000000
00000010
00000000
00000100
00000001
00000010
00000000
,
00001000
00010000
00100000
10000000
,
00010000
01000000
00100000
10010000
,
01000000
00010000
00001000
00000100
,
00000001
00000001
00001000
00001000
,
00000010
00000101
00000010
00001100
,
00010000
01000000
00100000
10000000
,
01000000
00000000
00100000
01000000
10000000
00000000
00100000
00000000
,
00010000
00001000
00000100
00000001
,
00000010
00001001
00000100
00001001
,
00000010
00000000
00001000
00000000
00010000
00001000
00010000
00000000
,
00100000
10000000
00100000
00000000
02020000
00000000
03030000
00000000
,
00100000
00010000
00100000
00000000
22000000
00000000
33000000
00000000
,
00010000
00001000
00000010
00000001
,
00002000
00000000
00000002
00003003
,
00000010
00000000
00000001
00000000
00000100
00001000
00010000
00000000
,
00100000
00000000
10000000
00000000
00010000
00100000
01000000
00000000
,
10000000
00100000
00010000
00001000
,
00001100
00000000
00000101
00000000
,
00000010
00000000
00001001
00000000
00000010
00001000
00010000
00000000
,
01000000
10000000
01010000
00000000
,
00100000
11000000
01010000
00001000
,
00000010
00000000
00000000
00000000
00000001
00001000
00000010
00000000
,
00001000
00000100
00000010
00000001
,
00000100
00001000
00010000
00000000
00011000
00000000
00000000
00000000
,
01000000
00000000
00100000
00000000
00010000
10000000
01000000
00000000
,
10000000
00000000
00100000
00000000
00010000
00000000
00001000
00000100
,
00000001
00000000
00001100
00000000
00000010
00000001
00001000
00000000
,
00000010
00000100
00011000
00000000
,
00100000
10010000
11000000
00100000
,
01000000
00000000
00000000
00000000
10000000
00010000
01000000
00000000
,
00100000
00000000
00010000
00000000
00001000
00000010
00000001
00000000
,
00000100
00000000
00000001
00000000
00001000
00000100
00000010
00000000
,
00001000
00010000
01000000
10000000
,
00100000
00100000
01000000
01000000
,
20020000
00000000
00000000
00000000
,
00000000
00000000
00000000
00000000
,
00000000
00000000
00000000
30030000
,
00000000
00000000
00000000
00000000
;

//---------------dance-double - ----------------
#NOTEDATA:;
#CHARTNAME:;
#STEPSTYPE:dance-double;
#DESCRIPTION:;
#CHARTSTYLE:;
#DIFFICULTY:Hard;
#METER:10;
#RADARVALUES:0.427366,0.481378,0.253357,0.136423,0.082828,307.000000,281.000000,26.000000,14.000000,0.000000,0.000000,0.000000,0.000000,0.000000,0.427366,0.481378,0.253357,0.136423,0.082828,307.000000,281.000000,26.000000,14.000000,0.000000,0.000000,0.000000,0.000000,0.000000;
#CREDIT:;
#DISPLAYBPM:152.000000;
#NOTES:
00000000
00000000
00000000
00000000
,
00000000
00000000
00000000
00000000
,
00000000
00000000
00000000
00000000
,
00000011
00000000
00000100
00000000
00001000
00000010
00000100
00000000
,
00001000
00000000
00000000
00010000
00000000
00000000
00200000
00000000
00000000
00000000
00000000
00000000
00300000
00000000
00000000
00000000
,
10000000
00010000
00100000
01000000
,
10010000
00000000
00000000
00000000
00100000
01000000
00010000
00000000
,
00002000
00000000
00000020
00003030
,
00000100
00000000
00000000
00000001
00000000
00000000
00000010
00000000
00000200
00000000
00000000
00000000
00000300
00000000
00000000
00000000
,
00000010
00000000
00001000
00000000
00010000
00100000
10000000
00000000
,
02000000
00000000
00200000
03300000
,
20010000
01000000
00000000
31000000
,
00200000
00010000
00000000
00310000
,
00002000
00000010
00000000
00003010
,
00000002
00000010
00001000
00001003
,
00000010
00000001
00001000
00000000
00000010
00000100
00001000
00000000
,
00010000
01000000
00100000
00000000
00010000
10000000
00100000
00000000
,
00010000
00001000
00000010
00000000
00000100
00001000
00000010
00000000
,
00001000
00000001
00000100
00001000
00010000
00000000
00110000
00000000
,
10000000
00010000
01000000
00100000
10000000
00000000
01010000
00000000
,
11000000
00000000
00010000
00000000
00001000
00000010
00000001
00000000
,
00001000
00000100
00000010
00000100
00001000
00000000
00000010
00000000
,
00000100
00001000
00010000
00001000
00000010
00000000
00001001
00000000
,
00000100
00001000
00010000
01000000
10000000
00000000
00110000
00000000
,
11000000
00000000
00100000
00001000
00010000
01000000
00100000
00000000
,
00010000
00000000
00001000
00000000
00000100
00000000
00001000
00000010
,
00000000
00000100
00000001
00000000
00000010
00000000
00001100
00000000
,
00010000
00000000
00001000
00100000
00010000
00000000
10000000
00100000
,
00000000
01000000
00000000
00010000
00000000
10000000
01000000
10000000
,
00000000
00100000
00010000
00100000
00000000
00010000
00001000
00000010
,
00000000
00000011
00000000
00001100
00000000
00000010
00000100
00000000
,
00000001
00000000
00000100
00001000
00010000
00000000
00100000
10000000
,
00010000
00100000
01000000
10000000
,
00100000
00000000
00010000
00001000
00000000
00000010
00000000
00000100
,
00001000
00000000
00000001
00000000
00000010
00000001
00000100
00000000
,
00000001
00000000
00000000
00000010
00000000
00000000
00001000
00000000
00010000
00000000
00000000
00000000
01010000
00000000
00000000
00000000
,
00100000
00000000
00000000
10000000
00000000
00000000
01000000
00000000
00010000
00000000
00000000
00000000
00011000
00000000
00000000
00000000
,
00000010
00000100
00001000
00000000
00000001
00000100
00001000
00000000
,
00010000
00100000
10000000
01000000
,
00100000
00000000
00000000
00100000
00000000
00000000
00100000
00000000
01000000
00000000
00000000
01000000
00000000
00000000
01000000
00000000
,
00010000
00000000
00000000
00010000
00000000
00000000
00010000
00000000
00001000
00000000
00000000
00001000
00000000
00000000
00001000
00000000
,
00000100
00000001
00000010
00001000
00010000
00100000
01000000
00000000
,
00020000
00000000
00200000
00330000
,
00011000
00000000
00000000
00000000
00001100
00000000
00000000
00000000
00000001
00000000
00000000
00000100
00000000
00000000
00000010
00000000
,
00000100
00000000
00000000
00001000
00000000
00000000
00010000
00000000
01000000
00000000
00000000
00000000
10000000
00000000
00100000
00000000
,
01000000
00000000
10010000
00000000
01100000
00000000
00010000
00001000
,
00000100
00000000
00000010
00000000
00001000
00000001
00000010
00000001
,
00001000
00000000
00000000
00000010
00000000
00000000
00000100
00000000
00001000
00000000
00000000
00010000
00000000
00000000
01000000
00000000
,
00100000
00000000
00000000
01000000
00000000
00000000
10000000
00000000
00100000
00000000
00000000
00000000
01010000
00000000
00000000
00000000
,
11000000
00000000
00100000
01000000
10000000
00100000
00010000
00000000
,
00001000
00000000
00000010
00000000
00000001
00000010
00000100
00000010
,
00000001
00000000
00000000
00000000
00001100
00000000
00000000
00000000
00000010
00000000
00000000
00001000
00000000
00000000
00010000
00000000
,
00100000
00000000
00000000
01000000
00000000
00000000
00010000
00000000
00100000
00000000
00000000
00000000
01000000
00000000
10000000
00000000
,
00100000
00000000
01010000
00000000
00011000
00000000
00000010
00000001
,
00000100
00000000
00001010
00000000
00000001
00001000
00000100
00000000
,
00000010
00001000
00010000
00000000
01000000
10000000
00010000
00000000
,
01000000
00100000
10000000
00000000
01000000
00010000
00001000
00000000
,
00000100
00000001
00000010
00001100
,
00000010
00000000
00000000
00000100
00000000
00000000
00001000
00000000
00010000
00000000
00000000
01000000
00000000
00000000
00100000
00000000
,
20020000
00000000
00000000
00000000
,
00000000
00000000
00000000
00000000
,
00000000
00000000
00000000
30030000
,
00000000
00000000
00000000
00000000
;

//---------------dance-single - ----------------
#NOTEDATA:;
#CHARTNAME:;
#STEPSTYPE:dance-single;
#DESCRIPTION:;
#CHARTSTYLE:;
#DIFFICULTY:Challenge;
#METER:14;
#RADARVALUES:0.637569,0.902584,0.380035,0.331313,0.457991,458.000000,419.000000,39.000000,34.000000,0.000000,0.000000,0.000000,0.000000,0.000000,0.637569,0.902584,0.380035,0.331313,0.457991,458.000000,419.000000,39.000000,34.000000,0.000000,0.000000,0.000000,0.000000,0.000000;
#CREDIT:;
#DISPLAYBPM:152.000000;
#NOTES:
// measure 0
0000
0000
0000
0000
,  // measure 1
0000
0000
0000
0000
,  // measure 2
0000
0000
0000
0000
,  // measure 3
2100
0000
0000
0000
0010
0000
0000
0000
0100
0000
0000
0001
0000
0000
3010
0000
,  // measure 4
1000
0000
0000
0100
0000
0000
0022
0000
0000
0000
0033
0000
0000
0000
0001
0000
,  // measure 5
0200
0000
0310
0000
1000
0010
0100
0001
,  // measure 6
2001
0000
3010
0000
0100
0001
1000
0100
,  // measure 7
0020
0000
0000
0001
0000
0000
0031
0000
2000
0000
0000
0010
0000
0000
3010
0000
,  // measure 8
0002
0000
0000
0100
0000
0000
0103
0000
0020
0000
0000
0000
0031
0000
1000
0001
,  // measure 9
0100
0010
0100
0010
1000
0100
0010
0000
,  // measure 10
0012
0000
0000
0000
0100
0000
0000
0000
1003
0000
0100
0000
0010
0000
0001
0010
,  // measure 11
0200
0000
0000
0000
1300
0000
0000
0000
0001
0000
0000
0100
0000
0000
0010
0000
,  // measure 12
2000
0000
0000
0100
0000
0000
3010
0000
0002
0000
0000
0000
0103
0000
0001
0010
,  // measure 13
0100
0000
1100
0000
1000
0010
0100
0001
,  // measure 14
1000
0000
1100
0000
1000
1000
0001
0001
,  // measure 15
1000
0001
1000
0001
1000
0100
1000
0100
1000
0001
1000
0100
1000
0000
0000
0000
,  // measure 16
0001
1000
0001
1000
0001
0100
0001
0100
0001
1000
0001
0100
0001
0000
0000
0000
,  // measure 17
0001
0010
0001
0010
0001
1000
0001
1000
0001
0010
0001
1000
0001
0000
0000
0000
,  // measure 18
1000
0010
1000
0010
0100
0001
0100
0001
1000
0010
0100
0001
1000
0001
1000
0000
,  // measure 19
0001
0010
0100
1000
0001
0000
0101
0000
,  // measure 20
1020
0000
0130
0001
1000
0100
0010
0000
,  // measure 21
1100
1000
0010
0100
0001
0010
0001
1000
,  // measure 22
1001
0001
1000
0001
0010
0001
0100
0000
,  // measure 23
0100
0010
1000
0001
0100
0010
1000
0000
,  // measure 24
2100
0000
3010
1000
0001
0100
0010
0000
,  // measure 25
0101
0001
1000
0001
0100
0001
0010
0001
,  // measure 26
0000
0001
1000
0000
0000
1100
1100
0000
,  // measure 27
1000
0010
0001
1000
0200
0000
0310
0002
,  // measure 28
0000
0100
0000
0100
0003
0001
1000
0020
,  // measure 29
0000
0030
0100
2000
0000
3000
0010
0200
,  // measure 30
0000
1000
0000
0010
0000
1300
0000
0000
,  // measure 31
1001
0001
1000
0100
0010
0000
0011
0001
,  // measure 32
0000
0000
0001
1000
0000
0100
0000
1000
,  // measure 33
0010
0000
0100
0001
0000
1000
0000
1010
,  // measure 34
0000
0101
0101
0000
1100
0000
0110
0000
,  // measure 35
0001
0000
0010
0001
0000
0010
0001
0000
1000
0000
0001
0000
0101
0000
0001
0100
,  // measure 36
0001
0000
1000
0010
0000
1000
0010
0000
2000
0000
0100
0000
3100
0000
0000
0000
,  // measure 37
1000
0100
0001
0000
0100
0000
1000
0000
0100
0000
0001
0000
0100
0000
1000
0000
,  // measure 38
0200
0000
1300
0010
0200
0000
0301
0010
,  // measure 39
0001
0010
0000
0001
0010
0000
0001
0000
0010
0100
0000
0010
0100
0000
0010
0000
,  // measure 40
0100
1000
0000
0100
1000
0000
0100
0000
1000
0001
0000
1000
0001
0000
1000
0000
,  // measure 41
0001
0010
0001
0010
0100
1000
0100
1000
0001
0010
0001
0010
0100
1000
0100
1000
,  // measure 42
0010
0000
0000
0100
0000
0000
0010
0000
0100
0000
0000
1000
0000
0000
0001
0000
,  // measure 43
0100
0000
0000
0000
0101
0000
0000
0000
1000
0100
0000
0010
0100
0000
0001
0000
,  // measure 44
0010
0000
0000
0001
0000
0000
0202
0000
0000
0000
0303
0000
1010
0000
1000
0100
,  // measure 45
0010
0000
0011
0000
0001
0100
1000
0100
,  // measure 46
0020
0030
0000
0000
0000
0000
0000
0000
1001
0000
0000
0000
0000
0000
0000
0000
1000
0000
0000
0000
1000
0000
0000
0000
0001
0000
0000
0000
0001
0000
0000
0000
,  // measure 47
0100
0000
0010
0100
0000
0000
0010
0000
1000
0000
0100
1000
0000
0000
0100
0000
,  // measure 48
0010
0000
0000
0001
0000
0000
1000
0000
0200
0000
0000
0000
1300
0000
0001
0100
,  // measure 49
0010
1000
0010
0001
0001
0010
0100
0000
,  // measure 50
0220
0000
0000
0000
0330
0000
0000
0000
1001
0000
0001
1000
0100
0000
0010
0000
,  // measure 51
0001
0000
0000
0000
0101
0000
0000
0000
0010
0001
0000
1000
0001
0000
1000
0000
,  // measure 52
0001
0000
0000
0010
0000
0000
2020
0000
0000
0000
3030
0000
1100
0000
1000
0000
,  // measure 53
0020
0000
0130
0000
0001
1000
0100
0010
,  // measure 54
0001
0000
0000
0000
1001
0000
0000
1000
0100
0000
0100
0000
0010
0000
0010
0000
,  // measure 55
0100
0010
0100
0010
0100
1000
0100
1000
0100
0010
0100
1000
0100
0000
0000
0000
,  // measure 56
0010
0100
0010
0100
0010
0001
0010
0001
0010
0100
0010
0001
0010
0000
0000
0000
,  // measure 57
1000
0001
1000
0001
0100
0010
0100
0010
1000
0001
0100
0010
1000
0001
0100
0010
,  // measure 58
1000
0000
0000
1100
0000
0000
0101
0000
0011
0000
0000
0110
0000
0000
1010
0000
,  // measure 59
2002
0000
0000
0000
,  // measure 60
0000
0000
0000
0000
,  // measure 61
0000
0000
0000
3003
;
