#VERSION:0.83;
#TITLE:smooooch・∀・;
#SUBTITLE:;
#ARTIST:kors k;
#TITLETRANSLIT:;
#SUBTITLETRANSLIT:;
#ARTISTTRANSLIT:;
#GENRE:;
#ORIGIN:;
#CREDIT:;
#BANNER:smooooch.png;
#BACKGROUND:smooooch-bg.png;
#PREVIEWVID:;
#JACKET:smooooch-jacket.png;
#CDIMAGE:;
#DISCIMAGE:;
#LYRICSPATH:;
#CDTITLE:;
#MUSIC:smooooch.ogg;
#OFFSET:0.000000;
#SAMPLESTART:23.080000;
#SAMPLELENGTH:15.000000;
#SELECTABLE:YES;
#BPMS:0.000=177.000;
#STOPS:256.000=0.169,
256.500=0.169,
257.000=0.169,
257.500=0.169;
#DELAYS:;
#WARPS:;
#TIMESIGNATURES:0.000=4=4;
#TICKCOUNTS:0.000=4;
#COMBOS:0.000=1;
#SPEEDS:0.000=1.000=0.000=0;
#SCROLLS:0.000=1.000;
#FAKES:;
#LABELS:0.000=Song Start;
#BGCHANGES:0.000=smooooch.avi=1.000=0=0=0=StretchNoLoop====,
99999=-nosongbg-=1.000=0=0=0 // don't automatically add -songbackground-
;
#KEYSOUNDS:;
#ATTACKS:
;

//---------------dance-single - ----------------
#NOTEDATA:;
#CHARTNAME:;
#STEPSTYPE:dance-single;
#DESCRIPTION:;
#CHARTSTYLE:;
#DIFFICULTY:Beginner;
#METER:2;
#RADARVALUES:0.115266,0.209524,0.017352,0.000000,0.000000,93.000000,91.000000,2.000000,0.000000,0.000000,0.000000,0.000000,0.000000,0.000000,0.115266,0.209524,0.017352,0.000000,0.000000,93.000000,91.000000,2.000000,0.000000,0.000000,0.000000,0.000000,0.000000,0.000000;
#CREDIT:;
#NOTES:
0000
0000
0000
0000
,
0000
0000
0000
0000
,
0000
0000
0000
0000
,
0000
0000
0000
0000
,
0000
0000
0000
0000
,
0000
0000
0000
0000
,
0000
0000
0000
0000
,
0000
0000
0000
0000
,
0000
0000
0000
0000
,
0001
0000
0000
0000
,
0000
0000
0000
0000
,
1000
0000
0000
0000
,
0000
0000
0000
0000
,
0001
0000
0000
0000
,
0000
0000
0000
0000
,
1000
0000
0000
0000
,
0000
0000
0000
0000
,
0001
0000
0000
0000
,
0001
0000
0000
0000
,
1000
0000
0000
0000
,
1000
0000
0000
0000
,
0001
0000
0000
0000
,
0001
0000
0000
0000
,
1000
0000
0000
0000
,
1000
0000
0000
0000
,
0010
0000
0000
0000
,
0010
0000
0000
0000
,
0001
0000
0000
0000
,
0001
0000
0000
0000
,
0010
0000
0000
0000
,
0010
0000
0000
0000
,
1000
0000
0000
0000
,
1000
0000
0000
0000
,
0001
0000
0000
0000
,
1000
0000
0000
0000
,
0001
0000
0000
0000
,
1000
0000
0000
0000
,
0001
0000
0000
0000
,
1000
0000
0000
0000
,
0100
0000
0000
0000
,
0100
0000
0000
0000
,
0010
0000
0000
0000
,
1000
0000
1000
0000
,
1000
0000
0000
0000
,
0001
0000
0001
0000
,
0001
0000
0000
0000
,
0100
0000
0100
0000
,
0100
0000
0000
0000
,
0010
0000
0000
0000
,
0100
0000
0000
0000
,
0100
0000
0000
0000
,
0001
0000
0000
0000
,
0001
0000
0000
0000
,
1000
0000
0000
0000
,
1000
0000
0000
0000
,
0010
0000
0000
0000
,
1000
0000
0001
0000
,
1000
0000
1000
0000
,
1000
0000
0000
0000
,
0001
0000
0001
0000
,
0001
0000
0000
0000
,
0100
0000
0100
0000
,
0100
0000
0000
0000
,
1000
0000
0001
0000
,
1001
0000
0001
0000
,
0001
0000
0100
0000
,
0100
0000
1000
0000
,
1000
0000
0100
0000
,
0000
0000
0001
0000
,
0001
0000
0100
0000
,
0100
0000
1000
0000
,
1000
0000
0100
0000
,
0000
0000
0001
0000
,
0001
0000
1000
0000
,
1000
0000
0010
0000
,
0010
0000
0100
0000
,
0100
0000
0001
0000
,
0001
0000
1000
0000
,
1000
0000
0010
0000
,
0010
0000
0100
0000
,
0100
0000
1001
0000
,
0000
0000
0000
0000
;

//---------------dance-single - ----------------
#NOTEDATA:;
#CHARTNAME:;
#STEPSTYPE:dance-single;
#DESCRIPTION:;
#CHARTSTYLE:;
#DIFFICULTY:Easy;
#METER:4;
#RADARVALUES:0.162364,0.279366,0.034704,0.034704,0.000000,131.000000,127.000000,4.000000,4.000000,0.000000,0.000000,0.000000,0.000000,0.000000,0.162364,0.279366,0.034704,0.034704,0.000000,131.000000,127.000000,4.000000,4.000000,0.000000,0.000000,0.000000,0.000000,0.000000;
#CREDIT:;
#NOTES:
0000
0000
0000
0000
,
0000
0000
0000
0000
,
0000
0000
0000
0000
,
0000
0000
0000
0000
,
0000
0000
0000
0000
,
0000
0000
0000
0000
,
0000
0000
0000
0000
,
0000
0000
0000
0000
,
0000
0000
0000
0000
,
0010
0000
0000
0000
,
0000
0000
0000
0000
,
0010
0000
0000
0000
,
0000
0000
0000
0000
,
0010
0000
0000
0000
,
0000
0000
0000
0000
,
0010
0000
0000
0000
,
1000
0000
0001
0000
,
1000
0000
1000
0000
,
0100
0000
0000
0000
,
0001
0000
0001
0000
,
0100
0000
0000
0000
,
1000
0000
1000
0000
,
0010
0000
0000
0000
,
0001
0000
0001
0000
,
0100
0000
0000
0000
,
1000
0000
0100
0000
,
0010
0000
0001
0000
,
0100
0000
0100
0000
,
0010
0000
0000
0000
,
0001
0000
0100
0000
,
0010
0000
1000
0000
,
0010
0000
0010
0000
,
0100
0000
0000
0000
,
1000
0000
1000
0000
,
0001
0000
0001
0000
,
0010
0000
0010
0000
,
0100
0000
0000
0000
,
1000
0000
1000
0000
,
0001
0000
0001
0000
,
0010
0000
0010
0000
,
0100
0000
0000
0000
,
0100
0000
0000
0000
,
0110
0000
0000
0000
,
0001
0000
0000
0000
,
1001
0000
0000
0000
,
0010
0000
0000
0000
,
0110
0000
0000
0000
,
1000
0000
0001
0000
,
0010
0010
0010
0000
,
2000
0000
0000
0000
,
0000
0000
3000
0000
,
0002
0000
0000
0000
,
0000
0000
0003
0000
,
0200
0000
0000
0000
,
0000
0000
0300
0000
,
0020
0000
0030
0000
,
0100
0000
0010
0000
,
1000
1000
1000
0000
,
1000
0000
0001
0000
,
0001
0001
0001
0000
,
0100
0000
0010
0000
,
1000
1000
1000
0000
,
0010
0000
0100
0000
,
1000
0000
0001
0000
,
1000
0001
0010
0010
,
0010
0000
1000
0000
,
0001
0000
0010
0010
,
0010
0000
0001
0000
,
1000
0000
0100
0100
,
0100
0000
0001
0000
,
1000
0000
0100
0000
,
0010
0000
1000
0001
,
1000
0000
1000
0100
,
1000
0000
0010
0010
,
0010
0000
0001
0100
,
0001
0000
0010
0010
,
0010
0000
1000
0001
,
1000
0000
0010
0010
,
0010
0000
1000
0001
,
1000
0000
0100
0010
,
0100
0000
1001
0000
,
0000
0000
0000
0000
;

//---------------dance-single - ----------------
#NOTEDATA:;
#CHARTNAME:;
#STEPSTYPE:dance-single;
#DESCRIPTION:;
#CHARTSTYLE:;
#DIFFICULTY:Medium;
#METER:7;
#RADARVALUES:0.321011,0.523811,0.208223,0.173519,0.000000,259.000000,235.000000,24.000000,20.000000,0.000000,0.000000,0.000000,0.000000,0.000000,0.321011,0.523811,0.208223,0.173519,0.000000,259.000000,235.000000,24.000000,20.000000,0.000000,0.000000,0.000000,0.000000,0.000000;
#CREDIT:;
#NOTES:
0000
0000
0000
0000
,
0000
0000
0000
0000
,
0000
0000
0000
0000
,
0000
0000
0000
0000
,
0000
0000
0000
0000
,
0000
0000
0000
0000
,
0000
0000
0000
0000
,
0000
0000
0000
0000
,
0000
0000
0000
0000
,
0010
0020
0000
0030
,
0000
0000
0000
0000
,
0010
0020
0000
0030
,
0000
0000
0000
0000
,
0010
0020
0000
0030
,
0000
0000
0000
0010
,
0020
0030
0020
0030
,
2000
3000
0002
0003
,
0010
0000
0100
1000
0100
0000
0000
0000
,
1000
0001
1000
0000
,
0010
0100
0010
1000
,
0001
0100
0010
0000
,
0010
0000
0100
0001
0100
0000
0000
0000
,
0001
1000
0001
0000
,
1000
0100
0001
0010
,
0100
0000
0100
0010
0100
0000
0000
0000
,
1000
0100
0001
0100
,
1000
0010
0001
0010
,
1000
0001
0100
0010
,
2000
0001
3001
0000
,
0001
0100
1000
0100
,
0001
0010
1000
0010
,
0001
1000
0100
0010
,
0002
1000
1003
0000
,
1100
0000
0110
0000
,
0011
0000
0101
0000
,
1001
0000
0110
0000
,
0010
1000
0001
0100
,
0110
0000
1010
0000
,
0101
0000
0110
0000
,
1100
0000
0011
0000
,
1000
0001
1000
0001
1000
0001
1000
0000
,
0010
0100
0010
0100
,
0110
0000
1001
0000
,
1000
0010
1000
0010
,
1010
0000
0101
0000
,
0001
0010
0001
0010
,
0011
0000
1100
0000
,
1000
0100
1000
0000
0001
0010
0001
0000
,
0100
0100
0100
0100
,
0200
0000
0000
0000
,
0002
0000
0300
0000
,
2000
0000
0003
0000
,
0020
0000
3000
0000
,
0002
0000
0030
0000
,
0020
0000
0003
0000
,
2000
0000
0000
3030
,
0200
0300
0020
0030
,
0010
0000
0010
0001
0100
0000
0000
0000
,
0100
0001
0010
0000
,
0001
0010
0100
1000
,
0001
0000
1000
0000
0010
0100
0010
0000
,
0010
0000
0010
1000
0100
0000
0000
0000
,
0100
1000
0010
0000
,
0010
0100
0010
0000
1000
0001
1000
0000
,
1000
0001
0110
1001
0010
0000
1000
0000
,
0001
0100
1000
0100
,
0010
0100
0001
0010
,
0100
1000
0001
0100
,
0010
0100
0010
0000
1000
0000
0001
0000
,
0100
0010
1000
0100
,
0001
0100
0010
0001
,
0100
0000
0010
0000
0100
0000
0001
1000
,
0001
0000
1001
0000
1000
0100
1000
0000
,
0010
1000
0002
0100
,
0010
0000
0103
0000
0001
0100
0001
0000
,
0010
0001
2000
0010
,
0100
0000
3010
0000
1001
0000
0100
0100
,
0000
0010
0100
0010
0000
0100
0000
0100
,
0100
0000
0110
0000
1000
0000
0100
0100
,
0000
0001
0001
0000
1000
0000
0001
0000
,
0100
0010
1001
0000
,
0000
0000
0000
0000
;

//---------------dance-single - ----------------
#NOTEDATA:;
#CHARTNAME:;
#STEPSTYPE:dance-single;
#DESCRIPTION:;
#CHARTSTYLE:;
#DIFFICULTY:Hard;
#METER:12;
#RADARVALUES:0.567656,0.733336,0.399094,0.251603,0.043380,458.000000,412.000000,46.000000,29.000000,0.000000,0.000000,0.000000,0.000000,0.000000,0.567656,0.733336,0.399094,0.251603,0.043380,458.000000,412.000000,46.000000,29.000000,0.000000,0.000000,0.000000,0.000000,0.000000;
#CREDIT:;
#NOTES:
0000
0000
0000
0000
,
0000
0000
0000
0000
,
0000
0000
0000
0000
,
0000
0000
0000
0000
,
0000
0000
0000
0000
,
0000
0000
0000
0000
,
0000
0000
0000
0000
,
0000
0000
0000
0000
,
0000
0000
0000
0000
,
1100
1001
0010
0001
,
1000
0100
1000
0001
,
0100
0100
0100
0000
0100
0000
0010
0000
,
1000
0100
0001
0010
,
0110
1000
0001
0100
,
0010
0010
0100
0100
,
0020
0000
0200
0330
,
0110
0000
1001
0000
,
1001
0000
0001
0010
0200
0000
1300
0000
,
0100
0000
0010
0001
2000
0000
3100
0010
,
0100
0000
1100
0000
0010
0001
0010
0000
,
0100
0000
0010
0000
1000
0100
0001
0000
,
1001
0000
1000
0010
0200
0000
0301
0000
,
0100
0000
0010
1000
0002
0000
0103
0000
,
0100
0001
0100
0010
1000
0100
0001
0010
,
0200
0000
0310
1000
0001
0000
1001
0000
,
1000
0100
1000
0100
0001
0100
0010
0001
,
0000
1100
0000
0001
0010
0100
1000
0000
,
1000
0100
1000
0100
0001
0100
1000
0010
,
0000
1001
0000
0100
1000
0010
0100
0000
,
0001
0100
0001
0100
1000
0100
0010
1000
,
0000
0101
0000
1000
0010
0100
0001
0100
,
0100
0000
1001
1001
0000
0110
0000
0010
,
0100
1000
0010
0100
0001
0010
0100
0000
,
0001
0010
0100
1000
0001
0010
0100
1000
,
0010
0000
0000
0010
0000
0000
0010
0000
1000
0000
0100
0000
0010
0000
0000
0000
,
0001
0000
0010
0000
0100
0000
1000
0000
0001
0000
0010
0000
0100
0000
1000
0100
,
1000
0010
0100
0000
0100
0010
1010
0000
,
0001
0010
0100
1000
0001
0010
0100
1000
,
0010
0000
0100
0010
0000
0100
0010
0000
1000
0000
0100
0000
0010
0000
0000
0000
,
0001
0010
0100
1000
0001
0010
0100
1000
,
0010
0010
0100
0100
0001
0001
1000
0000
,
0100
1000
0100
0010
0100
0001
0100
0010
,
0110
0000
0000
1100
0000
0000
0011
0000
0100
0000
1000
0000
1001
0000
0000
0000
,
0100
1000
0100
0010
0100
0001
0100
0010
,
0100
1000
0000
0000
1010
0000
1000
0000
0010
0000
0100
0001
0100
0000
0000
0000
,
0100
1000
0100
0010
0100
0001
0100
0010
,
0001
0000
0100
0001
0000
0010
0001
0000
1000
0000
0001
0000
1001
0000
0000
0000
,
0100
0010
0100
0000
0001
1000
0001
0000
,
1000
1000
0001
0001
0010
0010
0100
0000
,
2000
0100
3002
0000
,
0023
1000
0032
0000
,
2003
0100
3020
0000
,
1030
0100
0001
0010
,
0200
0010
0302
0000
,
2003
0100
3020
0000
,
0032
0100
0013
0110
,
0200
0300
0020
0030
,
1001
0000
0001
0010
0200
0000
1300
0100
,
0000
0010
0000
0001
2000
0000
3100
0010
,
0100
0000
1100
0000
0010
0001
0000
0010
,
0000
1001
0000
0010
1000
0100
0001
0000
,
1001
0000
1000
0010
0200
0000
0301
0100
,
0000
0010
0000
1000
0002
0000
0103
0000
,
0100
0001
0100
0010
1000
0100
0001
0010
,
0110
1010
0101
1001
0110
0000
0001
0010
,
0200
0000
1300
0001
0000
0001
0010
0100
,
2000
0000
3100
0010
0100
0000
1100
0000
,
0010
0001
0010
0100
1000
0100
0010
0001
,
1000
0100
0001
0000
1001
0000
1000
0010
,
0200
0000
0301
1000
0000
1000
0100
0010
,
0002
0000
0103
0000
0100
0001
0100
0010
,
1000
0100
0001
0010
0200
0000
0310
1000
,
0001
0000
1001
0000
1000
0010
0001
0010
,
1000
0010
0100
0001
0000
1010
0000
0001
,
0100
0010
1000
0000
1000
0010
1000
0010
,
0001
0010
1000
0100
0000
1001
0000
0010
,
1000
0100
0010
0000
1001
0000
0010
0110
,
0000
1000
0001
0011
0000
1100
0000
1000
,
0100
0000
0000
0000
0010
0000
0001
0010
0001
0000
0000
0000
1001
0000
1001
0000
,
0000
0110
0110
0000
0010
1000
0100
0010
,
0001
0100
0010
0000
1001
0000
0000
0000
,
0000
0000
0000
0000
;

//---------------dance-single - ----------------
#NOTEDATA:;
#CHARTNAME:;
#STEPSTYPE:dance-single;
#DESCRIPTION:;
#CHARTSTYLE:;
#DIFFICULTY:Challenge;
#METER:10;
#RADARVALUES:0.395376,0.558732,0.355714,0.086760,0.004338,319.000000,278.000000,41.000000,10.000000,184.000000,0.000000,0.000000,0.000000,0.000000,0.395376,0.558732,0.355714,0.086760,0.004338,319.000000,278.000000,41.000000,10.000000,184.000000,0.000000,0.000000,0.000000,0.000000;
#CREDIT:;
#NOTES:
0000
0000
0000
0000
,
0000
0000
0000
0000
,
0000
0000
0000
0000
,
0000
0000
0000
0000
,
0000
0000
0000
0000
,
0000
0000
0000
0000
,
0000
0000
0000
0000
,
0000
0000
0000
0000
,
0000
0000
0000
0000
,
MMMM
1000
0010
0001
,
1000
0100
0001
1000
,
MMMM
0100
0001
1000
,
0010
0001
1000
0100
,
MMMM
0010
0001
1000
,
0100
0001
0001
1000
,
MMMM
0010
0001
1000
,
0020
0030
0200
0300
,
0110
0000
1000
0100
0001
0000
0100
0000
,
0010
0000
1000
0010
0001
0000
MMMM
0000
,
0100
0100
0100
MMMM
,
0010
0010
0010
MMMM
,
0110
0000
1000
0010
0001
0000
0010
0000
,
0100
0000
1000
0100
0001
0000
MMMM
0000
,
1000
0010
0001
0000
1000
0100
0001
0000
,
0010
0000
0100
0010
0100
0000
0000
0000
,
0010
1000
0010
0000
1000
0100
1000
0000
,
0100
0001
0100
0000
0001
0010
0001
0000
,
0010
1000
0010
0000
1000
0100
1000
0000
,
0100
0001
0100
0000
0001
0010
0001
0000
,
0010
1000
0010
0000
1000
0100
1000
0000
,
0100
0001
0100
0000
0001
0010
0001
0000
,
0010
0000
0000
0100
0000
0100
0000
0100
,
0000
1001
0000
0100
0010
0100
0010
0000
,
MMMM
1100
MMMM
0011
,
MMMM
1010
MMMM
0101
,
MMMM
0110
MMMM
1001
,
MMMM
1100
MMMM
0011
,
MMMM
1010
MMMM
1100
,
MMMM
0101
MMMM
0011
,
MMMM
0110
MMMM
1001
,
1000
0001
1000
0001
0100
0010
0100
0000
,
0001
0100
0001
0100
0010
0100
0010
0000
,
1000
0000
0000
1000
0000
0000
1000
0000
0001
0000
0000
0000
MMMM
0000
0000
0000
,
1000
0100
1000
0100
0010
0100
0010
0000
,
0001
0000
MMMM
0000
0001
0100
1000
0000
,
0001
1000
0001
1000
0010
0100
0010
0000
,
0020
1000
0001
0130
,
MMMM
0110
MMMM
1001
,
0010
0010
0010
0010
0010
0000
MMMM
0000
,
0200
0000
0010
0000
,
0010
0000
0010
0000
,
2300
0000
0010
0000
,
0010
0000
0010
0000
,
3002
0000
0010
0000
,
0010
0000
0010
0000
,
1000
0000
1000
0003
,
MMMM
0010
1001
0000
,
0001
MMMM
1000
MMMM
,
0001
MMMM
1000
MMMM
,
0001
0110
1000
0110
,
0001
0100
1000
0100
0001
0100
1000
0000
,
0001
MMMM
1000
MMMM
,
0001
MMMM
1000
MMMM
,
0001
0010
0100
0000
1000
0100
0010
0000
,
0100
1001
0010
MMMM
0110
0000
1000
0100
,
0001
0000
0100
0000
0010
0000
1000
0010
,
0001
MMMM
0010
0010
,
0010
MMMM
0100
0100
,
0100
0000
MMMM
0000
0110
0000
1000
0010
,
0001
0000
0010
0000
0100
0000
1000
0100
,
0001
MMMM
0220
0330
,
2002
0000
3003
0000
1000
0010
0001
1000
,
0100
0001
1000
0000
0110
0000
1001
0000
,
0110
0000
1001
0000
0100
0000
0001
0010
,
1000
MMMM
0110
1001
,
0110
0000
1001
0000
0100
0000
1000
0100
,
0001
0000
MMMM
0000
1001
0000
0010
1000
,
0000
0100
0001
0010
0000
1000
0000
0100
,
0001
0010
1000
0000
1001
0000
MMMM
0110
,
0000
MMMM
1001
0000
0110
0000
MMMM
0000
,
1000
0100
0001
0000
1001
0000
0000
0000
,
0000
0000
0000
0000
;

//---------------dance-double - ----------------
#NOTEDATA:;
#CHARTNAME:;
#STEPSTYPE:dance-double;
#DESCRIPTION:;
#CHARTSTYLE:;
#DIFFICULTY:Easy;
#METER:5;
#RADARVALUES:0.205744,0.384128,0.052056,0.112788,0.000000,166.000000,160.000000,6.000000,13.000000,0.000000,0.000000,0.000000,0.000000,0.000000,0.205744,0.384128,0.052056,0.112788,0.000000,166.000000,160.000000,6.000000,13.000000,0.000000,0.000000,0.000000,0.000000,0.000000;
#CREDIT:;
#NOTES:
00000000
00000000
00000000
00000000
,
00000000
00000000
00000000
00000000
,
00000000
00000000
00000000
00000000
,
00000000
00000000
00000000
00000000
,
00000000
00000000
00000000
00000000
,
00000000
00000000
00000000
00000000
,
00000000
00000000
00000000
00000000
,
00000000
00000000
00000000
00000000
,
00000000
00000000
00000000
00000000
,
01100000
00000000
00000000
00000000
,
00000000
00000000
00000000
00000000
,
00011000
00000000
00000000
00000000
,
00000000
00000000
00000000
00000000
,
00000110
00000000
00000000
00000000
,
00000000
00000000
00000000
00000000
,
00011000
00000000
00000000
00000000
,
00010000
00000000
00001000
00000000
,
00000010
00000010
00000010
00000000
,
00000001
00000000
00000100
00000000
,
00001000
00001000
00001000
00000000
,
00010000
00000000
00001000
00000000
,
00100000
00100000
00100000
00000000
,
01000000
00000000
10000000
00000000
,
00010000
00010000
00010000
00000000
,
02000000
00000000
00000000
03000000
,
00100000
10000000
00100000
00000000
,
01000000
00000000
00010000
00000000
,
00100000
00001000
00100000
00000000
,
00001000
00000000
00010000
00000000
,
00000100
00000010
00000100
00000000
,
00001000
00000000
00000001
00000000
,
00001000
00000001
00001000
00000000
,
00000020
00000000
00000000
00000030
,
00000001
00000000
00000100
00000000
,
00000010
00000010
00001000
00000000
,
00010000
00000000
00001000
00000000
,
00100000
00100000
01000000
00000000
,
10000000
00000000
00010000
00000000
,
00100000
00100000
00001000
00000000
,
00010000
00000000
00001000
00000000
,
00000010
00000010
00000001
00000000
,
00000010
00000100
00001000
00010000
,
00001000
00000000
00000000
00000000
,
00100000
01000000
00010000
00001000
,
00010000
00000000
00000000
00000000
,
00000100
00010000
00001000
00100000
,
00010000
00000000
00000000
00000000
,
10000000
00000000
01000000
00000000
,
00010000
00010000
00010000
00000000
,
00002000
00000000
00003000
00000000
,
00000020
00000000
00000030
00000000
,
00000002
00000000
00000003
00000000
,
00002000
00000000
00003000
00000000
,
00020000
00000000
00030000
00000000
,
00200000
00000000
00300000
00000000
,
20000000
00000000
30000000
00000000
,
01000000
00000000
00100000
00000000
,
00100000
00010000
01000000
00000000
,
00100000
00000000
10000000
00000000
,
10000000
01000000
00010000
00000000
,
00001000
00000000
00010000
00000000
,
00000010
00001000
00000100
00000000
,
00000010
00000000
00000001
00000000
,
00000001
00000100
00001000
00000000
,
00000001
00000001
00001000
00001001
00000010
00000000
00000100
00000000
,
00000010
00000000
00000001
00000001
,
00000100
00000000
00001000
00000100
,
00001000
00000000
00020000
00030000
,
00002000
00003000
00100000
00010000
,
00100000
00000000
01000000
01000000
,
10000000
00000000
00010000
10000000
,
00010000
00000000
02000000
00000000
,
00000000
03000000
00100000
10000000
,
00100000
10000000
01000000
00000000
,
00010000
00000000
00100000
00001000
,
00100000
00001000
00010000
00000000
,
00001000
00000000
00000100
00000010
,
00000100
00000010
00001000
00000000
,
00000001
00000000
00001000
00000001
,
00001000
00000001
00000020
00000000
,
00000000
00000030
00000110
00000000
,
00000000
00000000
00000000
00000000
;

//---------------dance-double - ----------------
#NOTEDATA:;
#CHARTNAME:;
#STEPSTYPE:dance-double;
#DESCRIPTION:;
#CHARTSTYLE:;
#DIFFICULTY:Medium;
#METER:7;
#RADARVALUES:0.319771,0.453970,0.303659,0.225575,0.000000,258.000000,223.000000,35.000000,26.000000,0.000000,0.000000,0.000000,0.000000,0.000000,0.319771,0.453970,0.303659,0.225575,0.000000,258.000000,223.000000,35.000000,26.000000,0.000000,0.000000,0.000000,0.000000,0.000000;
#CREDIT:;
#NOTES:
00000000
00000000
00000000
00000000
,
00000000
00000000
00000000
00000000
,
00000000
00000000
00000000
00000000
,
00000000
00000000
00000000
00000000
,
00000000
00000000
00000000
00000000
,
00000000
00000000
00000000
00000000
,
00000000
00000000
00000000
00000000
,
00000000
00000000
00000000
00000000
,
00000000
00000000
00000000
00000000
,
10010000
22000000
00000000
00000000
,
00000000
33000000
00000000
00010000
,
00101000
00022000
00000000
00000000
,
00000000
00033000
00000000
00000100
,
00001001
00000022
00000000
00000000
,
00000000
00000033
00000000
00000010
,
00002200
00003000
00020000
00030300
,
00011000
00000000
01100000
00000000
,
10000000
00100000
00010000
00000000
,
00100000
00000000
10000000
00000000
01000000
00000000
00100000
01000000
,
00100000
00010000
00100000
00001000
,
00010000
00001000
00000100
00000010
,
00000001
00000010
00001000
00000000
,
00000010
00000001
00000100
00000000
,
00000010
00000100
00000010
00000000
00010000
00000000
00001000
00000000
,
00010000
00100000
01000000
00000000
,
20100000
31000000
00010000
00001000
,
00010000
00000100
00000010
00000000
,
00000012
00000103
00001000
00010000
,
00001000
01000000
00100000
00000000
,
00120000
10030000
01000000
00010000
,
00001000
00010000
00000100
00000000
,
00002010
00003001
00000100
00010000
,
00001000
00010000
01000000
00000000
,
10000000
10000000
00010000
00010000
,
00110000
00000000
11000000
00000000
,
00010000
10000000
00100000
01000000
,
00001000
00010000
00001000
00000000
,
00000010
00000010
00000100
00000100
,
00000101
00000000
00001010
00000000
,
00000100
00000010
00001000
00000001
,
00000100
00000100
00000100
00000100
,
00000220
00000000
00000000
00000330
,
00001100
00001100
00011000
00000000
,
00202000
00000000
00000000
00303000
,
00110000
00110000
01100000
00000000
,
22000000
00000000
00000000
33000000
,
10010000
10010000
00110000
00000000
,
01000000
00100000
01000000
00000000
00010000
10000000
00010000
00000000
,
00100000
00001000
00010000
00000100
,
00000020
00000000
00000000
00000000
,
00000230
00000000
00000000
00000000
,
00020300
00000000
00000000
00000000
,
02030000
00000000
03010000
00001000
,
00200000
00000000
00000000
00000000
,
02300000
00000000
00000000
00000000
,
03200000
00000000
00000000
00300000
,
10010000
00000000
01100000
00000000
,
01000000
10000000
00100000
00000000
,
00100000
00000000
01000000
00000000
,
00010000
01000000
00001000
00010000
,
00011000
00000000
00001000
00000010
,
00000100
00001000
00000010
00000000
,
00000100
00000000
00000010
00000000
,
00000001
00000100
00000010
00001000
,
00000010
00000010
00000010
00001001
00000001
00000000
00000100
00000000
,
00001000
00000000
00000100
00000001
,
00000010
00000000
00000100
00000010
00000100
00000000
00001000
00000000
,
00000100
00010000
00001000
00010000
,
00100000
01000000
10000000
01000000
,
00010000
00000000
01000000
10000000
,
00100000
00000000
00000000
00000000
01000000
00100000
01000000
00000000
,
00001000
00010000
00001000
00000100
,
00000010
00000000
00000000
00000000
00000100
00000100
00000000
00000001
,
00000000
00001000
00000000
00000100
00000000
00010000
00000000
00001000
,
00010000
00000000
00100000
01000000
00100000
00000000
10000000
00000000
,
00010000
00010000
00000000
00100000
00000000
00001000
00000000
00010000
,
00001000
00010000
00001000
00000000
00000100
00000100
00000000
00000010
,
00000000
00000100
00000000
00000001
00000000
00000100
00000000
00001000
,
00010000
00011000
01000000
10000000
,
00100000
01000000
00001000
00010000
,
00001000
00000000
00000110
00000000
,
00000000
00000000
00000000
00000000
;

//---------------dance-double - ----------------
#NOTEDATA:;
#CHARTNAME:;
#STEPSTYPE:dance-double;
#DESCRIPTION:;
#CHARTSTYLE:;
#DIFFICULTY:Hard;
#METER:12;
#RADARVALUES:0.532952,0.628573,0.329687,0.121463,0.034704,430.000000,392.000000,38.000000,14.000000,0.000000,0.000000,0.000000,0.000000,0.000000,0.532952,0.628573,0.329687,0.121463,0.034704,430.000000,392.000000,38.000000,14.000000,0.000000,0.000000,0.000000,0.000000,0.000000;
#CREDIT:;
#NOTES:
00000000
00000000
00000000
00000000
,
00000000
00000000
00000000
00000000
,
00000000
00000000
00000000
00000000
,
00000000
00000000
00000000
00000000
,
00000000
00000000
00000000
00000000
,
00000000
00000000
00000000
00000000
,
00000000
00000000
00000000
00000000
,
00000000
00000000
00000000
00000000
,
00000000
00000000
00000000
00000000
,
00000101
00001001
00000010
00001000
,
00000100
00000000
00000000
00000000
00000010
00010000
00001000
00000000
,
00011000
00101000
01000000
00100000
,
00010000
00000000
00000000
00000000
01000000
00100000
10000000
00000000
,
01100000
01010000
00100000
00001000
,
00010000
00000000
00000000
00000000
00000010
00001000
00000100
00000000
,
00000220
00000000
00000000
00000330
,
00000101
00000000
00001010
00000000
,
00011000
00000000
00010000
00001000
00100000
00000000
01000000
00000000
,
10000000
00000000
00100000
10000000
00010000
00000000
01000000
00100000
,
01000000
00000000
00010000
00000000
00100000
00001000
00010000
00000200
,
00000000
00000010
00000000
00001300
00000001
00000100
00001000
00000000
,
00001001
00000000
00000001
00000010
00000100
00000000
00001000
00000000
,
00000010
00000000
00000100
00001000
00010000
00000000
00001000
00000000
,
01000000
00010000
01000000
00100000
10000000
01000000
00010000
00001000
,
00000100
00000000
00000010
00001000
00000001
00000000
00000000
00000000
,
00000001
00000100
00001000
00000100
00000010
00010000
00001000
00010000
,
00000000
00011000
00000000
00001000
00010000
01000000
10000000
00000000
,
10000000
01000000
00010000
01000000
00100000
00001000
00010000
00001000
,
00000000
00011000
00000000
00010000
00001000
00000100
00000001
00000000
,
00001000
00000100
00010000
00000100
00000001
00000100
00000010
00000001
,
00000000
00001100
00000000
00000010
00001000
00010000
00100000
01000000
,
01000000
00000000
10000000
00010000
00000000
01100000
00000000
10010000
,
00000000
10000000
01000000
00010000
00001000
00000100
00000010
00000000
,
00000001
00000010
00000100
00001000
00000001
00000010
00000100
00001000
,
00000010
00000000
00000000
00000010
00000000
00000000
00000010
00000000
00010000
00000000
00001000
00000000
00100000
00000000
00000000
00000000
,
00010000
00000000
00100000
00000000
01000000
00000000
10000000
00000000
00010000
00000000
00100000
00000000
01000000
00000000
10000000
00100000
,
10000000
01000000
00010000
00000000
00001000
00000100
00000001
00000000
,
00000001
00000010
00000100
00001000
00000010
00000100
00001000
00010000
,
00001000
00000000
00100000
00010000
00000000
01000000
00100000
00000000
10000000
00000000
01000000
00000000
00100000
00000000
00000000
00000000
,
00001000
00010000
00100000
01000000
00010000
00100000
01000000
10000000
,
00010000
00010000
00010000
00010000
10000000
01000000
00010000
00000000
,
00001000
00010000
00001000
00000010
00001000
00010000
00001000
00000100
,
00000001
00000000
00000000
00000010
00000000
00000000
00000100
00000000
00010000
00000000
00001000
00000000
00011000
00000000
00000000
00000000
,
00010000
00001000
00010000
00100000
00010000
00001000
00010000
01000000
,
00100000
01000000
00000000
00000000
10000000
00000000
01000000
00000000
00100000
00000000
00001000
00000000
00010000
00000000
00000000
00000000
,
00001000
00010000
00000100
00010000
00001000
00100000
00001000
00010000
,
00000010
00000000
00001000
00000100
00000000
00010000
00001000
00000000
00100000
00000000
01000000
00000000
01100000
00000000
00000000
00000000
,
10000000
00010000
00100000
00000000
00001000
00010000
01000000
00000000
,
10000000
10000000
00010000
00010000
00001000
00000100
00000010
00000000
,
00000012
00000000
00001003
00000100
,
00020000
00000000
00031000
00000000
,
01200000
00000000
00310000
10000000
,
02000000
00000000
03100000
00001000
,
00012000
00000000
00003010
00000001
,
00000210
00000000
00001300
00010000
,
00102000
00000000
00013000
01000000
,
00020000
00030000
00002000
00003000
,
00000010
00000000
00000001
00000010
00000100
00000000
00000000
00000100
,
00000000
00000010
00000000
00000001
00001000
00000000
00000100
00010000
,
00000100
00000000
00011000
00000000
00001000
00100000
00000000
01000000
,
00000000
10010000
00000000
00100000
10000000
01000000
00010000
00000000
,
10010000
00000000
10000000
00100000
01000000
00000000
00000000
00010000
,
00000000
00001000
00000000
00000010
00000200
00000000
00000300
00000000
,
00001000
00010000
00100000
00010000
00001000
00000010
00000100
00000000
,
00011000
00000010
00011000
00100000
00011000
00000000
00010000
00001000
,
01000000
00000000
00100000
00000000
10000000
00000000
01000000
10000000
,
00010000
00000000
00100000
01000000
00100000
00000000
00010000
00000000
,
01000000
00001000
00010000
00000020
00000000
00000100
00000000
00001030
,
00000001
00000010
00001000
00000000
00001001
00000000
00000001
00000100
,
00000010
00000000
00001000
00000000
00000100
00000000
00000010
00001000
,
00010000
00000000
00001000
00000000
00100000
00010000
00100000
01000000
,
10000000
00100000
00010000
00001000
00000010
00000000
00000100
00001000
,
00000001
00000000
00000000
00000000
00000001
00000100
00001000
00000100
,
00000000
00000001
00000100
00010000
00000000
01100000
00000000
10000000
,
01000000
00010000
01000000
00000000
10000000
01000000
00010000
01000000
,
00000000
10000000
01000000
00001000
00000000
00000110
00000000
00000001
,
00000100
00001000
00010000
00000000
00011000
00000000
00100000
01100000
,
00000000
10000000
00100000
00010000
00000000
00000110
00000000
00000001
,
00000010
00000000
00000100
00000000
00001001
00000000
00000100
00000110
,
00000000
00000001
00001000
00000000
00000001
00000100
00001000
00010000
,
00100000
10000000
01000000
00000000
10010000
00000000
00000000
00000000
,
00000000
00000000
00000000
00000000
;

//---------------dance-double - ----------------
#NOTEDATA:;
#CHARTNAME:;
#STEPSTYPE:dance-double;
#DESCRIPTION:;
#CHARTSTYLE:;
#DIFFICULTY:Challenge;
#METER:11;
#RADARVALUES:0.405291,0.558732,0.329687,0.130139,0.004338,327.000000,289.000000,38.000000,15.000000,272.000000,0.000000,0.000000,0.000000,0.000000,0.405291,0.558732,0.329687,0.130139,0.004338,327.000000,289.000000,38.000000,15.000000,272.000000,0.000000,0.000000,0.000000,0.000000;
#CREDIT:;
#NOTES:
00000000
00000000
00000000
00000000
,
00000000
00000000
00000000
00000000
,
00000000
00000000
00000000
00000000
,
00000000
00000000
00000000
00000000
,
00000000
00000000
00000000
00000000
,
00000000
00000000
00000000
00000000
,
00000000
00000000
00000000
00000000
,
00000000
00000000
00000000
00000000
,
00000000
00000000
00000000
00000000
,
MMMMMMMM
00010000
00010000
00001000
,
00001000
00010000
00001000
00010000
,
MMMMMMMM
10000000
00100000
00010000
,
10000000
01000000
00010000
00001000
,
MMMMMMMM
00000010
00000001
00001000
,
00000100
00000001
00001000
00000010
,
MMMMMMMM
00010000
00001000
00010000
,
00002000
00003000
00020000
00030000
,
00011000
00000000
00000010
00000100
00000001
00000000
00001000
00000010
,
00000001
00000010
00000110
MMMMMMMM
,
01100000
00000000
00100000
00000000
10000000
00100000
00010000
00000000
,
00100000
01000000
00010000
MMMMMMMM
,
00011000
00000000
01000000
00100000
00010000
00000000
10000000
01000000
,
00010000
01000000
01100000
MMMMMMMM
,
00010000
00001000
00000100
00000000
00010000
00001000
00000010
00000000
,
00000001
00001000
00011000
00000000
,
00010000
00000000
01000000
00000000
10000000
00100000
00010000
00000000
,
00001000
00000100
00000001
00000000
00000010
00000000
00001000
00000000
,
00010000
00000000
00100000
10000000
01000000
00000000
00010000
00000000
,
00001000
00000000
00000010
00000001
00000100
00000000
00001000
00000000
,
00100000
10000000
01000000
00010000
,
00100000
00000000
10000000
00000000
01000000
00010000
00001000
00000000
,
00000010
00000000
00000001
00000001
00000000
00000100
00000000
00001000
,
00000000
00011000
00000000
00010000
00100000
10000000
01000000
00000000
,
MMMMMMMM
00011000
MMMMMMMM
00001010
,
MMMMMMMM
01010000
MMMMMMMM
00101000
,
MMMMMMMM
00010010
MMMMMMMM
00001001
,
MMMMMMMM
00011000
MMMMMMMM
00010100
,
MMMMMMMM
01010000
MMMMMMMM
11000000
,
MMMMMMMM
00101000
MMMMMMMM
00010100
,
MMMMMMMM
00011000
MMMMMMMM
10010000
,
10000000
01000000
00010000
00001000
00000100
00001000
00010000
00000000
,
00000100
00001000
00000100
00000010
00000100
00000001
00000100
00000000
,
00010000
00000000
00000000
00010000
00000000
00000000
00010000
00000000
00001000
00000000
00000000
00000000
MMMMMMMM
00000000
00000000
00000000
,
01000000
00010000
01000000
00100000
01000000
10000000
01000000
00000000
,
00010000
00000000
MMMMMMMM
00000000
00000010
00000100
00001000
00000000
,
00010000
00001000
00100000
00001000
00010000
00000100
00010000
00000000
,
00002000
00010000
00100000
00013000
,
MMMMMMMM
00000110
MMMMMMMM
01100000
,
00100000
00001000
00010000
00001000
00100000
00001000
00010000
00000000
,
00002000
00000000
00010000
00000000
,
00000100
00000000
00010000
00000000
,
02003000
00000000
00010000
00000000
,
10000000
00000000
03010000
00001000
,
00000200
00000000
00000001
00000000
,
00001000
00000000
00000301
00000100
,
00020000
00000000
00001000
01030000
,
MMMMMMMM
00001000
00011000
00000000
,
00020010
00032000
00100000
00023000
,
00000010
00032000
00100000
00013000
,
01000000
10000000
00100000
00010000
,
MMMMMMMM
00000110
MMMMMMMM
00012000
,
00100000
00023000
00000010
00032000
,
00100000
00023000
00000010
00031000
,
00000100
00000001
00000100
00000000
00001000
00010000
00100000
00000000
,
01000000
00011000
00000010
MMMMMMMM
00011000
00000000
01000000
00100000
,
10000000
00000000
00010000
01000000
10000000
00000000
01000000
00000000
,
01100000
MMMMMMMM
00000110
00000100
,
00000001
00000100
00001000
00000000
00000100
00000000
00000010
00000000
,
00001000
00000000
MMMMMMMM
00000000
00011000
00000000
00000010
00000100
,
00001000
00000000
00000001
00000010
00001000
00000000
00000010
00000000
,
00000110
00000000
MMMMMMMM
00000000
00001000
00010000
00100000
00000000
,
00001000
00010000
01000000
00000000
10000000
00000000
00010000
00000000
,
00011000
MMMMMMMM
00001000
00000010
,
00000001
00000100
00001000
00000000
00010000
00100000
10000000
00000000
,
01000000
00000000
00010000
00000000
00001000
00000000
00000100
00000001
,
00000010
00000000
00001000
00000000
00010000
00000000
01000000
10000000
,
00100000
00000000
00010000
00000000
00011000
00000000
00000100
00000100
,
00000000
00000001
00000010
00001000
00000000
00011000
00000000
00001000
,
00010000
01000000
10000000
00000000
00100000
00000000
01000000
01000000
,
00000000
00100000
00010000
00000000
00011000
00000000
00001000
00000100
,
00000001
MMMMMMMM
00001001
00000000
,
00000000
00000000
00000000
00000000
;

//---------------dance-single - Edit----------------
#NOTEDATA:;
#CHARTNAME:;
#STEPSTYPE:dance-single;
#DESCRIPTION:Edit;
#CHARTSTYLE:;
#DIFFICULTY:Edit;
#METER:17;
#RADARVALUES:0.914694,1.192836,0.615993,0.589965,0.789513,738.000000,667.000000,71.000000,68.000000,0.000000,0.000000,0.000000,0.000000,0.000000,0.914694,1.192836,0.615993,0.589965,0.789513,738.000000,667.000000,71.000000,68.000000,0.000000,0.000000,0.000000,0.000000,0.000000;
#CREDIT:;
#NOTES:
// measure 0
0000
0000
0000
0000
,  // measure 1
0000
0000
0000
0000
,  // measure 2
0000
0000
0000
0000
,  // measure 3
0000
0000
0000
0000
,  // measure 4
0000
0000
0000
0000
,  // measure 5
0000
0000
0000
0000
,  // measure 6
0000
0000
0000
0000
,  // measure 7
0000
0000
0000
0000
,  // measure 8
0000
0000
0000
0000
,  // measure 9
0001
0010
1000
0010
0001
0100
1000
0100
,  // measure 10
0001
0000
0001
0010
0000
0100
1000
0000
0202
0000
0303
0000
1000
0100
0010
0000
,  // measure 11
1000
0100
0001
0100
1000
0010
0001
0010
,  // measure 12
1000
0000
1000
0100
0000
0010
0001
0000
0022
0000
0033
0000
0100
0001
1000
0000
,  // measure 13
0010
1000
0010
0001
0100
1000
0100
0001
,  // measure 14
0010
0000
0010
1000
0000
0010
0001
0000
2002
0000
3003
0000
1000
0100
0001
0000
,  // measure 15
1000
0100
1000
0100
0010
0001
0010
0001
1000
0100
0010
0001
1000
0100
0010
0001
,  // measure 16
0200
0000
0020
0330
,  // measure 17
0110
0000
1001
0000
0001
0100
1000
0000
0220
0000
0000
0000
0300
0000
0001
0000
,  // measure 18
0000
0000
1000
0000
0000
0000
0031
0000
1000
0000
0100
0010
0001
0000
1000
0000
,  // measure 19
1001
0000
0110
0000
1000
0100
0001
0000
0002
0000
2000
0000
3000
0000
1000
0000
,  // measure 20
0000
0000
0100
0000
0000
0000
0013
0000
0001
0100
0010
0000
0100
0000
1000
0000
,  // measure 21
1100
0000
0110
0000
0010
0001
1000
0000
2002
0000
3003
0000
0001
0100
1000
0000
,  // measure 22
1010
0000
1001
0000
0001
0010
0100
0000
0220
0000
0330
0000
0100
0010
1000
0000
,  // measure 23
2002
0003
3001
0000
2002
3000
1003
0000
,  // measure 24
1000
0100
0001
0000
0001
0010
1000
0000
2002
0000
0000
0000
3003
0000
0000
0000
,  // measure 25
1000
0000
0100
0000
0001
0000
0100
0000
1000
0000
0100
0000
0001
0000
0100
1000
,  // measure 26
0100
0001
0100
1000
0100
0001
0100
1000
0100
0001
0100
1000
0100
0000
0010
0000
,  // measure 27
0001
0000
0010
0000
1000
0000
0010
0000
0001
0000
0010
0000
1000
0000
0010
0001
,  // measure 28
0010
1000
0010
0001
0010
1000
0010
0001
0010
1000
0010
0001
0010
0000
0100
0000
,  // measure 29
0010
0000
1000
0000
0100
0000
0001
0000
0010
0000
1000
0000
0100
0000
0001
0010
,  // measure 30
1000
0100
0001
0010
1000
0100
0001
0010
1000
0100
0001
0010
1000
0000
0100
0000
,  // measure 31
0210
0000
0000
0000
0001
0000
0301
0000
0000
0000
0101
0000
0000
0000
1000
0010
,  // measure 32
0100
0001
1000
0100
0010
0001
0010
0100
1000
0001
0100
0010
1000
0100
0010
0001
,  // measure 33
1000
0001
0100
0010
1010
0101
1010
0000
,  // measure 34
1100
0000
0100
0001
0000
0001
0100
0000
1100
0000
0110
0000
0011
0000
0000
0000
,  // measure 35
0001
0000
0100
0000
1000
0000
0100
0000
0001
0000
0010
0000
1000
0000
0010
0010
,  // measure 36
0010
0001
1000
0001
1001
0110
2002
3003
,  // measure 37
1000
0100
0001
0010
0110
1001
0110
0000
,  // measure 38
0101
0000
0100
1000
0000
1000
0010
0000
0011
0000
0110
0000
1100
0000
0000
0000
,  // measure 39
1000
0000
0100
0000
0001
0000
0100
0000
1000
0000
0010
0000
0001
0000
0010
0100
,  // measure 40
1000
0100
0001
1000
0010
0100
0001
1000
0010
0001
0100
0010
1000
0000
0100
0000
,  // measure 41
0120
0100
1000
1000
0001
0001
1000
1030
,  // measure 42
1010
0000
0100
0001
0000
1000
0100
0000
0022
0000
0033
0000
0001
0010
0100
0000
,  // measure 43
1100
0100
0110
0010
0011
0001
1001
1000
,  // measure 44
1000
0100
0000
0001
0100
0000
0010
0000
0202
0000
0303
0000
1000
0100
0010
0000
,  // measure 45
0210
0001
0000
1000
0000
0001
0000
1300
,  // measure 46
1100
0000
0010
1000
0000
0001
0010
0000
0110
0000
0110
0000
1000
0001
0100
0000
,  // measure 47
0010
0000
0100
0000
0001
0000
1000
0010
0100
0000
0010
0000
0001
0000
1000
0000
,  // measure 48
0010
0000
0000
0100
0000
0000
0010
0000
0000
0100
0000
0000
0010
0000
0000
0100
0000
0000
0010
0000
0000
0100
0000
0000
0020
0000
0000
0000
0000
0000
0130
0000
0000
0000
0000
0000
1000
0000
0100
0000
0010
0000
0001
0000
0000
0000
0000
0000
,  // measure 49
2000
0000
0100
0100
0100
0100
0000
3200
,  // measure 50
0000
0320
0000
0031
0100
1000
0010
0001
,  // measure 51
0200
0000
0010
0010
0010
0010
0000
0320
,  // measure 52
0000
2030
0000
3100
0001
0010
0100
1000
,  // measure 53
0020
0000
1000
1000
1000
1000
0000
2030
,  // measure 54
0000
3002
0000
0013
1000
0100
0001
0010
,  // measure 55
0002
0000
1000
1000
1000
1000
0000
1003
,  // measure 56
1002
0103
2001
3100
,  // measure 57
0210
0000
1300
0010
0210
0000
0301
0210
,  // measure 58
0000
0000
1000
0000
0000
0000
0301
0000
0010
0000
1000
0100
0010
0000
0001
0000
,  // measure 59
0210
0000
0301
0010
0210
1000
0300
0210
,  // measure 60
0000
0000
0001
0000
0000
0000
1300
0000
0010
0000
0100
0001
1000
0000
0100
0000
,  // measure 61
0100
0000
0000
0010
0000
0000
0100
0000
0000
0010
0000
0000
0100
0000
0000
0010
0000
0000
0100
0000
0000
0010
0000
0000
0100
0000
0000
0010
0000
0000
0100
0000
0000
0010
0000
0000
1000
0000
0100
0000
0010
0000
0001
0000
0000
0000
0000
0000
,  // measure 62
0010
0000
0000
0100
0000
0000
0010
0000
0000
0100
0000
0000
0010
0000
0000
0100
0000
0000
0010
0000
0000
0100
0000
0000
0010
0000
0000
0100
0000
0000
0010
0000
0000
0100
0000
0000
0001
0000
0010
0000
0100
0000
1000
0000
0000
0000
0000
0000
,  // measure 63
0001
0010
0001
0010
0100
1000
0100
1000
0001
0010
0100
1000
0001
0010
0100
1000
,  // measure 64
2200
3300
0000
0000
0202
0303
0000
0000
0022
0033
0000
0000
2020
3030
0000
0000
1010
0000
0000
0000
0110
0000
0000
0000
0100
0000
0001
0000
1000
0000
0000
0000
,  // measure 65
2002
0000
3003
0000
0001
0100
2000
0000
0000
0000
3010
0000
0001
0000
0100
0001
,  // measure 66
1000
0100
0010
0001
0100
0010
1000
0001
0010
0000
0000
0010
0100
0000
0000
0100
,  // measure 67
1000
0100
0020
0000
0000
0000
0001
0000
0000
0000
0130
0000
0010
0000
1000
0100
,  // measure 68
0001
0100
1000
0010
0100
0001
1000
0100
0020
0000
0031
0000
0001
0010
0100
1000
,  // measure 69
0010
0100
0001
1000
0100
0010
0001
0100
0002
0000
0013
0000
0001
0010
0100
1000
,  // measure 70
0010
0100
0010
0001
1000
0010
0100
0001
1000
0000
0100
0000
1000
0000
0100
0000
,  // measure 71
0010
0000
0001
0000
0010
0000
0001
0000
1000
0100
0001
0100
1000
0010
0001
0010
,  // measure 72
1000
0000
0000
0100
0000
0000
0010
0000
0000
0001
0000
0000
1000
0000
0100
0000
0010
0000
0001
0000
0000
0000
0000
0000
0210
0000
0000
0000
0000
0000
0001
0000
0000
0000
0000
0000
0000
0000
0000
0000
0000
0000
1000
0000
0000
0000
0000
0000
,  // measure 73
0000
0000
0001
0000
0000
0000
1300
0010
0001
0010
1000
0100
0001
0100
1000
0010
,  // measure 74
0100
0001
1000
0100
0010
0001
0100
0010
1000
0000
0100
0000
0210
0000
1000
0000
,  // measure 75
0000
0000
0001
0000
0000
0000
1300
0010
0100
0001
1000
0100
0010
0001
0010
0100
,  // measure 76
1000
0010
0001
0100
0010
1000
0100
0010
0001
0000
0101
0000
0000
0000
1010
0000
,  // measure 77
0000
0000
1100
0000
1000
0000
0100
0001
1000
0100
0010
0001
0100
0010
1000
0001
,  // measure 78
0010
0100
1000
0001
0100
0010
1000
0100
0010
0000
0000
0000
0101
0000
1010
0000
,  // measure 79
0000
0000
1100
0000
0000
0000
1000
0100
0001
0100
1000
0010
0001
0010
1000
0001
,  // measure 80
0100
1000
0100
0001
0010
1000
0010
0002
2000
0000
0000
0000
0000
0000
3003
0000
;
