#TITLE:☆shining☆;
#SUBTITLE:;
#ARTIST:ピンクターボ;
#TITLETRANSLIT:shining;
#SUBTITLETRANSLIT:;
#ARTISTTRANSLIT:Pink Turbo;
#GENRE:;
#CREDIT:;
#BANNER:shining.png;
#BACKGROUND:shining-bg.png;
#LYRICSPATH:;
#CDTITLE:;
#MUSIC:shining.ogg;
#OFFSET:0.000000;
#SAMPLESTART:53.820000;
#SAMPLELENGTH:15.000000;
#SELECTABLE:YES;
#BPMS:0.000000=187.000000
,4.000000=185.000000
,232.000000=92.500000
,240.000000=185.000000
;
#STOPS:
;
#BGCHANGES:0.000=shining.avi=1.000=0=0=0=StretchNoLoop====,
99999=-nosongbg-=1.000=0=0=0 // don't automatically add -songbackground-
;
#KEYSOUNDS:;
#ATTACKS:;

//---------------dance-single - ----------------
#NOTES:
     dance-single:
     :
     Beginner:
     2:
     0.126757,0.214430,0.017925,0.017925,0.000000,99.000000,97.000000,2.000000,2.000000,0.000000,0.000000,0.126757,0.214430,0.017925,0.017925,0.000000,99.000000,97.000000,2.000000,2.000000,0.000000,0.000000:
0000
0000
0000
0000
,
0000
0000
0000
0000
,
0001
0000
0000
0000
,
1000
0000
0000
0000
,
0001
0000
0000
0000
,
0000
0000
0000
0000
,
0001
0000
0000
0000
,
1000
0000
0000
0000
,
0001
0000
0001
0000
,
0000
0000
0000
0000
,
0100
0000
0000
0000
,
0000
0000
0000
0000
,
0100
0000
0000
0000
,
0000
0000
0000
0000
,
0010
0000
0000
0000
,
0000
0000
0000
0000
,
0010
0000
0000
0000
,
0000
0000
0000
0000
,
0001
0000
0000
0000
,
0001
0000
0001
0000
,
0001
0000
0000
0000
,
0001
0000
0000
0000
,
1000
0000
0000
0000
,
0001
0000
0000
0000
,
1000
0000
1000
0000
,
1000
0000
0000
0000
,
0100
0000
0000
0000
,
0001
0000
0001
0000
,
0001
0000
0000
0000
,
0001
0000
0000
0000
,
0100
0000
0000
0000
,
0010
0000
0000
0000
,
1000
0000
1000
0000
,
1000
0000
0000
0000
,
0100
0000
0000
0000
,
0001
0000
0000
0000
,
0100
0000
0000
0000
,
1000
0000
0000
0000
,
0010
0000
0000
0000
,
0001
0000
0001
0000
,
1000
0000
1000
0000
,
1001
0000
0000
0000
,
0100
0000
0100
0000
,
0100
0000
0100
0000
,
0100
0000
0000
0000
,
0000
0000
0000
0000
,
0001
0000
0001
0000
,
0001
0000
0001
0001
,
0001
0000
0000
0000
,
0000
0000
0000
0000
,
0010
0000
0010
0000
,
0010
0000
0010
0000
,
0010
0000
0000
0000
,
0000
0000
0000
0000
,
1000
0000
1000
0000
,
1000
0000
1000
1000
,
1000
0000
0000
0000
,
0000
0000
0000
0000
,
0001
0000
0000
0000
,
0100
0000
0000
0000
,
1000
0000
1000
0000
,
0001
0000
0001
0000
,
1000
0000
1000
0000
,
1001
0000
0000
0000
,
0001
0000
0001
0000
,
1000
0000
1000
0000
,
0010
0000
0000
0000
,
0100
0000
0000
0000
,
0010
0000
0000
0000
,
0100
0000
0100
0000
,
0002
0000
2000
0000
,
3003
0000
0000
0000
,
0001
0000
0001
0000
,
0001
0000
0000
0000
,
1000
0000
1000
0000
,
1000
0000
0000
0000
,
0100
0000
0100
0000
,
0100
0000
0000
0000
,
0001
0000
1000
0000
,
0001
0000
0100
0100
;

//---------------dance-single - ----------------
#NOTES:
     dance-single:
     :
     Easy:
     5:
     0.235588,0.321645,0.125476,0.259915,0.000000,184.000000,170.000000,14.000000,29.000000,0.000000,0.000000,0.235588,0.321645,0.125476,0.259915,0.000000,184.000000,170.000000,14.000000,29.000000,0.000000,0.000000:
0000
0000
0000
0000
,
0000
0000
0000
0000
,
0001
0000
1000
0000
,
0010
0000
0100
0000
,
0010
0000
0200
0000
,
0300
0000
0000
0000
,
1000
0000
0001
0000
,
0010
0000
0100
0000
,
0010
0000
2002
0000
,
0000
3003
0000
0000
,
0200
0000
0000
0300
,
0020
0000
0000
0030
,
1000
1000
0100
0000
,
0010
0000
0100
0000
,
0002
0000
0000
0003
,
2000
0000
0000
3000
,
0010
0010
0100
0000
,
0001
0000
1000
0000
,
2002
3003
0000
0000
,
0001
0001
0100
0010
,
0100
0000
0002
0000
,
0003
0000
0000
0000
,
1001
0000
0000
0000
,
0110
0000
0000
0000
,
0100
0000
0010
0000
,
1000
0001
1000
0000
,
2002
3003
0000
0000
,
0010
0010
1000
0010
,
0100
0000
0020
0000
,
0030
0000
0000
0000
,
1001
0000
0000
0000
,
0110
0000
0000
0000
,
1000
1000
0001
0001
,
0010
0100
0010
0000
,
1000
1000
1000
1000
,
0200
0000
0300
0000
,
0001
0001
0001
0001
,
0200
0000
0300
0000
,
0010
0000
0010
0000
,
0001
0000
1000
0000
,
0010
0010
0100
0100
,
1001
0000
0000
0000
,
0001
0010
0100
0000
,
0010
0010
0100
0100
,
0002
0000
2000
0000
,
3003
0000
0000
0000
,
0001
0001
0010
0000
,
0100
1000
0100
0000
,
0010
0000
2002
0000
,
3003
0000
0000
0000
,
1000
0100
0010
0000
,
0100
0100
0010
0010
,
0002
0000
2000
0000
,
3003
0000
0000
0000
,
1000
0000
1000
0100
,
0001
0000
0001
0100
,
1000
0000
2002
0000
,
0000
0000
3003
0000
,
0200
0000
0000
0300
0002
0000
0000
0003
,
2000
0000
0002
0000
0000
0000
0000
3003
,
0100
0100
0100
0100
,
0001
0001
0001
0001
,
1000
1000
1000
1000
,
0010
0010
0010
0000
,
0100
0100
0001
0000
,
0010
0010
1000
0000
,
0001
0000
1000
0000
,
0001
1000
0010
0000
,
0010
0010
0010
0010
,
0100
0100
0100
0100
,
0002
0000
2000
0000
,
0000
0000
3003
0000
,
1001
0000
0010
0000
,
0100
0100
0010
0000
,
0001
0000
1000
0000
,
0001
0100
1000
0000
,
0010
0000
0110
0000
,
1000
0001
1000
0000
,
0010
0000
0100
0000
,
0001
1000
1001
1001
;

//---------------dance-single - ----------------
#NOTES:
     dance-single:
     :
     Medium:
     8:
     0.430204,0.643289,0.349541,0.197177,0.000000,336.000000,297.000000,39.000000,22.000000,0.000000,0.000000,0.430204,0.643289,0.349541,0.197177,0.000000,336.000000,297.000000,39.000000,22.000000,0.000000,0.000000:
0000
0000
0000
0000
,
0000
0000
0000
0000
,
1001
0010
0100
0100
,
0001
0001
0010
0100
,
1000
2000
0002
0000
,
3003
0010
0010
0010
,
1001
0100
1000
0010
,
0100
0100
0001
1000
,
0010
0100
0200
0000
,
0010
0010
0310
1001
,
0010
0000
0001
0000
0100
0001
0100
0000
,
0010
1000
0001
0100
,
0010
0100
1000
0001
,
0100
0100
0001
0000
,
0010
0010
0100
0010
,
1000
0001
1000
0001
,
0010
1000
0100
0001
,
0010
0100
0110
0000
,
2002
3003
0000
0000
,
1000
1000
0001
0001
,
0100
0000
0010
1000
0010
0000
0000
0000
,
0001
0010
0100
1000
,
1010
0010
0100
0100
,
0010
0100
1001
0000
,
0010
1000
0001
0100
,
0012
1000
0103
0000
,
2002
3003
0000
0000
,
0010
0010
0100
0100
,
0010
0000
0001
0100
0001
0000
0000
0000
,
0010
1000
0100
0001
,
0110
0100
0000
0010
,
1001
1000
0000
0000
,
0010
0000
0100
0000
0010
1000
0010
0000
,
0100
0010
1001
0000
,
0002
0013
2000
3100
,
0020
1030
0200
0301
,
0020
1000
0130
2000
,
0001
3100
0020
0130
,
1001
1000
0001
1000
,
0011
0000
1100
0010
,
1000
0000
0001
0010
0100
0000
0010
0000
,
0110
0000
0000
0000
,
1001
0000
0001
0100
0001
0000
0001
0000
,
0010
1000
0100
0001
,
0010
0000
0001
1000
0200
0000
0000
0000
,
0310
0001
0001
0001
,
1001
0000
1000
0100
1000
0000
1000
0000
,
0010
0001
0100
1000
,
0010
0000
0100
0001
0020
0000
0000
0000
,
0030
1000
0001
1000
,
0011
0000
0001
1000
0000
1000
0100
0000
,
0010
0001
0100
1000
,
0010
0000
0010
0001
2000
0000
0000
0000
,
3001
0010
0010
0010
,
1100
0000
0010
0001
0000
0001
0010
0000
,
1000
0100
0001
0010
,
0100
0000
1000
0010
0200
0000
0000
0000
,
0020
0000
0000
0330
,
0001
0001
0001
0001
0010
0010
0010
0010
,
1000
1000
1000
1000
0100
0100
0100
1001
,
1000
0100
1000
0000
0010
0000
0010
0000
,
0001
0100
0001
0000
0010
0000
0010
0000
,
1000
0100
1000
0000
0001
0100
0001
0000
,
1000
0010
0001
0100
,
1001
1001
0100
0100
,
0011
0011
1000
1000
,
0110
0110
0001
0001
,
1100
1100
0010
0010
,
1000
1100
0001
0101
,
0010
1000
0100
0001
,
1001
1010
0202
0000
,
0000
0000
0000
0303
,
0100
0010
0000
0000
0100
0000
0000
0100
,
0000
0100
0001
1100
,
0001
0010
0000
0000
0001
0000
0000
0001
,
0000
0001
1000
0101
,
1000
0010
0000
0000
1000
0000
0000
1000
,
0000
1000
0001
0110
,
0010
0001
0000
0000
0010
0000
0000
0010
,
0000
0010
0110
1001
;

//---------------dance-single - ----------------
#NOTES:
     dance-single:
     :
     Hard:
     11:
     0.568484,0.679028,0.582568,0.250952,0.008963,444.000000,379.000000,65.000000,28.000000,0.000000,0.000000,0.568484,0.679028,0.582568,0.250952,0.008963,444.000000,379.000000,65.000000,28.000000,0.000000,0.000000:
0000
0000
0000
0000
,
0000
0000
0000
0000
,
1001
0010
1001
0100
,
1001
0010
1001
0100
,
0010
0010
0100
0000
,
0020
0032
0203
1300
,
0010
1010
0100
0101
,
0010
1000
0100
0000
0010
0001
0100
0000
,
0010
1000
0001
0100
0020
0000
0000
0000
,
0100
0100
0130
1001
,
0110
0000
1000
0000
0100
0100
0100
0000
,
0010
0010
0100
0000
0100
0100
0010
0000
,
1100
0000
0011
0000
1000
1000
0100
0000
,
0001
0001
0100
0000
0010
0010
0100
0000
,
0100
0000
1001
0000
0100
0100
0100
0000
,
0010
0010
0100
0000
0100
0100
0010
0000
,
1000
0100
0100
0000
0001
0100
0100
0000
,
0100
0000
1010
0000
0010
0100
0100
0000
,
2002
3003
0000
1000
,
0001
0010
0100
0000
0010
0000
0001
0000
,
1000
0000
0010
0100
0010
0000
1000
0000
,
0001
0110
0110
0110
,
1100
0000
0001
0100
0000
0010
1000
0000
,
0101
0000
0010
1000
0000
0001
0100
0000
,
0010
1000
0010
0000
0100
0001
0100
0000
,
0010
1000
0001
0100
0000
0000
0010
0000
,
2002
3003
0000
0001
,
1000
0010
0100
0000
0010
0000
1000
0000
,
0001
0000
0100
0010
0100
0000
0001
0000
,
1000
0110
0110
0110
,
0011
0000
0010
0001
0000
0100
1000
0000
,
1010
0000
0100
0001
0000
0010
1000
0000
,
0010
0001
0100
0000
0010
1000
0100
0000
,
0010
0001
0100
1000
0000
0010
0010
0000
,
0120
2030
3200
0301
,
0020
1000
0100
1030
,
0120
0032
0203
1300
,
0020
0100
0001
0130
,
1010
0000
0010
0100
0000
0100
0010
0010
,
0100
0010
1000
0001
,
0010
0000
0100
1000
0001
0000
0110
0000
,
1001
0000
0000
0000
0000
0000
0000
0000
0010
0000
0000
0010
0000
0000
0010
0000
,
1001
0000
0010
0100
0000
1000
0100
0010
,
0001
2100
3020
0032
,
0013
0000
0001
0010
0200
0000
0000
0000
,
0310
1010
0101
0010
,
1001
0000
0010
0100
0000
0100
0010
0100
,
0001
0010
0101
1010
,
1001
0000
0010
0100
0200
0000
0001
0000
,
0310
0100
0100
0100
,
1001
0000
0010
0100
0000
0001
0010
0100
,
1000
0012
0203
2300
,
3100
0000
1000
0100
0020
0000
0000
0000
,
0130
0101
1010
0100
,
1001
0000
0010
0100
0000
0100
0010
0000
,
1001
0100
1010
0101
,
1001
0000
0100
0010
0200
0000
0000
0000
,
0020
0000
0000
0330
,
1000
1000
0100
0100
0001
0001
0010
0010
,
1000
0000
1000
0000
0100
0000
0100
0000
0001
0000
0001
0000
0010
0010
0100
0000
,
1100
0000
1000
0100
1000
0001
0010
0000
,
0101
0000
0010
1000
0001
0100
0010
0000
,
0001
1000
0010
0000
1000
0001
0010
0000
,
0011
0000
1100
0000
0100
0010
0100
0000
,
1000
0000
1100
0000
0001
0100
1000
0000
,
0010
0000
0011
0000
1000
0010
0001
0000
,
0100
0000
0110
0000
0001
0010
1000
0000
,
0001
0000
1001
0000
1000
0100
0001
0000
,
0100
0001
0100
0000
1000
0010
1000
0000
,
0001
0010
0100
0000
1000
0001
0100
0000
,
0110
0000
1001
0000
0100
0100
0100
0000
,
1000
0010
1000
0001
0200
0000
0300
0000
,
0100
0100
0000
0100
0010
0000
0010
1000
,
0000
1000
0100
0000
0011
0000
0101
0000
,
1000
1000
0000
1000
0100
0000
0100
0010
,
0000
0010
0001
0000
1010
0000
0101
0000
,
0100
0100
0000
0100
0001
0000
0001
1000
,
0000
1000
0001
0000
1100
0000
1010
0000
,
0001
0001
0000
1000
1000
0000
0001
0001
,
0000
0100
0110
0000
0110
0000
1001
0000
;

//---------------dance-double - ----------------
#NOTES:
     dance-double:
     :
     Easy:
     5:
     0.226625,0.321645,0.089626,0.233027,0.000000,177.000000,167.000000,10.000000,26.000000,0.000000,0.000000,0.226625,0.321645,0.089626,0.233027,0.000000,177.000000,167.000000,10.000000,26.000000,0.000000,0.000000:
00000000
00000000
00000000
00000000
,
00000000
00000000
00000000
00000000
,
00001000
00000000
00001000
00000000
,
00010000
00000000
00010000
00000000
,
00001000
00000000
00002000
00000000
,
00003000
00000000
00000000
00000000
,
00000010
00000000
00000010
00000000
,
00000100
00000000
00000100
00000000
,
00000010
00000000
00002002
00000000
,
00000000
00003003
00000000
00000000
,
00001000
00001000
00001000
00000000
,
00002000
00000000
00000000
00003000
,
00010000
00010000
00010000
00000000
,
00020000
00000000
00000000
00030000
,
00100000
00100000
00100000
00000000
,
02000000
00000000
00000000
03000000
,
00010000
10000000
00010000
00000000
,
00100000
00000000
00010000
00000000
,
00022000
00033000
00000000
00000000
,
00001000
00000000
00000010
00000000
,
00000001
00000000
00000200
00000000
,
00000300
00000000
00000000
00000000
,
00011000
00000000
00010000
00000000
,
10010000
00000000
00000000
00000000
,
00100000
00100000
01000000
00000000
,
00010000
10000000
00010000
00000000
,
20020000
30030000
00000000
00000000
,
10000000
00000000
01000000
00000000
,
00100000
00000000
00020000
00000000
,
00030000
00000000
00000000
00000000
,
00011000
00000000
00001000
00000000
,
00001001
00000000
00000000
00000000
,
00000001
00000000
00001000
00000000
,
00000100
00000010
00000100
00000000
,
00000001
00000001
00000001
00000001
,
00000020
00000000
00000030
00000000
,
00001000
00001000
00001000
00001000
,
00020000
00000000
00030000
00000000
,
00100000
00000000
00100000
00000000
,
00001000
00000000
00010000
00000000
,
00000100
00000000
00000100
00000000
,
00011000
00000000
00000000
00000000
,
00001000
00010000
00100000
00000000
,
01000000
01000000
01000000
00000000
,
00020000
00000000
20000000
00000000
,
30030000
00000000
00000000
00000000
,
10000000
01000000
10000000
00000000
,
00010000
00001000
00010000
00000000
,
00000010
00000100
00000020
00000000
,
00000030
00000000
00000000
00000000
,
00010000
00001000
00000100
00000000
,
00000010
00000010
00000010
00000000
,
00000002
00000000
00002000
00000000
,
00003003
00000000
00000000
00000000
,
00000001
00000100
00000001
00000000
,
00001000
00010000
00001000
00000000
,
00100000
01000000
00200000
00000000
,
00300000
00000000
00000000
00000000
,
20000000
00000000
00000000
30000000
00200000
00000000
00000000
00300000
,
00002000
00000000
00020000
00000000
00000000
00000000
00000000
00033000
,
00000010
00000010
00000100
00000000
,
00000001
00000001
00000100
00000000
,
00001000
00010000
00001000
00000000
,
00100000
00100000
01000000
00000000
,
10000000
10000000
01000000
01000000
,
00010000
00010000
00001000
00001000
,
00010000
00001000
00010000
00000000
,
00001000
00000000
00000100
00000000
,
00000001
00000001
00000100
00000100
,
00001000
00001000
00010000
00010000
,
00002000
00000000
00020000
00000000
,
00000000
00000000
00033000
00000000
,
00011000
00000000
00100000
00000000
,
00001000
00100000
00010000
00000000
,
10000000
00000000
00010000
00000000
,
00100000
01000000
00010000
00000000
,
00000010
00000000
00000100
00000000
,
00000010
00010000
00001000
00000000
,
00000010
00000000
00000001
00000000
,
00000100
00001000
00010000
00011000
;

//---------------dance-double - ----------------
#NOTES:
     dance-double:
     :
     Medium:
     8:
     0.358503,0.643289,0.259915,0.259915,0.000000,280.000000,251.000000,29.000000,29.000000,0.000000,0.000000,0.358503,0.643289,0.259915,0.259915,0.000000,280.000000,251.000000,29.000000,29.000000,0.000000,0.000000:
00000000
00000000
00000000
00000000
,
00000000
00000000
00000000
00000000
,
00011000
00100000
00100000
00100000
,
00011000
00000010
00000010
00011000
,
00100000
10000000
02000000
00000000
,
03000000
00100000
00010000
10000000
,
10010000
00100000
00001000
00000100
,
00001000
00010000
01000000
10000000
,
01000000
00020000
00002000
00000000
,
00000000
00000000
00033000
00000000
,
00000200
00000000
00000300
00000000
,
00200000
00000000
00300000
00000000
,
00001000
00000100
00000001
00000100
,
00001000
00000000
00000001
00000000
,
00000020
00000000
00000030
00000000
,
02000000
00000000
03000000
00000000
,
00001000
00010000
01000000
10000000
,
00100000
01000000
00001000
00010000
,
00022000
00033000
00000000
00000000
,
00000001
00000001
00000100
00000100
,
00000010
00000001
00000200
00000000
,
00000310
00000000
00001000
00000000
,
00100000
00100000
01000000
01000000
,
00010000
10000000
00010000
00000000
,
10000000
00010000
01000000
00100000
,
10000000
00010000
10000000
00000000
01000000
00000000
00000000
00000000
,
00022000
00033000
00000000
00000000
,
00000010
00000010
00000100
00000100
,
00000001
00000000
00001000
00000100
00002000
00000000
00000000
00000000
,
00003100
00010000
00010000
00010000
,
00100000
10000000
00100000
01000000
,
00010000
00010000
10010000
00000000
,
00100000
00100000
00001000
00010000
,
00000010
00001000
00000010
00000000
00000100
00000000
00000000
00000000
,
00000002
00000010
00000203
00000010
,
00002300
00000000
00003000
00000000
,
00020000
00100000
02030000
00100000
,
23000000
00000000
31000000
01000000
,
00010000
10010000
00000000
00000000
,
00100000
00010000
00001000
00000010
,
00001000
00010000
00100000
00001000
,
00011000
00000000
00000000
00000000
,
00000001
00000001
00000010
00000010
,
00000001
00000100
00001000
00000100
,
00000010
00000010
00002200
00000000
,
00003300
00000000
00000000
00000000
,
00010000
00010000
10000000
10000000
,
00010000
10000000
00100000
01000000
,
00010000
10000000
22000000
00000000
,
33000000
00000000
00000000
00000000
,
00000100
00000100
00000010
00000010
,
00000001
00000010
00000100
00001000
,
00000001
00001000
00000022
00000000
,
00000033
00000000
00000000
00000000
,
00100000
01000000
10000000
01000000
,
00010000
01000000
00100000
00100000
,
10000000
00010000
20020000
00000000
,
00000000
00000000
30030000
00000000
,
01000000
01000000
01000000
01000000
01000000
01000000
01000000
01000000
,
00010000
00010000
00010000
00010000
00001000
00001000
00001000
00011000
,
00000010
00000001
00000100
00001000
,
00000100
00000001
00000010
00001000
,
00010000
00010000
00100000
00100000
,
01000000
00000000
00010000
10000000
00010000
00000000
10010000
00000000
,
00100000
10100000
01000000
00010000
,
00100000
00001000
00010000
00000100
,
00000010
00000011
00001001
00001100
,
00000001
00000010
00000100
00010000
,
00001000
00001000
00001000
00001000
,
00100000
00010000
00100000
00000000
01000000
10000000
01000000
00000000
,
00100000
00001000
00022000
00000000
,
00000000
00000000
00000000
00033000
,
00011000
00000000
00000000
00000100
00000010
00000000
00000000
00000010
,
00000000
00000010
00000001
00001000
,
00001001
00000000
00000000
00000010
00000100
00000000
00000000
00000100
,
00000000
00000100
00001000
00010000
,
00011000
00000000
00000000
00100000
01000000
00000000
00000000
01000000
,
00000000
01000000
10000000
10010000
,
11000000
00000000
00110000
00000000
,
00010100
00000000
00001010
00001001
;

//---------------dance-double - ----------------
#NOTES:
     dance-double:
     :
     Hard:
     11:
     0.530073,0.643289,0.654268,0.322653,0.004481,414.000000,341.000000,73.000000,36.000000,0.000000,0.000000,0.530073,0.643289,0.654268,0.322653,0.004481,414.000000,341.000000,73.000000,36.000000,0.000000,0.000000:
// measure 0
00000000
00000000
00000000
00000000
,  // measure 1
00000000
00000000
00000000
00000000
,  // measure 2
10010000
10010000
11000000
11000000
,  // measure 3
01100000
01100000
00101000
00101000
,  // measure 4
00011000
00011000
00021000
00000000
,  // measure 5
00030100
00000010
00000100
00000010
,  // measure 6
00000011
00000011
00000101
00000101
,  // measure 7
00000110
00000110
00010010
00010010
,  // measure 8
00011000
00011000
00021000
00000000
,  // measure 9
00001000
00100000
00031000
00011000
,  // measure 10
00010000
00001000
00010000
00000000
00100000
00010000
00001000
00000000
,  // measure 11
00100000
00000000
10010000
00000000
01000000
01000000
00100000
00000000
,  // measure 12
10000000
01000000
00100000
00000000
00001000
00010000
01000000
00000000
,  // measure 13
00100000
00100000
01000000
00000000
00010000
00001000
00010000
00000000
,  // measure 14
00001000
00000000
00011000
00000000
00000010
00001000
00010000
00000000
,  // measure 15
00001000
00000000
00000110
00000000
00000001
00000001
00000100
00000000
,  // measure 16
00000010
00000100
00000100
00000000
00000010
00000100
00000100
00000000
,  // measure 17
00000001
00001000
00000001
00000000
00001000
00000001
00001000
00000000
,  // measure 18
00002002
00003003
00000000
00001000
,  // measure 19
00010000
00100000
01000000
00100000
,  // measure 20
10010000
00000000
00100000
10000000
02000000
00000000
10000000
00000000
,  // measure 21
03100000
00010000
00100000
00100000
,  // measure 22
11000000
00000000
00100000
00010000
00000000
00100000
00001000
00000000
,  // measure 23
00011000
00000000
00010000
00000100
00000000
00001000
00000100
00000000
,  // measure 24
00001000
00000100
00000001
00000000
00000010
00000001
00000100
00000000
,  // measure 25
00000001
00000010
00000100
00001000
00000100
00000000
00000010
00000000
,  // measure 26
00002002
00003003
00000000
00010000
,  // measure 27
01000000
00010000
00100000
01000000
,  // measure 28
10100000
00000000
01000000
00010000
00200000
00000000
01000000
00000000
,  // measure 29
10300000
00010000
00001000
00010000
,  // measure 30
00110000
00000000
10000000
01000000
00000000
00010000
01000000
00000000
,  // measure 31
01100000
00000000
00001000
00010000
00000000
01000000
00100000
00000000
,  // measure 32
01000000
00000000
00010000
00000000
00001000
00010000
00001000
00000000
,  // measure 33
00000010
00000001
00000100
00000010
00000000
00000100
00000100
00000000
,  // measure 34
00001002
00000023
00002030
00023000
,  // measure 35
00230000
01000000
01300000
10010000
,  // measure 36
02100000
23000000
30020000
00032000
,  // measure 37
00003200
00000010
00000010
00000310
,  // measure 38
00001001
00000000
00000010
00000100
00000010
00000000
00000100
00000000
,  // measure 39
00001010
00010100
00101000
01010000
,  // measure 40
10100000
00000000
00000000
00100000
00200000
00000000
00300000
00000000
,  // measure 41
01100000
00000000
00000000
00000000
00000000
00000000
00000000
00000000
00100000
00000000
00000000
00100000
00000000
00000000
00100000
00000000
,  // measure 42
10010000
00000000
10000000
01000000
00010000
00000000
00001000
00010000
,  // measure 43
01000000
10000000
00100000
00010000
,  // measure 44
00001010
00000000
00000010
00001000
00000200
00000000
00000010
00000000
,  // measure 45
00000310
00000001
00001000
00000001
,  // measure 46
00001001
00000000
00000001
00000100
00001000
00000000
00010000
00001000
,  // measure 47
00000100
00000010
00001000
00000100
,  // measure 48
00020000
00001000
00200000
00000000
,  // measure 49
00330000
10000000
10000000
10000000
,  // measure 50
10010000
00000000
10000000
00100000
01000000
00000000
00001000
00010000
,  // measure 51
00100000
10000000
01000000
00010000
,  // measure 52
00012000
00000010
00000002
00000000
,  // measure 53
00003003
00000100
00000100
00000100
,  // measure 54
00001001
00000000
00001000
00000100
00000001
00000000
00000100
00010000
,  // measure 55
00001000
00000010
00000001
00000100
,  // measure 56
00001000
00010000
00022000
00000000
,  // measure 57
00000000
00000000
00000000
00033000
,  // measure 58
00200000
00000000
00000000
00300000
00000200
00000000
00000000
00000300
,  // measure 59
02000000
00000000
00000000
03000000
00000020
00000000
00000000
00000030
,  // measure 60
00210000
01000000
00301000
00011000
,  // measure 61
00010200
00000010
00010300
00011000
,  // measure 62
02001000
00100000
03001000
00011000
,  // measure 63
00010020
00001000
00000130
00001001
,  // measure 64
00000001
00000011
00000100
00001001
,  // measure 65
00000001
00000100
00001000
00000000
00010000
00001000
00100000
00000000
,  // measure 66
01000000
11000000
00100000
10010000
,  // measure 67
00100000
00100000
00011000
00011000
,  // measure 68
00000010
00010000
00000100
00000000
00000010
00001000
00000001
00000000
,  // measure 69
00000011
00000110
00001100
00011000
,  // measure 70
00110000
01100000
22000000
00000000
,  // measure 71
00000000
00000000
00000000
33000000
,  // measure 72
01000000
01000000
00100000
01000000
01000000
00000000
00010000
00001000
,  // measure 73
00000000
00001000
00010000
00000000
00010000
00001000
00000100
00000000
,  // measure 74
00000010
00000010
00000100
00000010
00000010
00000000
00001000
00000001
,  // measure 75
00000000
00000001
00001000
00000000
00000001
00000010
00001000
00000000
,  // measure 76
00010000
00010000
00001000
00010000
00001000
00000000
00100000
00001000
,  // measure 77
00000000
00010000
00000100
00000000
00010000
00001000
01000000
00000000
,  // measure 78
00100000
00100000
00000000
10000000
10000000
00000000
00010000
00010000
,  // measure 79
00000000
00001000
00001000
00000000
00000010
00000000
00001001
00000000
;

//---------------dance-single - ----------------
#NOTES:
     dance-single:
     :
     Challenge:
     17:
     0.909062,1.183061,0.546717,0.430204,0.703563,710.000000,649.000000,61.000000,48.000000,0.000000,0.000000,0.909062,1.183061,0.546717,0.430204,0.703563,710.000000,649.000000,61.000000,48.000000,0.000000,0.000000:
0000
0000
0000
0000
,
0000
0000
0000
0000
,
0011
0000
0010
0001
0000
0100
0010
1000
,
0200
2300
3020
0230
,
0302
0000
1000
1000
1003
0000
1001
0000
,
1100
1010
0101
1010
,
0101
0000
1000
0100
0000
0010
0100
0001
,
0020
0032
0203
0302
,
2003
0000
0001
0001
3001
0000
1001
0000
,
0101
0000
0000
0000
0011
0000
0000
0000
1000
0010
0100
0001
1000
0100
0010
0001
,
0100
0010
1000
0001
0010
0001
0100
0000
,
0110
0110
0000
0010
1000
0001
0100
0001
,
2000
0100
3002
0100
,
2003
0010
3002
0010
,
1003
0010
1000
0010
0100
0001
0100
0001
,
1000
0100
0010
0001
0100
0010
1000
0001
,
0010
0000
0100
0000
0010
1000
0010
1000
0010
1000
0010
1000
0010
1000
0010
1000
,
0010
1000
0010
1000
0010
1000
0010
1000
0010
1000
0010
1000
0010
1000
0010
1000
,
0020
0000
0230
0000
0302
1000
0103
0001
,
0101
1010
0101
1010
,
2000
0000
3010
0100
0002
0000
1003
0000
,
1001
0000
0000
0000
0001
0010
0100
0000
0010
0100
1000
0000
1100
0000
0000
0000
,
1000
0010
1000
0010
0100
0001
0100
0001
0100
0000
0010
0000
0100
0000
0001
0000
,
1000
0100
0010
2000
0000
0000
3010
0001
,
0001
0100
1000
1100
0000
0100
0001
0101
,
0001
0100
1000
0010
0000
0010
0100
0000
,
1000
0000
0010
1000
0010
0000
0100
0000
0001
0000
0010
0001
0010
0000
0100
0000
,
1000
0000
0010
1000
0010
0000
0001
0100
0001
0000
0010
0001
0010
0000
0001
0000
,
0100
0000
0010
1000
0010
0000
0001
0000
0100
0000
1000
0100
1000
0000
0010
0000
,
0001
0000
1000
0010
1000
0000
0100
0010
0100
0000
0010
0001
0010
0000
0001
0000
,
0100
0000
0001
0100
0001
0100
0001
0000
0100
0000
0010
1000
0010
0000
0100
0000
,
0001
0000
0010
0000
1000
0100
1000
0100
1000
0000
0010
0000
0100
0000
0001
0100
,
0001
0101
1010
1100
,
0001
0100
1000
0020
0000
0031
0011
0001
,
0100
0001
1000
0001
0100
0001
1000
0100
,
0010
0001
0010
0001
0010
0001
0010
0001
0010
0000
0001
0000
0010
0001
0100
0010
,
2000
0000
3001
0200
0000
0310
1000
0100
,
0010
0000
0011
0000
1100
0000
0101
0100
,
0010
1000
0010
0002
0000
0103
0001
1000
,
0001
0011
1010
1001
,
0100
0010
1000
0001
0010
0100
0001
2000
,
0020
0000
0000
0000
3030
0000
0000
0000
0110
0000
0000
0110
0000
0000
0110
0000
,
0010
0001
0010
0000
0100
0000
1000
0100
1000
0000
0010
0000
0001
0010
0001
0000
,
0200
0001
1000
0301
,
2010
0000
0001
0010
0001
0000
3001
0000
,
1100
0000
0110
0000
0011
0001
1001
0001
,
0100
0001
1000
0001
0000
0010
0001
0100
,
0101
1010
1100
0011
,
0001
0000
0010
0000
0100
0000
1000
0000
0010
0100
0010
0100
0010
0100
0010
0100
,
0010
0101
1010
0101
,
1000
0100
1000
0000
0100
0000
0001
0100
0001
0000
0100
0000
1000
0100
1000
0000
,
0001
0010
0001
0000
0010
0100
0010
0000
0100
1000
0100
1000
0010
0000
0100
0000
,
0001
0000
0010
0000
0001
0000
0010
0000
0100
1000
0100
1000
0100
1000
0100
1000
,
0010
0000
0100
0000
0001
0010
0100
0000
1000
0100
0010
0000
0001
0010
0100
0000
,
1000
0010
1000
0010
0100
0000
0001
0000
0000
0000
0001
0010
0001
0010
0100
0000
,
1100
0101
0011
1010
,
2001
0000
0010
0001
0010
0000
3001
0000
,
2002
0000
0000
0000
0000
0000
0000
0000
3000
0000
1003
0000
0001
0010
0100
1000
,
0002
0100
0100
0100
0100
0100
0100
0103
,
2100
0000
0000
0000
0100
0000
0000
0000
0100
0000
0000
0000
0100
0000
0000
0000
0100
0000
0000
0000
0100
0000
0000
0000
3100
0000
0010
0001
0100
0000
0000
0000
,
1000
0100
1000
0100
1000
0100
1000
0100
1000
0100
1000
0100
1000
0000
0100
0000
,
0010
0001
0010
0001
0010
0001
0010
0000
1000
0000
0100
0000
0010
0100
0010
0100
,
0001
0100
0001
0100
0001
0100
0001
0100
0010
1000
0010
1000
0010
1000
0010
1000
,
0100
0010
0100
0010
0100
0010
0100
0010
1000
0000
0001
0000
1000
0100
0010
0001
,
0020
0000
0031
0200
0000
0301
0010
0100
,
2000
3020
0032
0203
,
2300
0000
0010
3010
0200
0000
0001
0000
,
0320
0000
1000
0000
0100
0000
0031
0100
,
0002
0000
0010
0000
0100
0000
1003
0001
,
0100
0110
0110
0110
,
0020
0000
0000
0100
0200
0000
0000
0000
,
0000
0000
0000
0000
0330
0110
0110
0110
,
0010
0001
0100
0010
1000
0100
0010
0001
0100
0010
1000
0001
0010
0100
0001
1000
,
0010
0001
0100
0010
1000
0100
0010
0001
0010
0100
1000
0010
0100
0001
1000
0100
,
0010
0001
0100
0010
1000
0001
0010
0100
1000
0100
0010
0001
0100
0010
1000
0001
,
0010
0100
1000
0001
0010
0100
1000
0100
0020
0000
0000
0000
0030
0000
0000
0000
,
0001
0100
0001
0100
0010
1000
0010
1000
0001
0100
0010
1000
0001
0100
0010
1000
,
0001
0010
0100
1000
0001
0010
0100
1000
0100
0010
0001
0100
0010
1000
0001
0010
,
0100
1000
0010
0100
0001
0010
0100
1000
0100
0010
0001
1000
0010
0100
0001
1000
,
0100
0010
0001
0010
0100
1000
0010
0100
0001
0000
1001
0000
1001
0000
2002
0000
,
3003
0000
0000
0000
;
