#TITLE:sakura storm;
#SUBTITLE:;
#ARTIST:Ryu☆;
#TITLETRANSLIT:;
#SUBTITLETRANSLIT:;
#ARTISTTRANSLIT:;
#GENRE:;
#CREDIT:;
#BANNER:sakura storm.png;
#BACKGROUND:sakura storm-bg.png;
#LYRICSPATH:;
#CDTITLE:;
#MUSIC:sakura storm.ogg;
#OFFSET:0.000000;
#SAMPLESTART:3.920000;
#SAMPLELENGTH:15.000000;
#SELECTABLE:YES;
#DISPLAYBPM:184.000000;
#BPMS:0.000000=184.300003
,4.000000=184.000000
;
#STOPS:
;
#BGCHANGES:0.000=sakura storm.avi=1.000=0=0=0=StretchNoLoop====,
99999=-nosongbg-=1.000=0=0=0 // don't automatically add -songbackground-
;
#KEYSOUNDS:;
#ATTACKS:;

//---------------dance-single - ----------------
#NOTES:
     dance-single:
     :
     Beginner:
     2:
     0.131111,0.217028,0.010797,0.021595,0.000000,85.000000,84.000000,1.000000,2.000000,0.000000,0.000000,0.131111,0.217028,0.010797,0.021595,0.000000,85.000000,84.000000,1.000000,2.000000,0.000000,0.000000:
0000
0000
0000
0000
,
0000
0000
0000
0000
,
0000
0000
0000
0000
,
0010
0000
0000
0000
,
1000
0000
0000
0000
,
0001
0000
0000
0000
,
0010
0000
0100
0000
,
0010
0000
0000
0000
,
0001
0000
0000
0000
,
0100
0000
0000
0000
,
0010
0000
0000
0000
,
1000
0000
0000
0000
,
0001
0000
0000
0000
,
0010
0000
0000
0000
,
0001
0000
0000
0000
,
1000
0000
0000
0000
,
0010
0000
0000
0000
,
1000
0000
0001
0000
,
1000
0000
0001
0000
,
1000
0000
0000
0000
,
0100
0000
0000
0000
,
0010
0000
0000
0000
,
0001
0000
0000
0000
,
0100
0000
0000
0000
,
0010
0000
1000
0000
,
0010
0000
0000
0000
,
0100
0000
0000
0000
,
0001
0000
0000
0000
,
0010
0000
0000
0000
,
0100
0000
0000
0000
,
1000
0000
0000
0000
,
0001
0000
0000
0000
,
0100
0000
0010
0000
,
0100
0000
0000
0000
,
0001
0000
0000
0000
,
1000
0000
0000
0000
,
0010
0000
0000
0000
,
1000
0000
0000
0000
,
0100
0000
0000
0000
,
0010
0000
0000
0000
,
0001
0000
0000
0000
,
1000
0000
0000
0000
,
0010
0000
0000
0000
,
0100
0000
0000
0000
,
0001
0000
0000
0000
,
0010
0000
0000
0000
,
0001
0000
0000
0000
,
1000
0000
0000
0000
,
0010
0000
0000
0000
,
1000
0000
0100
0000
,
1000
0000
0100
0000
,
0020
0000
0000
0030
,
0010
0000
0000
0000
,
0001
0000
0100
0000
,
0001
0000
0100
0000
,
0020
0000
0000
0030
,
0010
0000
0000
0000
,
1000
1000
1000
0000
,
0010
0000
0100
0000
,
0001
0001
0001
0000
,
1000
0000
0000
0000
,
0001
0001
0001
0000
,
0010
0000
0100
0000
,
1000
1000
1000
0000
,
0001
0000
0000
0000
,
1000
0000
0000
0000
,
0001
0000
0000
0000
,
1001
0000
0000
0000
,
0000
0000
0000
0000
;

//---------------dance-single - ----------------
#NOTES:
     dance-single:
     :
     Easy:
     4:
     0.189726,0.289370,0.021595,0.053987,0.000000,123.000000,121.000000,2.000000,5.000000,0.000000,0.000000,0.189726,0.289370,0.021595,0.053987,0.000000,123.000000,121.000000,2.000000,5.000000,0.000000,0.000000:
0000
0000
0000
0000
,
0000
0000
0000
0000
,
0000
0000
0000
0000
,
0010
0000
0010
0000
,
1000
0000
1000
0000
,
0001
0000
0001
0000
,
0100
0000
0000
0000
,
0001
0000
0001
0000
,
0010
0000
0010
0000
,
0001
0000
0001
0000
,
1000
0000
1000
0000
,
0010
0000
0000
0000
,
0100
0000
0000
0000
,
0001
1000
0200
0000
,
0300
0000
0000
0000
,
0001
1000
0200
0000
,
0300
0000
0000
0000
,
0010
0010
0001
0000
,
1000
1000
0010
0000
,
0100
0000
0000
0000
,
0001
0000
0000
0000
,
0010
0000
0010
0000
,
0100
0000
0100
0000
,
1000
0000
1000
0000
,
0001
0000
0000
0000
,
0100
0000
0100
0000
,
0001
0000
0001
0000
,
0010
0000
0010
0000
,
0001
0000
0000
0000
,
1000
0000
1000
0000
,
0010
0000
0010
0000
,
0100
0000
0100
0000
,
0010
0000
0000
0000
,
1000
0000
1000
0000
,
0100
0000
0100
0000
,
1000
0000
1000
0000
,
0001
0000
0001
0000
,
0100
0000
0000
0000
,
0010
0000
0000
0000
,
1000
0001
0020
0000
,
0030
0000
0000
0000
,
0001
1000
0020
0000
,
0030
0000
0000
0000
,
1000
0100
0020
0000
,
0030
0000
0000
0000
,
0001
0000
1000
0000
,
0001
0000
1000
0000
,
0100
0100
0010
0010
,
1001
0000
0000
0000
,
0100
0000
0100
0000
,
1000
0000
1000
0000
,
0001
0000
0001
0000
,
0100
0000
0000
0000
,
0010
0000
0010
0000
,
1000
0000
1000
0000
,
0001
0000
0001
0000
,
0100
0000
0000
0000
,
0001
0000
0100
0000
,
0001
0001
0010
0010
,
0100
0000
1000
0000
,
0010
0000
0100
0000
,
0001
0000
0010
0000
,
0100
0100
1000
1000
,
0010
0000
0100
0000
,
0010
0000
1000
0000
,
0100
0100
0010
0010
,
0001
0000
1000
0000
,
1001
0000
0000
0000
,
0000
0000
0000
0000
;

//---------------dance-single - ----------------
#NOTES:
     dance-single:
     :
     Medium:
     7:
     0.360941,0.434055,0.172758,0.140366,0.000000,234.000000,218.000000,16.000000,13.000000,0.000000,0.000000,0.360941,0.434055,0.172758,0.140366,0.000000,234.000000,218.000000,16.000000,13.000000,0.000000,0.000000:
0000
0000
0000
0000
,
0000
0000
0000
0000
,
0000
0000
0000
0000
,
0001
0010
0001
1000
,
0010
1000
0100
0010
,
0001
0100
0010
1000
,
0200
0000
0000
0300
,
0010
0001
1000
0010
,
1000
0100
0010
0100
,
1000
0001
0100
0010
,
0200
0000
0000
0300
,
0001
0000
1000
1000
0000
0100
0100
0100
,
0000
0010
0010
0010
0010
0000
0001
0000
,
0100
0000
0010
1000
1000
0000
0000
0000
,
0000
0100
0010
0001
,
1000
0000
0010
0100
0100
0000
0000
0000
,
0000
0001
0010
0100
,
1000
0000
0001
0100
0100
0000
0000
0000
,
0000
0001
1000
0010
,
0100
0000
0001
1000
1000
0000
0000
0000
,
0000
1100
0101
0000
,
0001
0010
0100
1000
,
0010
0100
0001
0010
,
0001
1000
0010
0100
,
0020
0000
0000
0030
,
1000
0100
0010
0001
,
1000
0001
0100
0010
,
1000
0010
1000
0100
,
0020
0000
0000
0030
,
0001
1000
0010
0100
,
0010
1000
0001
1000
,
0100
0010
0001
0100
,
0020
0000
0000
0030
,
1000
0100
0010
0001
,
1000
0010
0100
0001
,
0010
0100
1000
0001
,
0200
0000
0000
0300
,
0001
0000
0010
0010
0000
0100
0100
0100
,
0000
1000
1000
1000
1000
0000
0010
0000
,
0100
0000
0001
0010
0010
0000
0000
0000
,
0000
0001
0010
0001
,
0100
0000
0010
1000
1000
0000
0000
0000
,
0000
0100
0010
0100
,
1000
0000
0001
1000
1000
0000
0000
0000
,
0000
0010
1000
0001
,
1000
0000
0010
0100
0100
0000
0000
0000
,
0000
0101
1100
1001
,
2002
0000
0000
0000
0000
0000
0000
3003
,
0000
0110
1001
0000
,
0100
0010
0001
0100
,
0010
0100
0001
1000
,
0010
1000
0100
0010
,
0200
0000
0000
0300
,
0010
0001
1000
0010
,
1000
0001
1000
0100
,
0010
0001
1000
0010
,
0200
0000
0000
0300
,
1001
0100
1001
0100
,
0010
1000
0100
0010
,
1001
0100
1001
0100
,
0020
0000
0000
0030
,
0101
0010
1100
0010
,
0001
1000
0010
1000
,
0100
0000
0000
0010
0000
0000
0001
0000
,
0000
1000
0000
0001
0000
0010
0100
0000
,
2002
0000
0000
0000
0000
0000
0000
3003
,
0000
1000
0000
0100
0000
0010
0001
0000
,
1001
0000
0000
0000
,
0000
0000
0000
0000
;

//---------------dance-single - ----------------
#NOTES:
     dance-single:
     :
     Hard:
     10:
     0.487425,0.506397,0.053987,0.140366,0.000000,316.000000,311.000000,5.000000,13.000000,0.000000,0.000000,0.487425,0.506397,0.053987,0.140366,0.000000,316.000000,311.000000,5.000000,13.000000,0.000000,0.000000:
0000
0000
0000
0000
,
0000
0000
0000
0000
,
0000
0000
0000
0000
,
0100
0000
0010
0000
0001
0010
0000
0001
,
0000
1000
0000
0001
1000
0010
0000
1000
,
0100
0000
0010
0000
0100
1000
0000
0010
,
0000
1000
0000
0001
0000
1000
0000
0000
,
0100
0000
0010
0000
0001
0010
0000
0100
,
0000
1000
0000
0001
0100
0010
0000
1000
,
0001
0000
0010
0000
0100
0010
0000
0001
,
0000
0010
0000
0001
1000
0000
0001
0000
,
0100
0000
0010
1000
0000
0001
1000
0001
,
0000
1000
0010
0100
0001
0000
1001
0000
,
1000
0001
0100
0001
0020
0000
0000
0000
,
0030
0000
0001
0100
1000
0100
0001
1000
,
0100
0001
0100
1000
0002
0000
0000
0000
,
0003
0000
1000
0010
0001
0010
1000
0001
,
0010
1000
0010
0001
2000
0000
0000
0000
,
3000
0000
0001
1000
0010
1000
0001
0100
,
0001
1000
0100
1000
0020
0000
0000
0000
,
0030
0010
0010
0000
1000
0000
0110
0000
,
0001
0000
1000
0000
0001
0010
0000
0100
,
0000
0010
0000
0001
1000
0010
0000
1000
,
0100
0000
0010
0000
0001
1000
0000
0010
,
0000
1000
0000
0001
0000
1000
0000
0000
,
0100
0000
0010
0000
0001
1000
0000
0010
,
0000
0100
0000
0010
1000
0001
0000
1000
,
0001
0000
0010
0000
0100
1000
0000
0010
,
0000
0100
0000
0010
1000
0001
1000
0001
,
0100
0000
0001
0000
1000
0010
0000
0100
,
0000
0010
0000
1000
0001
1000
0000
0010
,
0100
0000
0010
0000
1000
0100
0000
1000
,
0000
0010
0000
0100
0000
0001
0000
0000
,
1000
0000
0001
0000
0010
0100
0000
1000
,
0000
0010
0000
1000
0001
1000
0000
0001
,
0100
0000
0010
0000
0100
0001
0000
0010
,
0000
0001
0000
1000
0010
0000
1000
0000
,
0100
0000
1000
0001
0000
0100
0010
0100
,
0000
0001
0010
0100
1000
0000
1001
0000
,
0001
1000
0100
1000
0020
0000
0000
0000
,
0030
0000
1000
0100
0001
0100
1000
0001
,
0100
1000
0100
0001
2000
0000
0000
0000
,
3000
0000
0001
0010
1000
0010
0001
1000
,
0010
0001
0010
1000
0002
0000
0000
0000
,
0003
0000
1000
0001
0010
0001
1000
0001
,
1000
0010
0100
0001
0020
0000
0000
0000
,
0030
0010
0010
0000
0001
0000
1000
0000
,
0001
0001
1000
1000
0010
0010
0100
0100
,
0000
0001
1000
0000
0001
0000
0110
0000
,
1000
0000
0010
0000
1000
0001
0000
1000
,
0000
0100
0000
0010
0001
0010
0000
0001
,
0100
0000
0010
0000
1000
0001
0000
0010
,
0000
0001
0000
1000
0000
0100
0000
0000
,
1000
0000
0010
0000
1000
0001
0000
0100
,
0000
0010
0000
1000
0100
0010
0000
0001
,
1000
0000
0010
0000
0100
0001
0000
1000
,
0000
0100
0000
1000
0010
0100
0001
0000
,
2000
0100
0001
3100
,
0002
0100
1000
0103
,
2000
0000
0000
0000
3010
0000
0000
0100
,
0000
0001
0010
0100
,
2000
0010
0001
3010
,
0002
0010
1000
0013
,
1000
0000
0000
0001
0000
0000
0010
0000
,
0000
0100
0000
0010
0000
0001
1000
0000
,
0001
0001
1000
1000
0010
0010
0100
0100
,
0000
0001
0000
1000
0000
0100
0010
0000
,
1001
0000
0000
0000
,
0000
0000
0000
0000
;

//---------------dance-single - ----------------
#NOTES:
     dance-single:
     :
     Challenge:
     13:
     0.712628,0.723425,0.799007,0.086379,0.000000,462.000000,388.000000,74.000000,8.000000,0.000000,0.000000,0.712628,0.723425,0.799007,0.086379,0.000000,462.000000,388.000000,74.000000,8.000000,0.000000,0.000000:
0000
0000
0000
0000
,
0000
0000
0000
0000
,
0000
0000
0000
0000
,
0010
1000
0010
0100
0001
0010
0000
0001
,
0000
1000
0000
0001
0100
0010
1000
0100
,
1000
0001
0100
0010
1000
0010
0000
1000
,
0000
0001
0100
0110
0000
1000
1100
0000
,
0010
0001
1000
0010
1000
0100
0000
0010
,
0000
0100
0000
1000
0001
0100
0001
0010
,
0100
0000
0010
0000
0100
0010
0001
1000
,
0000
0101
0000
0001
1100
0000
1001
0000
,
0012
0000
0103
0210
0000
0001
0301
1002
,
0000
0010
0010
0013
0110
0000
1100
0000
,
0010
0001
0100
0001
0010
0000
0000
0000
,
0000
0000
0001
1000
0001
0010
0110
0100
,
1100
1000
0010
0100
0001
0000
0000
0000
,
0000
0000
0010
0001
1000
0100
0100
0010
,
0011
1000
0010
0100
0010
0000
1000
0000
,
0001
0000
0010
0100
0010
0001
1000
0010
,
1000
1001
0000
0101
0001
0010
0100
1100
,
0000
1000
0101
0000
1010
0000
1001
0000
,
0100
0010
1000
0010
0100
0001
0000
1000
,
0000
0001
0000
0010
0001
0100
1000
0100
,
0010
1000
0100
0001
0100
1000
0000
0010
,
0000
1010
0000
0101
0000
1100
0100
0010
,
0001
0100
0010
0100
0001
0010
0000
1000
,
0000
0010
0000
0001
0100
0010
0100
0001
,
1001
0100
0010
0000
0001
1000
0001
0101
,
0000
0110
0000
0010
1000
0001
1001
0010
,
0100
0100
1000
0010
0100
0100
0000
0001
,
0000
1000
0000
0001
0010
0100
1000
0010
,
0100
0100
0001
1000
0010
0010
0000
1000
,
0000
1100
0000
0011
0000
1100
0010
0001
,
0100
0100
0010
1000
0001
0001
0000
0100
,
0000
0010
0000
1000
0001
1000
0100
0010
,
0011
0000
0100
0000
0010
0011
0000
1001
,
0000
1010
0000
0101
0010
1000
1100
0000
,
2001
0000
3100
0210
0000
1000
1300
2001
,
0000
0010
0010
3010
0110
0000
0101
0000
,
0010
1000
0100
1000
0010
0000
0000
0000
,
0000
0000
1000
0001
0010
0001
1001
1000
,
1100
0100
0010
0001
0100
0000
0000
0000
,
0000
0000
0010
1000
0001
0100
0100
0010
,
1010
1000
0001
1000
0010
0000
0000
0000
,
0000
0000
1000
0100
0010
0001
0100
0010
,
0100
1001
0000
1100
0010
0001
1000
0101
,
0000
0001
1100
0000
0011
0000
1001
0000
,
1000
0100
1000
0100
0010
0001
0010
0001
,
0000
0100
1010
0000
0110
0000
0101
0000
,
0010
1000
0100
0001
0100
0010
0000
0001
,
0000
1000
0000
0001
0100
0010
1000
0001
,
0100
1000
0100
0010
1000
0010
0000
1000
,
0000
0101
0000
0110
0000
1010
1000
0100
,
0010
0001
1000
0001
1000
0010
0000
0100
,
0000
0001
0000
1000
0010
0100
0010
1000
,
0100
0000
0010
0000
0001
0010
0001
0100
,
0000
1010
0000
1000
0100
0010
0011
0000
,
0101
0100
0010
1000
0100
0010
1000
0010
,
0001
1000
0010
0001
0010
0100
0001
0010
,
0110
1000
0010
0100
0001
0010
0100
1000
,
0001
0101
0000
1010
0000
1100
0100
0010
,
0011
0001
1000
0010
0100
0010
1000
0001
,
0101
0010
1000
0100
0010
0001
1000
0010
,
0210
0000
0001
0302
0000
1000
1003
0000
,
0000
0110
0000
1001
0000
0101
1100
0000
,
0010
0001
0100
1000
0010
0001
0100
1000
,
0000
0011
0000
1100
0000
1010
0011
0000
,
1001
0000
0000
0000
,
0000
0000
0000
0000
;

//---------------dance-double - ----------------
#NOTES:
     dance-double:
     :
     Easy:
     4:
     0.188183,0.289370,0.010797,0.053987,0.000000,122.000000,121.000000,1.000000,5.000000,0.000000,0.000000,0.188183,0.289370,0.010797,0.053987,0.000000,122.000000,121.000000,1.000000,5.000000,0.000000,0.000000:
00000000
00000000
00000000
00000000
,
00000000
00000000
00000000
00000000
,
00000000
00000000
00000000
00000000
,
00000001
00000000
00000001
00000000
,
00000100
00000000
00000100
00000000
,
00000010
00000000
00000010
00000000
,
00010000
00000000
00000000
00000000
,
00001000
00000000
00001000
00000000
,
00100000
00000000
00100000
00000000
,
00010000
00000000
00010000
00000000
,
10000000
00000000
10000000
00000000
,
01000000
00000000
00000000
00000000
,
10000000
00000000
00000000
00000000
,
00100000
01000000
00002000
00000000
,
00003000
00000000
00000000
00000000
,
00010000
00000100
00000020
00000000
,
00000030
00000000
00000000
00000000
,
00000001
00000100
00000001
00000000
,
00001000
00000100
00001000
00000000
,
00000010
00000000
00000000
00000000
,
00010000
00000000
00000000
00000000
,
00001000
00000000
00001000
00000000
,
00100000
00000000
00100000
00000000
,
00010000
00000000
00010000
00000000
,
10000000
00000000
00000000
00000000
,
00100000
00000000
00100000
00000000
,
01000000
00000000
01000000
00000000
,
00001000
00000000
00001000
00000000
,
00010000
00000000
00000000
00000000
,
00001000
00000000
00001000
00000000
,
00000100
00000000
00000100
00000000
,
00000001
00000000
00000001
00000000
,
00000010
00000000
00000000
00000000
,
00000100
00000000
00000100
00000000
,
00010000
00000000
00010000
00000000
,
00001000
00000000
00001000
00000000
,
01000000
00000000
01000000
00000000
,
00010000
00000000
00000000
00000000
,
00100000
00000000
00000000
00000000
,
01000000
10000000
00200000
00000000
,
00300000
00000000
00000000
00000000
,
01000000
00001000
00020000
00000000
,
00030000
00000000
00000000
00000000
,
00001000
00000100
00000002
00000000
,
00000003
00000000
00000000
00000000
,
00000010
00000000
00000001
00000000
,
00000100
00000000
00001000
00000000
,
00010000
00010000
00001000
00001000
,
01000000
00000000
00000000
00000000
,
00100000
00000000
00100000
00000000
,
10000000
00000000
10000000
00000000
,
00010000
00000000
00010000
00000000
,
00100000
00000000
00000000
00000000
,
00010000
00000000
00010000
00000000
,
01000000
00000000
01000000
00000000
,
00001000
00000000
00001000
00000000
,
00010000
00000000
00000000
00000000
,
00000100
00000000
00000010
00000000
,
00000001
00000001
00000100
00000100
,
00001000
00000000
00010000
00000000
,
00001000
00000000
00010000
00000000
,
01000000
00000000
10000000
00000000
,
00100000
00100000
01000000
01000000
,
00001000
00000000
00010000
00000000
,
00001000
00000000
00010000
00000000
,
00000100
00000100
00000010
00000010
,
00000001
00000000
00001000
00000000
,
00001001
00000000
00000000
00000000
,
00000000
00000000
00000000
00000000
;

//---------------dance-double - ----------------
#NOTES:
     dance-double:
     :
     Medium:
     7:
     0.343974,0.434055,0.053987,0.183556,0.000000,223.000000,218.000000,5.000000,17.000000,0.000000,0.000000,0.343974,0.434055,0.053987,0.183556,0.000000,223.000000,218.000000,5.000000,17.000000,0.000000,0.000000:
00000000
00000000
00000000
00000000
,
00000000
00000000
00000000
00000000
,
00000000
00000000
00000000
00000000
,
10000000
00100000
10000000
01000000
,
00100000
00001000
01000000
00100000
,
01000000
00001000
00010000
00000010
,
00020000
00000000
00000000
00030000
,
00000100
00001000
00000001
00000010
,
00000100
00010000
00000010
00000100
,
00000010
00001000
00000001
00000100
,
00000020
00000000
00000000
00000030
,
00010000
00000000
00001000
00010000
00000000
00001000
01000000
00001000
,
00000000
00100000
00010000
00100000
00010000
00000000
01000000
00000000
,
00100000
00000000
10000000
01000000
01000000
00000000
00000000
00000000
,
00000000
00010000
00001000
00000100
,
00000001
00000000
00000010
00000100
00000100
00000000
00000000
00000000
,
00000000
00010000
00000010
00000100
,
00000001
00000000
00001000
00000100
00000100
00000000
00000000
00000000
,
00000000
00010000
00001000
00100000
,
00010000
00000000
10000000
00100000
00100000
00000000
00000000
00000000
,
00000000
02000000
03200000
00300000
,
10000000
01000000
00100000
00001000
,
01000000
00100000
10000000
00010000
,
00100000
00001000
01000000
00001000
,
00020000
00000000
00000000
00030000
,
00000100
00000010
00000001
00000100
,
00000001
00001000
00000001
00000010
,
00000100
00010000
00000010
00001000
,
00000200
00000000
00000000
00000300
,
00010000
00001000
00100000
00001000
,
01000000
00100000
10000000
01000000
,
00100000
00001000
00010000
00000010
,
00000200
00000000
00000000
00000300
,
00000001
00000010
00001000
00010000
,
00100000
10000000
01000000
00100000
,
00010000
01000000
00100000
10000000
,
02000000
00000000
00000000
03000000
,
00010000
00000000
00001000
00010000
00000000
00000100
00001000
00000100
,
00000000
00000010
00000001
00000010
00000001
00000000
00000100
00000000
,
00000010
00000000
00010000
00001000
00001000
00000000
00000000
00000000
,
00000000
00010000
00100000
10000000
,
01000000
00000000
00100000
00001000
00001000
00000000
00000000
00000000
,
00000000
01000000
00100000
01000000
,
00001000
00000000
00010000
00000100
00000100
00000000
00000000
00000000
,
00000000
00000010
00000001
00000100
,
00001000
00000000
00010000
00000010
00000010
00000000
00000000
00000000
,
00000000
00002000
00003002
00000103
,
00000220
00000000
00000000
00000000
00000000
00000000
00000000
00000330
,
00000000
00010010
00101000
00000000
,
00010000
01000000
00100000
10000000
,
00010000
00100000
00001000
00100000
,
00010000
10000000
00100000
01000000
,
00002000
00000000
00000000
00003000
,
00100000
00001000
00010000
00000010
,
00000100
00000001
00000010
00000001
,
00001000
00000001
00000100
00001000
,
00020000
00000000
00000000
00030000
,
00001000
01000000
00100000
10000000
,
00010000
10000000
01000000
00100000
,
00001000
00100000
00010000
01000000
,
00002000
00000000
00000000
00003000
,
00010000
00000100
00000010
00000001
,
00001000
00000001
00000100
00001000
,
00010000
00000000
00000000
00001000
00000000
00000000
00100000
00000000
,
00000000
01000000
00000000
10000000
00000000
00100000
10000000
00000000
,
20020000
00000000
00000000
00000000
00000000
00000000
00000000
30030000
,
00000000
00010000
00000000
01000000
00000000
00001000
00010000
00000000
,
00011000
00000000
00000000
00000000
,
00000000
00000000
00000000
00000000
;

//---------------dance-double - ----------------
#NOTES:
     dance-double:
     :
     Hard:
     11:
     0.488967,0.506397,0.053987,0.086379,0.000000,317.000000,312.000000,5.000000,8.000000,0.000000,0.000000,0.488967,0.506397,0.053987,0.086379,0.000000,317.000000,312.000000,5.000000,8.000000,0.000000,0.000000:
00000000
00000000
00000000
00000000
,
00000000
00000000
00000000
00000000
,
00000000
00000000
00000000
00000000
,
01000000
00000000
00100000
00000000
10000000
00100000
00000000
00010000
,
00000000
00001000
00000000
00100000
01000000
00100000
00000000
00001000
,
00010000
00000000
00000010
00000000
00000100
00000001
00000000
00000010
,
00000000
00000001
00000000
00001000
00000000
00000001
00000000
00000000
,
00000010
00000000
00001000
00000000
00010000
00001000
00000000
00100000
,
00000000
01000000
00000000
00100000
00001000
00100000
00000000
00010000
,
01000000
00000000
00100000
00000000
10000000
00100000
00000000
10000000
,
00000000
01000000
00000000
00010000
00001000
00000000
01000000
00000000
,
00100000
00000000
10000000
01000000
00000000
00010000
00001000
00010000
,
00000000
00000100
00000010
00000001
00000100
00000000
00000110
00000000
,
00010000
00000100
00010000
00000010
00002000
00000000
00000000
00000000
,
00003000
00000000
00000100
00010000
00000100
00010000
00001000
01000000
,
00001000
00100000
01000000
10000000
00020000
00000000
00000000
00000000
,
00030000
00000000
01000000
00100000
10000000
01000000
00100000
00001000
,
01000000
00001000
00010000
00000100
00002000
00000000
00000000
00000000
,
00003000
00000000
00000010
00010000
00001000
00100000
00001000
01000000
,
00010000
10000000
00010000
00100000
00002000
00000000
00000000
00000000
,
00003000
00001000
00001000
00000000
01000000
00000000
01100000
00000000
,
00100000
00000000
10000000
00000000
00010000
00100000
00000000
01000000
,
00000000
10000000
00000000
00100000
01000000
00001000
00000000
00010000
,
00001000
00000000
00100000
00000000
00001000
00010000
00000000
00000010
,
00000000
00001000
00000000
00000001
00000000
00000100
00000000
00000000
,
00000001
00000000
00000010
00000000
00000001
00001000
00000000
00000001
,
00000000
00000100
00000000
00001000
00010000
00001000
00000000
00010000
,
00000100
00000000
00000010
00000000
00000001
00001000
00000000
00000010
,
00000000
00010000
00000000
00000100
00010000
00001000
00010000
00001000
,
01000000
00000000
00100000
00000000
10000000
00100000
00000000
10000000
,
00000000
00010000
00000000
00100000
01000000
10000000
00000000
00100000
,
01000000
00000000
00001000
00000000
01000000
00100000
00000000
10000000
,
00000000
01000000
00000000
00100000
00000000
00001000
00000000
00000000
,
00010000
00000000
01000000
00000000
10000000
00010000
00000000
10000000
,
00000000
00100000
00000000
00010000
00001000
00010000
00000000
00000010
,
00000100
00000000
00000001
00000000
00000100
00000001
00000000
00000010
,
00000000
00000001
00000000
00001000
00000010
00000000
00000100
00000000
,
00000010
00000000
00010000
00001000
00000000
00100000
01000000
10000000
,
00000000
00010000
00100000
01000000
10000000
00000000
01100000
00000000
,
00010000
00100000
00001000
00010000
00000020
00000000
00000000
00000000
,
00000030
00000000
00010000
00000100
00010000
00001000
01000000
00010000
,
01000000
00001000
01000000
00010000
00200000
00000000
00000000
00000000
,
00300000
00000000
00010000
00100000
00001000
00100000
00010000
01000000
,
00001000
00010000
00000100
00001000
00000020
00000000
00000000
00000000
,
00000030
00000000
00001000
00000001
00000100
00000001
00000010
00000100
,
00010000
00001000
00100000
01000000
20000000
00000000
00000000
00000000
,
30000000
10000000
10000000
00000000
00010000
00000000
10000000
00000000
,
01000000
00100000
01000000
00100000
00001000
00010000
00001000
00010000
,
00000000
00000100
00000010
00000000
00000001
00000000
00000110
00000000
,
00001000
00000000
00000001
00000000
00000100
00000010
00000000
00000100
,
00000000
00000001
00000000
00000010
00000100
00000010
00000000
00000001
,
00000100
00000000
00001000
00000000
00010000
00001000
00000000
00100000
,
00000000
00010000
00000000
10000000
00000000
01000000
00000000
00000000
,
10000000
00000000
00100000
00000000
01000000
00100000
00000000
10000000
,
00000000
00010000
00000000
00100000
00001000
00100000
00000000
00001000
,
00010000
00000000
00000010
00000000
00010000
00001000
00000000
00000010
,
00000000
00000001
00000000
00001000
00000100
00000010
00000001
00000000
,
00000100
00000001
00000010
00001000
,
00010000
00100000
10000000
01000000
,
00100000
00000000
00010000
00000000
01000000
00000000
00000000
00100000
,
00000000
10000000
00010000
01000000
,
00100000
10000000
01000000
00010000
,
00001000
00000100
00000001
00000010
,
00000100
00000000
00000000
00010000
00000000
00000000
00001000
00000000
,
00000000
01000000
00000000
00100000
00000000
10000000
01000000
00000000
,
00010000
00001000
00010000
00001000
01000000
00100000
01000000
00100000
,
00000000
10000000
00000000
01000000
00000000
00010000
00001000
00000000
,
00011000
00000000
00000000
00000000
,
00000000
00000000
00000000
00000000
;

//---------------dance-double - ----------------
#NOTES:
     dance-double:
     :
     Challenge:
     14:
     0.737307,0.723425,0.766614,0.086379,0.000000,478.000000,407.000000,71.000000,8.000000,0.000000,0.000000,0.737307,0.723425,0.766614,0.086379,0.000000,478.000000,407.000000,71.000000,8.000000,0.000000,0.000000:
00000000
00000000
00000000
00000000
,
00000000
00000000
00000000
00000000
,
00000000
00000000
00000000
00000000
,
00000010
00000001
00000100
00000010
00010000
00000100
00000010
00001000
,
00000010
00000001
00000100
00001000
00010000
00000100
00010000
00001000
,
01001000
00000000
00100000
10000000
01000000
00010000
01000000
00100000
,
00000000
00001000
01000000
01010000
00000000
00001000
00011000
00000000
,
01000000
00100000
10000000
00010000
00100000
00001000
00000010
00001000
,
00010000
00001000
00100000
01000000
10000000
00100000
00010000
00001000
,
00101000
00000000
00010000
00000000
00000010
00001000
00000000
00000001
,
00000000
00001100
00000000
00001000
00000101
00000000
00001010
00000000
,
00020100
00000000
00031000
02001000
00000000
00100000
03100000
10200000
,
00000000
00010000
00010000
00310000
00011000
00000000
00010100
00000000
,
00000010
00000001
00001000
00000001
00000010
00000000
00000000
00000000
,
00000000
00000000
00000001
00000100
00001000
00010000
01000000
00100000
,
00001000
01000000
00100000
10000000
01000000
00000000
00000000
00000000
,
00000000
00000000
00010000
00001000
01000000
00100000
01000000
00001000
,
00000100
00000010
00010000
00001000
00100000
00000000
00000000
00000000
,
00000000
00000000
00001000
01000000
00100000
00010000
00100000
10000000
,
01000000
00010000
00001000
01000000
00100000
01000000
00001000
00011000
,
00000000
00100000
00101000
00000000
01100000
00000000
00000000
00000000
,
01000000
10000000
00010000
01000000
00001000
00010000
00000100
00000010
,
00000001
00000100
00000010
00010000
00001000
00100000
01000000
10000000
,
10100000
00000000
01000000
00001000
01000000
00100000
10000000
00010000
,
00100000
00101000
00000000
00010010
00000000
00001001
00000001
00000100
,
00000010
00010000
00001000
01000000
00100000
10000000
01000000
00100000
,
00101000
00000000
00010000
00100000
10000000
00100000
00001000
00010000
,
00010010
00000000
00101000
00000000
00010000
01000000
00000000
01001000
,
00000000
00010100
00000000
00000100
00010000
00001000
00010000
00000100
,
00000010
00000001
00000100
00000001
00001000
00000100
00000010
00001000
,
00010000
00001000
00100000
00001000
01000000
00100000
00010000
00100000
,
10100000
00000000
01000000
00100000
00001000
01000000
00010000
10000000
,
01000000
01100000
00000000
00101000
00000000
00011000
00010000
00000010
,
00001000
00000100
00000001
00000100
00010000
00001000
01000000
00010000
,
00110000
00000000
10000000
00100000
01000000
00001000
01000000
00010000
,
00110000
00000000
01000000
00000000
10000000
10100000
00000000
10010000
,
00000000
00110000
00000000
10000000
01000000
00100000
00101000
00000000
,
00021000
00000000
00030100
00000120
00000000
00000001
00000031
00000201
,
00000000
00001000
00001000
00001300
00011000
00000000
01001000
00000000
,
00100000
10000000
00010000
10000000
00100000
00000000
00000000
00000000
,
00000000
00000000
01000000
00001000
00010000
00000100
00000010
00000100
,
00000001
00000100
00010000
00001000
01000000
00000000
00000000
00000000
,
00000000
00000000
00100000
10000000
00010000
00100000
00001000
01000000
,
00001000
00010000
00000100
00000010
00000001
00000000
00000000
00000000
,
00000000
00000000
00000100
00001000
00000100
00000010
00010000
00000100
,
00000010
00000100
00001000
00000010
00010000
00001000
00100000
01100000
,
00000000
10000000
10010000
00000000
10100000
00000000
01010000
00000000
,
00100000
10000000
01000000
00010000
00001000
00000100
00000001
00000010
,
00000000
00000100
00010100
00000000
00011000
00000000
01001000
00000000
,
00100000
10000000
01000000
10000000
00010000
01000000
10000000
01000000
,
00100000
10000000
01000000
00010000
00001000
00010000
00000100
00000010
,
00000011
00000000
00000100
00000010
00010000
00001000
00100000
01000000
,
10000000
10100000
00000000
00110000
00000000
00011000
00001000
00000010
,
00000001
00000100
00000010
00001000
00000001
00000010
00000100
00010000
,
00011000
00000000
00000100
00000010
00000100
00010000
00001000
01000000
,
01100000
00000000
10100000
00000000
10000000
01000000
00000000
01010000
,
00000000
00011000
00000000
00001000
00000100
00000001
00001000
00000000
,
00001001
00000001
00000010
00000100
00010000
00000010
00010000
00001000
,
00100000
00001000
01000000
00100000
10000000
00010000
10000000
01000000
,
01100000
00100000
00010000
01000000
10000000
01000000
00001000
00100000
,
00010000
01010000
00000000
00011000
00000000
00001100
00000100
00000010
,
00000011
00000001
00000100
00000010
00001000
00000001
00000010
00001000
,
00010000
00100000
00010000
00001000
00100000
00010000
10000000
00100000
,
02100000
00000000
00001000
03002000
00000000
00010000
00013000
00000000
,
00000000
01001000
00000000
00010100
00000000
00001100
00001001
00000000
,
00000100
00000001
00000010
00001000
00010000
00100000
10000000
01000000
,
00000000
00101000
00000000
00011000
00000000
00010010
00001001
00000000
,
00000110
00000000
00000000
00000000
,
00000000
00000000
00000000
00000000
;

//---------------dance-single - Edit----------------
#NOTES:
     dance-single:
     :
     Edit:
     14:
     0.970222,0.943962,1.619608,0.172758,0.421098,629.000000,479.000000,150.000000,16.000000,0.000000,0.000000,0.970222,0.943962,1.619608,0.172758,0.421098,629.000000,479.000000,150.000000,16.000000,0.000000,0.000000:
// measure 0
0000
0000
0000
0000
,  // measure 1
0000
0000
0000
0000
,  // measure 2
0000
0000
0000
0000
0000
0000
2002
3003
,  // measure 3
0001
0000
0010
0000
0100
1000
0010
0000
0100
0000
0101
0000
0000
0000
1100
0000
,  // measure 4
0000
1010
0000
0110
0100
0101
0001
1001
,  // measure 5
1000
0000
0010
0000
0100
0001
1000
0000
0010
0000
1010
0000
0000
0000
1001
0000
,  // measure 6
0000
1100
0100
0110
0000
0011
0001
1001
,  // measure 7
0001
0000
0010
0000
0100
1000
0010
0000
0100
0000
1100
0000
0000
0000
0101
0000
,  // measure 8
0000
0011
0000
1010
0010
0110
0100
0101
,  // measure 9
0001
0000
0000
0000
0000
0001
0010
0000
0000
0000
0000
0000
0110
0000
0000
0110
0000
0000
0000
0000
0000
1100
0000
0000
,  // measure 10
0000
0101
0000
1100
0100
0101
0110
0000
,  // measure 11
1010
0000
1001
1001
0000
1001
0101
0011
,  // measure 12
0000
0000
0110
0000
0110
0000
0110
0000
0110
0000
0000
0000
1000
0100
0010
0001
,  // measure 13
0100
0010
1000
0001
0020
0000
0001
0000
,  // measure 14
0030
0000
0000
0000
0010
0001
0100
0001
0010
0000
0001
0000
1000
0000
0100
0000
,  // measure 15
0010
1000
0001
1000
0100
0000
0001
0000
0020
0000
0000
0000
1000
0000
0000
0000
,  // measure 16
0030
0000
0000
0000
0100
0000
0001
0000
1000
0010
0100
0010
1000
0000
0100
0000
,  // measure 17
0010
0001
0100
0001
1000
0000
0010
0000
0200
0000
0000
0000
0301
0000
0000
0000
,  // measure 18
1100
0000
0100
0000
0010
0001
0100
0001
0010
0000
0100
0000
1000
0000
0010
0000
,  // measure 19
1000
0010
0100
0010
0001
0000
1000
0000
0200
0000
1000
0000
1000
0000
1000
0000
,  // measure 20
0000
0301
0101
0000
0011
0000
2002
3003
,  // measure 21
0001
0000
0100
0000
1000
0001
0010
0000
0100
0000
0110
0000
0000
0000
1100
0000
,  // measure 22
0000
0101
0000
1010
0010
0011
0001
1001
,  // measure 23
1000
0000
0001
0000
0010
1000
0100
0000
0100
0000
0101
0000
0000
0000
0011
0000
,  // measure 24
0000
1010
1000
1001
0000
0101
0001
1001
,  // measure 25
1000
0000
0010
0000
0001
0010
1000
0000
0100
0000
0101
0000
0000
0000
1010
0000
,  // measure 26
0000
0101
0000
1100
0100
0110
0010
0011
,  // measure 27
0001
0000
0100
0000
0010
1000
0100
0000
0010
0000
0011
0000
0000
0000
1001
0000
,  // measure 28
0000
1010
0000
1001
0000
0011
0010
0110
,  // measure 29
0010
0000
0001
0000
0100
0010
1000
0000
0100
0000
1100
0000
0000
0000
0101
0000
,  // measure 30
0000
0110
0000
1010
0010
0110
0100
0101
,  // measure 31
0001
0000
0100
0000
1000
0010
0001
0000
0001
0000
1001
0000
0000
0000
1010
0000
,  // measure 32
0000
0011
0000
0101
0000
1100
0100
0110
,  // measure 33
0010
0000
0001
0000
0100
1000
0010
0000
0001
0000
1001
0000
0000
0000
0011
0000
,  // measure 34
0000
0101
0000
1100
0100
0101
0100
0110
,  // measure 35
0010
1000
0001
0000
0100
0001
1000
0000
0110
0000
0110
0000
0000
0000
1010
0000
,  // measure 36
0000
0101
0000
1100
0101
0110
1010
0000
,  // measure 37
1010
0000
0010
0011
0000
0001
0101
0100
,  // measure 38
0000
0000
1100
0000
1100
0000
1100
0000
1100
0000
0000
0000
1000
0010
0100
0001
,  // measure 39
1000
0100
0010
0001
0100
0000
0010
0000
2000
0000
0000
0000
0100
0000
0000
0000
,  // measure 40
3000
0000
0000
0000
0010
0001
0100
0001
1000
0000
0100
0000
0010
0000
0001
0000
,  // measure 41
0100
0001
1000
0100
0010
0000
0001
0000
2000
0000
0000
0000
0001
0000
0000
0000
,  // measure 42
3000
0000
0000
0000
0001
0010
0100
1000
0010
0000
0100
0000
1000
0000
0010
0000
,  // measure 43
0100
0010
1000
0001
0010
0000
0100
0000
0002
0000
0000
0000
1003
0000
0000
0000
,  // measure 44
0101
0000
0100
0000
0010
1000
0001
0010
0100
0000
1000
0000
0100
0000
0020
0000
,  // measure 45
0000
1000
1000
1000
0001
0001
0031
0011
,  // measure 46
0000
0010
0110
0000
1100
0000
0101
0000
,  // measure 47
1100
0100
0101
0001
0011
0010
1010
1000
,  // measure 48
0000
1001
0100
0000
0110
0000
2002
3003
,  // measure 49
0001
0000
0010
0000
1000
0100
0001
0000
1000
0000
1001
0000
0000
0000
0011
0000
,  // measure 50
0000
0101
0000
0110
0010
1010
1000
1100
,  // measure 51
0100
0000
0010
0000
1000
0001
0010
0000
0100
0000
0110
0000
0000
0000
1010
0000
,  // measure 52
0000
0011
0000
0101
0000
0110
0010
1010
,  // measure 53
1000
0000
0100
0000
0001
0010
1000
0000
0010
0000
0011
0000
0000
0000
0101
0000
,  // measure 54
0000
1100
0000
1010
0010
0110
0100
0101
,  // measure 55
0001
0000
0010
0000
0100
1000
0010
0000
0100
0000
0101
0000
0000
0000
1100
0000
,  // measure 56
0000
1010
0000
0011
0001
0101
0100
1100
,  // measure 57
1000
0100
0010
0001
0100
0001
1000
0000
0001
0010
0100
1000
0010
0100
0001
0010
,  // measure 58
0100
0000
0000
0000
0000
0100
1000
0000
0000
0000
0000
1000
0100
0000
0000
0000
0000
0100
0001
0000
0000
0000
0000
0000
,  // measure 59
0001
0010
0100
1000
0010
0100
0001
0000
1000
0010
0100
0001
1000
0100
0010
0000
,  // measure 60
0000
0000
0001
0010
0100
0000
0010
1000
0100
0000
0100
0000
1000
0000
1001
0000
,  // measure 61
0001
0010
0100
1000
0010
0100
0001
0000
1000
0010
0100
0001
1000
0100
0010
0001
,  // measure 62
0100
0000
0000
0000
0000
0100
0001
0000
0000
0000
0000
0001
0100
0000
0000
0000
0000
0100
0001
0000
0000
0000
0000
0000
,  // measure 63
0010
0001
0100
0010
1000
0000
1000
0010
0100
0001
0010
0000
0100
0010
1000
0000
,  // measure 64
0000
1010
0000
1001
0000
0101
1100
0000
,  // measure 65
0110
0110
0110
0110
0110
0110
0110
0110
,  // measure 66
0000
0110
0000
1001
0000
0100
0110
0000
,  // measure 67
2002
3003
0000
0000
;
