#TITLE:puzzle;
#SUBTITLE:;
#ARTIST:日本少年;
#TITLETRANSLIT:;
#SUBTITLETRANSLIT:;
#ARTISTTRANSLIT:NIPPON SHONEN;
#GENRE:;
#CREDIT:;
#BANNER:puzzle.png;
#BACKGROUND:puzzle-bg.png;
#LYRICSPATH:;
#CDTITLE:;
#MUSIC:puzzle.ogg;
#OFFSET:0.000000;
#SAMPLESTART:52.238998;
#SAMPLELENGTH:15.000000;
#SELECTABLE:YES;
#DISPLAYBPM:135.000000;
#BPMS:0.000000=135.337997
,4.000000=135.000000
;
#STOPS:
;
#BGCHANGES:;
#KEYSOUNDS:;
#ATTACKS:;

//---------------dance-single - ----------------
#NOTES:
     dance-single:
     :
     Beginner:
     3:
     0.125346,0.190441,0.000000,0.000000,0.000000,77.000000,77.000000,0.000000,0.000000,0.000000,0.000000,0.125346,0.190441,0.000000,0.000000,0.000000,77.000000,77.000000,0.000000,0.000000,0.000000,0.000000:
0000
0000
0000
0000
,
0000
0000
0000
0000
,
0000
0000
0000
0000
,
0000
0000
0000
0000
,
0000
0000
0000
0000
,
1000
0000
0000
0000
,
0010
0000
0010
0000
,
0001
0000
0000
0000
,
0010
0000
0010
0000
,
0001
0000
0000
0000
,
0100
0000
0100
0000
,
1000
0000
0000
0000
,
0100
0000
0100
0000
,
0010
0000
0000
0000
,
0001
0000
0000
0000
,
1000
0000
0000
0000
,
0010
0000
0000
0000
,
1000
1000
0000
0000
,
0100
0100
0000
0000
,
0001
0001
0000
0000
,
0010
0010
0000
0000
,
0001
0000
0000
0000
,
0100
0000
0000
0000
,
1000
0000
1000
0000
,
0001
0000
0001
0000
,
0010
0010
0000
0000
,
0100
0100
0000
0000
,
1000
0000
1000
0000
,
0001
0000
0001
0000
,
1000
0000
0000
0000
,
0010
0000
0000
0000
,
1000
0000
0001
0000
,
0010
0000
0000
0000
,
0100
0000
1000
0000
,
0001
0000
0000
0000
,
0010
0000
0100
0000
,
1000
0000
0000
0000
,
0100
0000
0001
0000
,
0010
0010
0010
0000
,
0001
0001
0001
0000
,
1000
1000
1000
0000
,
0100
0100
0100
0000
,
0001
0000
1000
0000
,
0010
0000
0001
0000
,
1000
0000
0100
0000
,
0001
0000
0010
0000
,
1000
0000
0001
0000
,
1000
1000
1000
1000
,
0000
0000
0000
0000
;

//---------------dance-single - ----------------
#NOTES:
     dance-single:
     :
     Easy:
     4:
     0.196972,0.244852,0.011395,0.113951,0.000000,121.000000,120.000000,1.000000,10.000000,0.000000,0.000000,0.196972,0.244852,0.011395,0.113951,0.000000,121.000000,120.000000,1.000000,10.000000,0.000000,0.000000:
0000
0000
0000
0000
,
0000
0000
0000
0000
,
0000
0000
0000
0000
,
0000
0000
0000
0000
,
0000
0000
0000
0000
,
0100
0000
1000
0000
,
0100
1000
0100
0001
,
0100
0000
0001
1000
,
0100
0000
0010
0000
,
0100
0000
1000
0000
,
0100
0001
0100
1000
,
0100
0000
0001
1000
,
0100
1000
0001
0000
,
1000
0010
0100
0000
,
0001
0100
0010
0000
,
1000
0100
0001
0000
,
0010
0001
0100
1000
,
0001
0010
0100
0000
,
1000
0100
0010
0000
,
0001
0100
1000
0000
,
0010
1000
0100
0001
,
0020
0000
0000
0030
,
0002
0000
0000
0003
,
0100
0000
0010
0000
,
0001
0010
0100
0010
,
0002
0000
0100
0103
,
2000
0000
0010
3010
,
0100
0000
0010
0000
,
0010
1000
0100
0001
,
2002
0000
0000
3003
,
0100
1000
0010
0000
,
0001
0010
0100
0000
,
1000
1000
0001
0001
,
0010
1000
0001
0000
,
0100
0001
0010
0000
,
1000
0010
0100
0000
,
0001
0001
1000
1000
,
0010
0001
1000
0000
,
0002
0000
0000
0003
,
0200
0000
0000
0300
,
0001
0000
0010
0000
,
0100
1000
0001
0010
,
2000
0000
0000
3000
,
0200
0000
0000
0300
,
1000
0000
0010
0000
,
0100
0001
1000
0010
,
0001
0001
1000
1000
,
0001
1000
0001
1000
,
0000
0000
0000
0000
;

//---------------dance-single - ----------------
#NOTES:
     dance-single:
     :
     Medium:
     6:
     0.283250,0.327324,0.079766,0.113951,0.000000,174.000000,167.000000,7.000000,10.000000,0.000000,0.000000,0.283250,0.327324,0.079766,0.113951,0.000000,174.000000,167.000000,7.000000,10.000000,0.000000,0.000000:
0000
0000
0000
0000
,
0000
0000
0000
0000
,
0000
0000
0000
0000
,
0000
0000
0000
0000
,
0000
0000
0000
0000
,
0010
0000
1000
0001
,
0010
1000
0001
0100
,
0010
1000
0001
1000
,
0010
0010
0100
0100
,
0010
0000
1000
0001
,
0010
0001
1000
0100
,
0010
1000
0001
1000
,
0010
1000
0001
0110
,
1000
0000
0100
0001
0010
0000
0000
0000
,
0001
0010
0100
0001
,
1000
0010
0001
0010
,
0100
1000
0001
0000
0010
0000
0000
0000
,
0001
0000
0100
1000
0010
0000
0000
0000
,
1000
0010
0100
1000
,
0001
0010
1000
0010
,
0100
0001
1000
0000
0010
0000
1001
0000
,
0200
0000
2000
0300
,
0002
3000
0200
0003
,
0310
1000
0100
1000
,
0001
0100
0010
0100
,
1002
0000
1000
0103
,
2010
0000
0001
3100
,
0010
0000
0100
0000
,
0100
1000
0010
1000
,
0002
2000
0000
0000
0000
0000
3003
0000
,
0010
0000
1000
0001
0100
0000
0000
0000
,
0001
0100
0010
0001
,
1000
0100
0001
0000
0001
0100
1000
0000
,
0100
1000
0001
0100
,
0010
0000
0001
1000
0100
0000
0000
0000
,
1000
0100
0010
1000
,
0001
0100
1000
0000
1000
0100
0001
0000
,
0100
0001
1000
0110
,
0002
1000
0100
1000
,
0010
0100
0010
0103
,
0001
1000
0001
1000
,
0010
1000
0001
0010
,
2000
0001
0100
0001
,
0010
0100
0010
3100
,
1000
0001
1000
0001
,
0010
0001
1000
0010
,
0100
1001
0100
1001
,
0010
0000
0001
0000
1000
0010
0100
0001
,
0000
0000
0000
0000
;

//---------------dance-single - ----------------
#NOTES:
     dance-single:
     :
     Hard:
     8:
     0.343481,0.381878,0.068371,0.091161,0.000000,211.000000,205.000000,6.000000,8.000000,0.000000,0.000000,0.343481,0.381878,0.068371,0.091161,0.000000,211.000000,205.000000,6.000000,8.000000,0.000000,0.000000:
0000
0000
0000
0000
,
0000
0000
0000
0000
,
0000
0000
0000
0000
,
0000
0000
0000
0000
,
0000
0000
0000
0000
,
0100
0000
1000
0000
0001
0100
1000
0000
,
0100
0000
0001
0010
0000
1000
0010
0000
,
0100
0000
0001
0000
1000
0100
0001
0000
,
0100
0100
1000
0010
,
0100
0000
1000
0000
0001
0100
1000
0000
,
0100
0000
1000
0010
0000
0001
0010
0000
,
0100
0000
0001
0000
1000
0100
0001
0000
,
0100
1000
0001
0100
0000
0010
0100
0000
,
0001
0000
0010
0000
0100
1000
0100
0000
,
1000
0001
0100
0000
0010
0000
1000
0000
,
0001
0100
1000
0100
,
0010
0001
1000
0010
0000
0100
0001
0000
,
1000
0000
0010
0000
0100
0001
0100
0000
,
0001
1000
0100
0000
0010
0000
0001
0000
,
1000
0100
0001
0100
,
0010
1000
0001
0010
0100
0000
1001
0000
,
0020
0001
0100
0031
,
2000
0000
0010
3010
,
0100
0001
0010
0001
,
1000
0000
0010
0100
0000
0001
0010
0000
,
1100
0000
0000
0000
0001
1000
0010
0000
,
0101
0000
0000
0000
1000
0001
0010
0000
,
0100
0000
1000
0000
0010
1000
0100
0000
,
1000
0001
0100
0010
,
2000
0002
0000
0000
0000
0000
3003
0000
,
0100
0000
0001
0000
0010
1000
0100
0000
,
1000
0000
0010
0000
0100
0001
1000
0000
,
0100
0000
1000
0010
0000
1000
0001
0000
,
0010
0001
1000
0010
,
0100
0000
1000
0000
0010
0001
0100
0000
,
0001
0000
0010
0000
0100
1000
0001
0000
,
0100
0000
0001
0010
0000
0001
1000
0000
,
0010
1000
0001
0110
,
2000
0001
0010
3100
,
0002
1000
0010
0103
,
1000
0100
0001
0000
1000
0100
0001
0000
,
0100
0010
0001
0100
0000
0010
0100
0000
,
0002
1000
0010
0103
,
2000
0001
0010
3100
,
0001
0100
1000
0000
0001
0100
1000
0000
,
0100
0010
1000
0100
0000
0010
0100
0000
,
0010
0101
0010
1100
,
0001
0010
1000
0001
0100
1000
0010
0100
,
0000
0000
0000
0000
;

//---------------dance-double - ----------------
#NOTES:
     dance-double:
     :
     Easy:
     4:
     0.214879,0.272058,0.079766,0.045580,0.000000,132.000000,125.000000,7.000000,4.000000,0.000000,0.000000,0.214879,0.272058,0.079766,0.045580,0.000000,132.000000,125.000000,7.000000,4.000000,0.000000,0.000000:
00000000
00000000
00000000
00000000
,
00000000
00000000
00000000
00000000
,
00000000
00000000
00000000
00000000
,
00000000
00000000
00000000
00000000
,
00000000
00000000
00000000
00000000
,
00100000
10000000
00010000
00000000
,
00100000
00000000
01000000
00000000
,
01000000
00010000
00001000
00000000
,
00000010
00000010
00000100
00000100
,
00000010
00000001
00001000
00000000
,
00000010
00000000
00000100
00000000
,
00001000
00010000
00100000
00000000
,
10000000
10000000
00010000
00010000
,
00100000
00010000
01000000
00000000
,
00100000
00010000
00001000
00000000
,
00000010
00000000
00000001
00000000
,
00001000
00000001
00000100
00000000
,
00000010
00001000
00000100
00000000
,
00001000
00000001
00000010
00000000
,
00001000
00000000
00010000
00000000
,
00100000
10000000
00010000
00000000
,
20020000
00000000
00000000
30030000
,
01000000
00000000
01000000
00000000
,
00010000
00000000
00001000
00000000
,
00000010
00000001
00000100
00000000
,
00001001
00000000
00000100
00001000
,
00011000
00000000
01000000
10000000
,
10010000
00000000
01100000
00000000
,
10010000
00000000
00000000
00000000
,
00022000
00000000
00000000
00033000
,
00000100
00000001
00001000
00000000
,
00000010
00000100
00001000
00000000
,
00000010
00000000
00001000
00000000
,
00010000
00100000
10000000
00100000
,
00010000
10000000
01000000
00000000
,
00010000
00001000
00000010
00000000
,
00000100
00000000
00001000
00000000
,
00000010
00000001
00001000
00000010
,
00000100
00000001
00000100
00000001
,
00000100
00001000
00000100
00001000
,
00010000
00001000
00010000
00001000
,
00010000
00100000
00010000
00100000
,
10000000
00100000
10000000
00100000
,
10000000
01000000
10000000
01000000
,
00010000
00001000
00010000
00001000
,
00000010
00000001
00001000
00000000
,
00000010
00000000
00000100
00000000
,
00001000
00010000
00100000
10000000
,
00000000
00000000
00000000
00000000
;

//---------------dance-double - ----------------
#NOTES:
     dance-double:
     :
     Medium:
     6:
     0.291389,0.353675,0.273482,0.045580,0.000000,179.000000,155.000000,24.000000,4.000000,0.000000,0.000000,0.291389,0.353675,0.273482,0.045580,0.000000,179.000000,155.000000,24.000000,4.000000,0.000000,0.000000:
00000000
00000000
00000000
00000000
,
00000000
00000000
00000000
00000000
,
00000000
00000000
00000000
00000000
,
00000000
00000000
00000000
00000000
,
00000000
00000000
00000000
00000000
,
00001001
00000000
00000100
00001000
,
00010000
00100000
00010000
00001000
,
01010000
00000000
00100000
10000000
,
00010000
00100000
00010000
01000000
,
00011000
00000000
00000100
00000001
,
00000010
00000001
00001000
00000010
,
00000101
00000000
00001000
00001000
,
00010000
00100000
10000000
01000000
,
00010000
00001000
00000010
00001000
,
00010000
00001000
00000100
00000001
,
00000010
00000001
00001000
00000010
,
00011000
00000000
01000000
01000000
,
00100000
01000000
10000000
00100000
,
00010000
00001000
00010000
01000000
,
00100000
00010000
00001000
00000010
,
00001001
00000000
00000110
00000000
,
00022000
00000000
00000000
00033000
,
01000000
10000000
00100000
00010000
,
00001000
00000100
00000001
00000010
,
00000001
00001000
00000010
00000100
,
00001001
00000000
00000010
00001000
,
00011000
00000000
01000000
10000000
,
10100000
01000000
00110000
01000000
,
00010000
00001000
00000100
00000001
,
00002000
00000002
00000000
00000000
00000000
00000000
00003003
00000000
,
00000100
00001000
00000010
00001000
,
00010000
00011000
00100000
11000000
,
00100000
00010000
00001000
00010000
,
00001100
00000000
00000010
00000010
,
00000001
00001000
00000010
00000100
,
00001000
00011000
01000000
10010000
,
00100000
00010000
00001000
00000010
,
00001100
00000000
00000001
00000001
,
00000100
00001000
00010000
01000000
,
10000000
00100000
10000000
00100000
,
01000000
00010000
00001000
00000100
,
00000001
00000010
00000001
00000010
,
00001000
00000110
00001000
00011000
,
00100000
00110000
01000000
11000000
,
00100000
10000000
01000000
00010000
,
00011000
00000000
00001000
00000100
,
00000010
00000100
00000001
00001000
,
00000010
00000100
00001000
00011000
,
00000000
00000000
00000000
00000000
;

//---------------dance-double - ----------------
#NOTES:
     dance-double:
     :
     Hard:
     9:
     0.372783,0.409155,0.170927,0.022790,0.034185,229.000000,214.000000,15.000000,2.000000,0.000000,0.000000,0.372783,0.409155,0.170927,0.022790,0.034185,229.000000,214.000000,15.000000,2.000000,0.000000,0.000000:
00000000
00000000
00000000
00000000
,
00000000
00000000
00000000
00000000
,
00000000
00000000
00000000
00000000
,
00000000
00000000
00000000
00000000
,
00000000
00000000
00000000
00000000
,
00000010
00000000
00000100
00000000
00010000
00001000
00000100
00000000
,
00000001
00000000
00000010
00000100
00000000
00001000
00010000
00000000
,
00100000
00000000
00010000
00000000
10000000
00100000
01000000
00000000
,
00100000
00011000
00000010
00001001
,
00000010
00000000
00001000
00000000
00000001
00000010
00000100
00000000
,
00001000
00000000
00000010
00000100
00000000
00001000
00010000
00000000
,
00100000
00000000
10000000
00000000
00010000
01000000
10000000
00000000
,
01010000
00110000
00011000
00001010
,
00000100
00001000
00000010
00000000
00000100
00000000
00001000
00000000
,
00000001
00000100
00001000
00000000
00010000
01000000
10000000
00000000
,
00100000
01000000
10000000
00100000
,
00010000
00001000
00000010
00001000
00010000
00001000
00000100
00000000
,
00000010
00001000
00000001
00000000
00000010
00000000
00001000
00000000
,
00010000
00001000
00100000
00000000
00010000
10000000
00100000
00000000
,
01000000
00010000
00100000
00010000
,
10000000
01000000
00010000
00001000
00010000
00000000
00011000
00000000
,
00000010
00000000
00000001
00001000
00000000
00000010
00000100
00000000
,
00000001
00000010
00000000
00001000
00010000
01000000
10000000
00000000
,
00010000
00000000
01000000
00100000
00000000
01000000
00010000
00000000
,
10000000
01000000
00000000
00010000
00001000
00000010
00000001
00000000
,
00001100
00000000
00000000
00000000
00000001
00000100
00001000
00000000
,
00011000
00000000
00000000
00000000
00010000
01000000
10000000
00000000
,
00100000
10000000
00010000
00100000
,
00001000
00010000
00000010
00010000
00000100
00010000
00001000
00000000
,
00000020
00000002
00000000
00000000
00000000
00000000
00000033
00000000
,
00000100
00000000
00001000
00000000
00000010
00010000
00000100
00000000
,
00001000
00000000
00000001
00000100
00000000
00001000
00010000
00000000
,
00000010
00011000
01000000
00011000
,
00100000
10000000
00010000
00100000
00000000
01000000
10000000
00000000
,
01000000
00000000
00010000
00000000
00001000
00000100
00000001
00000000
,
00000010
00000000
00000100
00001000
00000000
00000001
00000100
00000000
,
00000010
00011000
00100000
10010000
,
01000000
10000000
00100000
10000000
00000000
00010000
01000000
00000000
,
00100000
00000000
00000000
00100000
00000000
00000000
00010000
00000000
00000000
00000000
00001000
00000000
00000010
00000000
00000000
00000000
,
00000001
00000000
00000000
00000001
00000000
00000000
00001000
00000000
00000000
00000000
00000010
00000000
00001000
00000000
00000000
00000000
,
00010000
00000000
00000000
00010000
00000000
00000000
01000000
00000000
00000000
00000000
10000000
00000000
00100000
00000000
00000000
00000000
,
00010000
00001000
00000010
00001000
,
00010000
00000000
00000000
00010000
00000000
00000000
00001000
00000000
00000000
00000000
00000100
00000000
00000001
00000000
00000000
00000000
,
00000010
00000000
00000000
00000010
00000000
00000000
00000001
00000000
00000000
00000000
00001000
00000000
00000010
00000000
00000000
00000000
,
00000100
00000000
00000000
00000100
00000000
00000000
00001000
00000000
00000000
00000000
00010000
00000000
00100000
00000000
00000000
00000000
,
10000000
00010000
00100000
01000000
,
00010000
00011000
00000100
00000101
,
00000010
00001000
00010000
00001000
00000100
00001000
00010000
01000000
,
00000000
00000000
00000000
00000000
;

//---------------dance-single - ----------------
#NOTES:
     dance-single:
     :
     Challenge:
     14:
     0.737426,0.901317,0.467199,0.205112,0.746379,453.000000,412.000000,41.000000,18.000000,0.000000,0.000000,0.737426,0.901317,0.467199,0.205112,0.746379,453.000000,412.000000,41.000000,18.000000,0.000000,0.000000:
// measure 0
0000
0000
0000
0000
,  // measure 1
0000
0000
0000
0000
,  // measure 2
0000
0000
0000
0000
,  // measure 3
0000
0000
0000
0000
,  // measure 4
0000
0000
0000
0000
,  // measure 5
0120
0000
0031
0000
1100
0100
0010
0001
,  // measure 6
0100
0000
0001
0100
0000
1000
0100
0000
,  // measure 7
1020
0000
0130
0000
0101
1000
0100
0010
,  // measure 8
0001
0000
0000
0001
0010
0000
0000
0010
0100
0000
0000
0100
1000
0000
0100
0000
,  // measure 9
0120
0000
1030
0000
1001
0010
0001
0100
,  // measure 10
0010
0100
1000
0001
0000
0001
0100
0000
,  // measure 11
0120
0000
0031
0000
1001
1000
0010
0001
,  // measure 12
0100
0000
0001
0010
0100
0000
0010
0100
1000
0000
1000
0010
0100
0001
1000
0000
,  // measure 13
0100
0000
0010
0000
1000
0010
0000
0101
0000
0000
0001
0000
0100
0000
0010
0000
,  // measure 14
1000
0000
0100
0000
1000
0000
0001
0100
0000
0000
0110
0000
1001
0000
0010
0001
,  // measure 15
1000
0001
0000
0101
0000
0000
0010
1000
0100
1000
0000
1100
0000
0000
0001
0100
,  // measure 16
0010
1000
0001
0100
0010
1000
0100
0010
,  // measure 17
0001
0000
0100
0000
0010
0000
1000
0100
0000
0000
1100
0000
1000
0000
0010
0000
,  // measure 18
0100
0000
0001
0010
0100
0000
0010
1000
0000
0010
1000
0000
0000
0000
0110
0000
,  // measure 19
1000
0001
0000
0101
0000
0000
0011
0000
1000
0100
0000
1100
0000
0000
0101
0000
,  // measure 20
0020
0000
0000
0001
0002
0000
0033
0000
,  // measure 21
0010
0001
0010
1000
0010
0001
0010
1000
0010
0001
0010
1000
0010
0001
0010
0100
,  // measure 22
1000
0000
0100
0001
0010
0000
0001
0000
0100
0000
0010
0100
1000
0000
0001
0000
,  // measure 23
0010
0000
1000
0010
0100
0000
0001
0000
1000
0000
0010
0100
0001
0000
0010
0000
,  // measure 24
1000
0000
0001
0010
0100
0000
1000
0000
0010
0000
1000
0100
0010
0100
0001
0000
,  // measure 25
0010
0001
0100
0001
0010
0001
0100
0001
0010
0001
0100
0001
0010
0001
0100
0001
,  // measure 26
0010
1000
0100
1000
0010
1000
0100
1000
0010
1000
0100
1000
0010
1000
0100
1000
,  // measure 27
0010
0000
0100
0001
0000
1000
0100
0010
,  // measure 28
0001
1000
0001
1000
0001
1000
0001
1000
0001
1000
0001
1000
0001
1000
0001
1000
,  // measure 29
0001
0022
0000
0000
0000
0000
0033
0000
,  // measure 30
1001
0000
0100
0010
1000
0000
0010
0100
0001
1000
0100
0000
0010
0001
0100
0001
,  // measure 31
0010
0000
1000
0100
0010
0000
0001
0010
0100
0000
1001
0000
0001
0010
0100
1000
,  // measure 32
0010
0000
0101
0000
1000
0100
0010
0000
0011
0000
0001
0010
0100
1000
0010
0100
,  // measure 33
0001
0000
0010
0001
0100
0000
0010
1000
0001
0000
0101
0000
1000
0100
0010
0000
,  // measure 34
0101
0000
0001
0010
0100
0000
0010
1000
0100
0010
0001
0000
0010
0001
1000
0010
,  // measure 35
0100
0000
0010
0001
1000
0000
0100
0001
1000
0000
0110
0000
1000
0100
0010
0001
,  // measure 36
0100
0000
0000
0100
0010
0000
2000
0000
0000
0000
3002
0000
0000
0000
0023
0000
,  // measure 37
0000
0000
0230
0000
0000
0000
2300
0000
0000
0000
3000
0000
0100
1000
0010
0100
,  // measure 38
0001
0000
0010
0001
0000
0100
0001
0000
0101
0000
0100
0010
1000
0100
0010
0000
,  // measure 39
0100
0000
1000
0100
0000
0010
0100
0000
1100
0000
1000
0010
0001
0100
1000
0000
,  // measure 40
0110
0000
1000
0010
1000
0000
1000
0100
0000
1000
0100
0010
0001
0000
0101
0000
,  // measure 41
0020
0000
0000
0001
0000
0000
0130
0000
0001
0010
1000
0000
0101
0000
0010
0001
,  // measure 42
1000
0000
0101
0000
1000
0100
0000
1100
0000
0000
1000
0100
0010
0000
0011
0000
,  // measure 43
0101
0000
1001
0000
0100
0001
0000
0010
0001
0100
0010
0100
1000
0100
0000
0000
,  // measure 44
1200
0000
0010
0000
0310
0000
0120
0000
0001
0000
0031
0000
0001
0010
0100
1000
,  // measure 45
1002
0000
0100
0000
0103
0000
2001
0000
0010
0000
3010
0000
1000
0010
0001
0010
,  // measure 46
1000
0010
0000
0000
0001
0010
0000
0000
1000
0100
0000
0000
0001
0100
0000
0000
,  // measure 47
1000
0000
0100
0000
0000
0000
1000
0000
0100
0000
0000
0000
0010
0000
0001
0000
0000
0000
0010
0000
0001
0000
0000
0000
1000
0000
0000
0100
0000
0000
1000
0000
0000
0100
0000
0000
0010
0000
0000
0001
0000
0000
0010
0000
0000
0001
0000
0000
;
