#VERSION:0.83;
#TITLE:never let you down;
#SUBTITLE:;
#ARTIST:good-cool feat. JP miles;
#TITLETRANSLIT:;
#SUBTITLETRANSLIT:;
#ARTISTTRANSLIT:;
#GENRE:;
#ORIGIN:;
#CREDIT:;
#BANNER:never let you down.png;
#BACKGROUND:never let you down-bg.png;
#PREVIEWVID:;
#JACKET:never let you down-jacket.png;
#CDIMAGE:;
#DISCIMAGE:;
#LYRICSPATH:;
#CDTITLE:;
#MUSIC:never let you down.ogg;
#OFFSET:0.000000;
#SAMPLESTART:62.880001;
#SAMPLELENGTH:15.000000;
#SELECTABLE:YES;
#DISPLAYBPM:125.000000;
#BPMS:0.000=125.000;
#STOPS:;
#DELAYS:;
#WARPS:;
#TIMESIGNATURES:0.000=4=4;
#TICKCOUNTS:0.000=4;
#COMBOS:0.000=1;
#SPEEDS:0.000=1.000=0.000=0;
#SCROLLS:0.000=1.000;
#FAKES:;
#LABELS:0.000=Song Start;
#BGCHANGES:;
#KEYSOUNDS:;
#ATTACKS:
;

//---------------dance-single - ----------------
#NOTEDATA:;
#CHARTNAME:;
#STEPSTYPE:dance-single;
#DESCRIPTION:;
#CHARTSTYLE:;
#DIFFICULTY:Beginner;
#METER:3;
#RADARVALUES:0.163932,0.253282,0.103381,0.000000,0.000000,111.000000,101.000000,10.000000,0.000000,0.000000,0.000000,0.000000,0.000000,0.000000,0.163932,0.253282,0.103381,0.000000,0.000000,111.000000,101.000000,10.000000,0.000000,0.000000,0.000000,0.000000,0.000000,0.000000;
#CREDIT:;
#DISPLAYBPM:125.000000;
#NOTES:
0000
0000
0000
0000
,
0000
0000
0000
0000
,
0000
0000
0000
0000
,
1000
0000
0000
0000
,
0001
0000
0000
0000
,
1000
0000
1000
0000
,
0001
0000
0001
0000
,
1000
0000
0010
0000
,
1000
1000
1000
1000
,
1000
0000
0001
0000
,
1000
0000
0001
0000
,
1000
0000
0001
0001
,
0000
0100
0000
0100
,
0000
0001
0000
0001
,
0001
0001
0000
0100
,
0000
0100
0000
1001
,
1001
1001
0000
1001
,
0000
0010
0000
0100
,
0000
0010
0000
0100
,
0000
1000
0000
0001
,
0000
1000
0000
0001
,
0000
0100
0000
0000
,
0001
0001
0001
0000
,
1000
1000
1000
0000
,
0001
0000
0100
0000
,
1001
0000
0100
0000
,
1001
0000
0100
0000
,
1000
0000
0001
0000
,
1000
0000
0001
0000
,
1001
0000
0100
0000
,
1001
0000
0100
0000
,
1000
0000
0001
0000
,
1000
0000
0100
0000
,
1000
0000
1000
0000
,
0001
0000
0001
0000
,
1000
0000
0010
0010
,
0000
1000
0000
0001
,
0001
0000
0001
0000
,
1000
0000
1000
0000
,
0001
0000
0010
0000
,
0001
0001
0001
0001
,
0001
0000
0100
0100
,
0000
0000
0100
0100
,
0000
0000
1000
1000
,
0000
0000
0010
0010
,
0000
1001
0000
1000
,
0000
0110
0000
0010
,
0000
0010
0000
0010
,
0000
0010
0000
0010
,
0010
0000
0000
0000
;

//---------------dance-single - ----------------
#NOTEDATA:;
#CHARTNAME:;
#STEPSTYPE:dance-single;
#DESCRIPTION:;
#CHARTSTYLE:;
#DIFFICULTY:Easy;
#METER:3;
#RADARVALUES:0.231868,0.303939,0.113719,0.000000,0.000000,157.000000,146.000000,11.000000,0.000000,0.000000,0.000000,0.000000,0.000000,0.000000,0.231868,0.303939,0.113719,0.000000,0.000000,157.000000,146.000000,11.000000,0.000000,0.000000,0.000000,0.000000,0.000000,0.000000;
#CREDIT:;
#DISPLAYBPM:125.000000;
#NOTES:
0000
0000
0000
0000
,
0000
0000
0000
0000
,
0000
0000
0000
0000
,
1000
0000
0000
0000
,
0001
0000
0000
0000
,
1000
0000
1000
0000
,
0001
0000
0001
0000
,
1000
0100
0010
0001
,
1000
1000
1000
1000
,
0001
0000
0001
0000
,
1000
0100
0010
0001
,
1000
1000
0001
0001
,
1000
0100
0010
0001
,
1000
0001
0100
0001
,
1000
0001
0100
0001
,
1000
1000
0000
1001
,
0001
0001
0000
1001
,
0100
0010
1000
0000
,
0001
0010
0100
0000
,
1000
1000
0100
0000
,
0001
0001
0100
0000
,
0010
0100
1000
0000
,
0001
0100
0010
0000
,
1000
1000
0100
0000
,
0001
0001
0100
0000
,
1001
1001
0100
0000
,
1001
1001
0100
0000
,
1000
0001
1000
0001
,
1000
0010
0100
0001
,
1001
1001
0100
0000
,
1001
1001
0100
0000
,
1000
0001
1000
0001
,
1000
0010
0100
0001
,
1000
0000
1000
0000
,
0001
0000
0001
0000
,
1000
0100
0010
0001
,
1000
1000
1000
1000
,
0001
0000
0001
0000
,
1000
0000
1000
0000
,
0001
0100
0010
1000
,
0001
0001
0001
0001
,
1000
0001
0100
0100
,
0001
1000
0100
0100
,
1000
1000
0100
0100
,
0010
0010
0001
0001
,
1000
0000
0001
0000
,
1000
0000
0001
0000
,
0010
0100
0010
0100
,
0000
0010
0001
1000
,
1001
0000
0000
0000
;

//---------------dance-single - ----------------
#NOTEDATA:;
#CHARTNAME:;
#STEPSTYPE:dance-single;
#DESCRIPTION:;
#CHARTSTYLE:;
#DIFFICULTY:Medium;
#METER:7;
#RADARVALUES:0.321957,0.354595,0.113719,0.000000,0.000000,218.000000,207.000000,11.000000,0.000000,0.000000,0.000000,0.000000,0.000000,0.000000,0.321957,0.354595,0.113719,0.000000,0.000000,218.000000,207.000000,11.000000,0.000000,0.000000,0.000000,0.000000,0.000000,0.000000;
#CREDIT:;
#DISPLAYBPM:125.000000;
#NOTES:
0000
0000
0000
0000
,
0000
0000
0000
0000
,
0000
0000
0000
0000
,
1000
0000
0000
0000
,
0001
0000
0000
1000
0000
0000
0001
0000
,
1000
0000
0010
0000
1000
0010
0100
0000
,
0001
0000
1000
0000
0010
0100
0001
0000
,
1000
0000
0010
0000
1000
0010
0100
0000
,
0001
0000
1000
0000
0010
0100
0001
0000
,
1000
0000
1000
0000
0001
1000
0001
0000
,
1000
0000
1000
0000
0010
0100
0010
0000
,
1000
0000
0001
0000
1000
0100
0010
0000
,
0001
0000
1000
0000
0010
0100
0001
0000
,
1000
0000
1000
0000
0100
0100
0100
0000
,
1000
0000
1000
0000
0001
0010
0001
0000
,
0100
0000
0100
0000
0001
0001
0001
0000
,
1000
0000
1000
0000
0010
0100
0010
0000
,
1000
0000
0001
0000
,
1000
0100
0010
0001
,
1000
0001
0100
0000
0001
0000
0001
0000
,
1000
0000
1000
0000
0100
0001
0100
1000
,
0001
0000
1000
0000
,
0001
0010
0100
1000
,
0001
1000
0100
0000
1000
0000
1000
0000
,
0001
0000
0001
0000
0100
1000
0100
0001
,
1000
1001
0001
1001
,
0010
0110
0100
0110
,
1000
0001
0100
0010
,
1000
0001
0100
0010
,
1000
1001
0001
1001
,
0010
0110
0100
0110
,
1000
0001
0100
0010
,
1000
0001
0100
0010
,
1000
0000
0001
0000
,
1000
0100
0010
0001
,
1000
0001
0100
0000
0001
0000
0001
0000
,
1000
0000
1000
0000
0100
0001
0100
1000
,
0001
0000
1000
0000
,
0001
0010
0100
1000
,
0001
1000
0100
0000
1000
0000
1000
0000
,
0001
0001
0100
0100
,
1000
0100
0001
0100
0010
0000
0010
0000
,
1000
0100
0001
0100
0010
0000
0010
0000
,
0001
0100
1000
0100
0010
0000
0010
0000
,
1000
0100
0001
0100
0010
0000
0010
0000
,
0100
1100
0010
0011
,
1000
0100
0010
0001
,
1000
0001
0100
0000
0001
1000
0001
0000
,
1000
0010
1000
0000
0100
1000
0100
0000
,
1100
0000
0000
0000
;

//---------------dance-single - ----------------
#NOTEDATA:;
#CHARTNAME:;
#STEPSTYPE:dance-single;
#DESCRIPTION:;
#CHARTSTYLE:;
#DIFFICULTY:Hard;
#METER:9;
#RADARVALUES:0.403184,0.455908,0.072366,0.010338,0.000000,273.000000,266.000000,7.000000,1.000000,0.000000,0.000000,0.000000,0.000000,0.000000,0.403184,0.455908,0.072366,0.010338,0.000000,273.000000,266.000000,7.000000,1.000000,0.000000,0.000000,0.000000,0.000000,0.000000;
#CREDIT:;
#DISPLAYBPM:125.000000;
#NOTES:
0000
0000
0000
0000
,
0000
0000
0000
0000
,
0000
0000
0000
0000
,
0010
0010
0100
0100
,
1000
0100
0010
0001
,
1000
0010
1000
0001
1000
0010
1000
0100
,
1000
0100
0010
0001
0100
0010
1000
0100
,
1000
0001
0001
0001
0100
0010
0100
0001
,
1000
0001
0001
0001
0100
0010
0100
0001
,
0000
1000
0001
0000
1000
0000
0001
0010
,
0000
0010
0001
0000
1000
0000
0100
1000
,
0000
1000
0001
0000
0010
0000
0100
0010
,
0000
0010
0001
0000
1000
0000
0100
1000
,
0000
1000
0001
0000
1000
0000
0001
0010
,
0000
0010
0001
0000
1000
0000
0100
1000
,
0000
1000
0001
0000
0010
0000
0100
2000
,
0000
0000
0000
3000
,
1000
1000
1000
1000
,
0001
0001
0001
0001
,
1000
0001
0100
0000
0001
1000
0100
0000
,
0010
0001
1000
0100
0010
0001
1000
0100
,
1000
1000
1000
1000
,
0001
0001
0001
0001
,
1000
0001
0100
0000
0001
1000
0100
0000
,
0010
0001
1000
0100
0010
0001
1000
0100
,
1000
0001
1000
0000
0001
0000
1001
0000
,
0010
0100
0010
0100
0110
0000
0110
0000
,
1000
0000
1000
0000
0010
1000
0100
0000
,
0010
0100
1000
0100
0010
0001
1000
0000
,
0001
1000
0001
0000
1000
0000
1001
0000
,
0010
0100
0010
0100
0110
0000
0110
0000
,
0001
0000
0001
0000
0010
0001
0100
0000
,
0010
0100
0001
0100
0010
1000
0001
0000
,
1000
0000
1000
0000
1000
0001
1000
0000
,
0001
0000
0001
0000
0001
1000
0001
0000
,
1000
0001
0100
0000
0001
1000
0100
0000
,
0010
0001
1000
0100
0010
0001
1000
0100
,
1000
0000
1000
0000
1000
0001
1000
0000
,
0001
0000
0001
0000
0001
1000
0001
0000
,
1000
0001
0100
0000
0001
1000
0100
0000
,
0010
0001
1000
0100
0010
0001
1000
0100
,
1000
0000
0001
0000
0100
0100
0100
0000
,
0010
0000
1000
0000
0100
0100
0100
0000
,
0010
0000
0001
0000
1000
1000
1000
0000
,
0010
0000
1000
0000
0001
0001
0001
0000
,
1000
0010
1000
0001
1000
0010
1000
0100
,
1000
0100
0010
0001
0100
0010
1000
0100
,
1000
0001
0001
0001
0100
0010
0100
0001
,
1000
0001
0001
0001
0100
0010
0100
0010
,
1001
0000
0000
0000
;

//---------------dance-double - ----------------
#NOTEDATA:;
#CHARTNAME:;
#STEPSTYPE:dance-double;
#DESCRIPTION:;
#CHARTSTYLE:;
#DIFFICULTY:Easy;
#METER:4;
#RADARVALUES:0.259928,0.329267,0.279127,0.000000,0.000000,176.000000,149.000000,27.000000,0.000000,0.000000,0.000000,0.000000,0.000000,0.000000,0.259928,0.329267,0.279127,0.000000,0.000000,176.000000,149.000000,27.000000,0.000000,0.000000,0.000000,0.000000,0.000000,0.000000;
#CREDIT:;
#DISPLAYBPM:125.000000;
#NOTES:
00000000
00000000
00000000
00000000
,
00000000
00000000
00000000
00000000
,
00000000
00000000
00000000
00000000
,
10000000
00000000
00000000
00000000
,
01000000
00000000
00000000
00000000
,
00010000
00000000
00001000
00000000
,
00000010
00000000
00000001
00000000
,
00001000
00000000
00000010
00000000
,
00010000
00000000
00000100
00000000
,
00011000
00000000
10010000
00000000
,
10000000
00010000
00100000
01000000
,
00001000
00000010
00001000
00001001
,
00010000
00001000
01000000
00010000
,
00011000
00000000
10010000
00000000
,
10000000
00010000
00100000
01000000
,
00001000
00000010
00001000
00001001
,
00010000
00001000
01000000
00010000
,
00000010
00001010
00000010
00001010
,
00010000
00000100
00000010
00000001
,
00001000
00001000
00000100
00000100
,
00010000
00010000
00001000
00001000
,
01000000
01010000
01000000
01010000
,
00001000
00100000
01000000
10000000
,
00010000
00010000
00100000
00100000
,
00001000
00001000
00010000
00010000
,
00000010
00000100
00000001
00001001
,
00000100
00010000
00001000
00011000
,
10000000
10000000
01000000
01000000
,
00010000
00011000
00000001
00001001
,
00100000
01000000
10000000
10010000
,
01000000
00001000
00010000
00011000
,
00000001
00000001
00000100
00000100
,
00001000
00011000
10000000
10010000
,
00000010
00000000
00000000
00000000
,
00001000
00000100
00000000
00000000
,
00010000
00001000
01000000
00010000
,
10000000
01000000
00001000
00000100
,
00000010
00000000
00000000
00000000
,
00001000
00000100
00000000
00000000
,
00010000
00001000
01000000
00010000
,
10000000
01000000
00001000
00000100
,
00001001
00000000
00011000
10010000
,
10010000
00000000
00011000
00001001
,
00001000
00001000
00000001
00001001
,
00010000
00010000
00001000
00011000
,
00100000
00000000
00000000
00000000
,
10000000
01000000
00000000
00000000
,
00010000
00001000
00000000
00010000
,
00000010
00001000
00000100
00000001
,
00001001
00000000
00000000
00000000
;

//---------------dance-double - ----------------
#NOTEDATA:;
#CHARTNAME:;
#STEPSTYPE:dance-double;
#DESCRIPTION:;
#CHARTSTYLE:;
#DIFFICULTY:Medium;
#METER:5;
#RADARVALUES:0.332295,0.354595,0.206761,0.000000,0.000000,225.000000,205.000000,20.000000,0.000000,0.000000,0.000000,0.000000,0.000000,0.000000,0.332295,0.354595,0.206761,0.000000,0.000000,225.000000,205.000000,20.000000,0.000000,0.000000,0.000000,0.000000,0.000000,0.000000;
#CREDIT:;
#DISPLAYBPM:125.000000;
#NOTES:
00000000
00000000
00000000
00000000
,
00000000
00000000
00000000
00000000
,
00000000
00000000
00000000
00000000
,
00010000
00001000
01000000
01000000
,
00001000
00010000
00000100
00000100
,
00010000
00001000
01000000
00001000
,
00010000
00000010
00001000
00000000
00000001
00000000
00001000
00000000
,
00000100
00000100
00010000
00011000
,
01000000
01000000
00000000
10010000
,
00100000
00000000
00010000
00000000
01000000
00001000
00010000
00000000
,
00000010
00000000
00001000
00000000
00000001
00001000
00000010
00010000
,
00001000
00000000
01000000
00000000
00100000
10000000
01000000
00000000
,
00100000
00000000
00001000
00000000
00010000
00000010
00001000
00000100
,
00010000
00000000
00001000
00000000
01000000
00001000
00010000
00000000
,
00000010
00000000
00001000
00000000
00000001
00001000
00000010
00010000
,
00001000
00000000
01000000
00000000
00100000
10000000
01000000
00000000
,
00100000
00000000
00001000
00001000
,
01010000
01010000
00000000
10010000
,
01000000
01000000
01000000
00000000
00000000
00001000
00010000
00000000
,
00000010
00000010
00000010
00000000
00000000
00000000
00001001
00000000
,
00010000
00010000
00010000
00000000
00000000
00001000
01000000
00000000
,
00100000
00100000
00100000
00000000
00000000
00000000
10010000
00000000
,
10000000
01000000
00100000
00000000
00000000
00001000
00010000
00000000
,
00000010
00000100
00000001
00000000
00000000
00000000
00001001
00000000
,
00010000
00001000
01000000
00000000
00000000
00010000
10000000
00000000
,
10000000
01000000
00100000
00010000
,
00001000
00000100
00000010
00000001
,
00000100
00000010
00000100
00000001
00001000
00000010
00001000
00000001
,
00001000
00000100
00010000
00011000
,
00000001
00000010
00000100
00001000
,
00010000
00100000
01000000
10000000
,
00100000
01000000
00100000
10000000
00010000
01000000
00010000
10000000
,
00010000
00100000
00001000
00011000
,
10000000
00010000
01000000
00001000
,
00010000
00000010
00001000
00000000
00000001
00000000
00001000
00000000
,
00000100
00000100
00010000
00011000
,
01000000
01000000
00000000
10010000
,
10000000
00010000
01000000
00001000
,
00010000
00000010
00001000
00000000
00000001
00000000
00001000
00000000
,
00000100
00000100
00010000
00011000
,
01000000
01000000
00000000
10010000
,
01000000
00000000
00001000
00010000
00000000
00000000
00011000
00000000
,
00000010
00000000
00001000
00000100
00000000
00000000
00011000
00000000
,
00100000
00000000
00010000
01000000
00000000
00000000
00011000
00000000
,
00000100
00000000
00001000
00000100
00000000
00000000
00011000
00000000
,
10000000
00010000
01000000
00001000
,
00010000
00000010
00001000
00000000
00000001
00000000
00001000
00000000
,
00000100
00000100
00010000
00011000
,
01000000
00010000
10000000
00000000
,
10010000
00000000
00000000
00000000
;

//---------------dance-double - ----------------
#NOTEDATA:;
#CHARTNAME:;
#STEPSTYPE:dance-double;
#DESCRIPTION:;
#CHARTSTYLE:;
#DIFFICULTY:Hard;
#METER:7;
#RADARVALUES:0.425337,0.430580,0.186085,0.000000,0.000000,288.000000,270.000000,18.000000,0.000000,0.000000,0.000000,0.000000,0.000000,0.000000,0.425337,0.430580,0.186085,0.000000,0.000000,288.000000,270.000000,18.000000,0.000000,0.000000,0.000000,0.000000,0.000000,0.000000;
#CREDIT:;
#DISPLAYBPM:125.000000;
#NOTES:
00000000
00000000
00000000
00000000
,
00000000
00000000
00000000
00000000
,
00000000
00000000
00000000
00000000
,
00010000
00001000
00010000
00000100
,
00010000
00000000
00001000
00000000
00010000
00000010
00010000
00000000
,
00001000
00000000
00000000
00000000
00000001
00001000
00000100
00000000
,
00000010
00000001
00000100
00000010
00001000
00000100
00010000
00000000
,
00001000
00001000
00100000
00100000
,
01000000
10000000
00100000
01000000
00010000
00100000
00001000
00000000
,
00000000
00000010
00000001
00000000
00001000
00000100
00000010
00000001
,
00000000
00010000
00001000
00000000
00100000
00010000
10000000
01000000
,
00000000
00100000
00010000
00000000
01000000
00001000
00010000
00000100
,
00000000
00001000
00000001
00000000
00000100
00000010
00001000
00000001
,
00000000
00000010
00000001
00000000
00001000
00000100
00000010
00000001
,
00000000
00010000
00001000
00000000
00100000
00010000
10000000
01000000
,
00000000
00100000
00010000
00000000
01000000
00001000
00010000
00000100
,
00000000
00000000
00001001
00000000
,
00011000
01001000
00011000
00010100
,
01000000
00001000
00010000
00000100
00000010
00000001
00000100
00000010
,
00010000
00010000
00010000
00000000
00001000
00000000
01000000
00100000
,
10000000
01000000
00100000
00010000
01000000
00010000
10000000
00000000
,
10010000
00011000
00001001
00011000
,
00000100
00010000
00001000
01000000
00100000
10000000
01000000
00100000
,
00001000
00001000
00001000
00000000
00010000
00000000
00000100
00000010
,
00000001
00000100
00000010
00001000
00000100
00001000
00000001
00000100
,
00000010
00010000
00001000
00000000
00010000
00000000
00011000
00000000
,
00100000
01000000
00100000
00010000
10010000
00000000
10010000
00000000
,
01000000
00000000
01000000
00000000
00100000
10000000
00010000
00000000
,
01000000
00001000
00010000
00001000
00010000
00000000
00011000
00000000
,
00000010
00010000
00001000
00000000
00010000
00000000
00011000
00000000
,
00100000
01000000
00100000
00010000
10010000
00000000
10010000
00000000
,
01000000
00000000
01000000
00000000
00100000
10000000
00010000
00000000
,
01000000
00001000
00010000
00001000
00010000
00000000
00011000
00000000
,
00001000
00000000
00000000
00000000
00000001
00001000
00000100
00000000
,
00000010
00000001
00000100
00000010
00001000
00000100
00010000
00000000
,
00001000
00001000
00100000
00100000
,
01000000
10000000
00100000
01000000
00010000
00100000
00001000
01000000
,
00001000
00000000
00000000
00000000
00000001
00001000
00000100
00000000
,
00000010
00000001
00000100
00000010
00001000
00000100
00010000
00000000
,
00001000
00001000
00100000
00100000
,
01000000
10000000
00100000
01000000
00010000
00100000
00001000
00000000
,
00010000
00000100
00000010
00000001
00000100
00000010
00001000
00000100
,
00010000
00001000
00100000
00010000
01000000
00100000
10000000
01000000
,
10000000
10000000
10000000
10000000
00010000
01000000
00001000
01000000
,
00001000
00001000
00001000
00001000
00010000
00000100
00001000
00000001
,
00001000
00000000
00000000
00000000
00000001
00001000
00000100
00000000
,
00000010
00000001
00000100
00000010
00001000
00000100
00010000
00000000
,
00001000
00001000
00100000
00100000
,
01000000
10000000
00100000
01000000
00010000
00100000
00001000
00100000
,
10010000
00000000
00000000
00000000
;

//---------------dance-couple - ----------------
#NOTEDATA:;
#CHARTNAME:;
#STEPSTYPE:dance-couple;
#DESCRIPTION:;
#CHARTSTYLE:;
#DIFFICULTY:Challenge;
#METER:7;
#RADARVALUES:0.289465,0.455908,0.124057,0.000000,0.000000,196.000000,184.000000,12.000000,0.000000,0.000000,0.000000,0.000000,0.000000,0.000000,0.289465,0.455908,0.124057,0.000000,0.000000,196.000000,184.000000,12.000000,0.000000,0.000000,0.000000,0.000000,0.000000,0.000000;
#CREDIT:;
#DISPLAYBPM:125.000000;
#NOTES:
00000000
00000000
00000000
00000000
,
00000000
00000000
00000000
00000000
,
00000000
00000000
00000000
00000000
,
10000001
10000000
00010001
00010000
,
10000001
00000001
10001000
00001000
,
10000001
00100000
10000000
00010000
10000001
00100000
10000000
01000000
,
10000001
01000000
00100000
00010000
01000001
00100000
10000000
01000000
,
10000001
00000010
00000001
00001000
10000001
00000010
00000001
00000100
,
10000001
00000100
00000010
00001000
10000100
00000010
00000001
00000100
,
10000001
00000000
10000000
00000000
00010001
10000000
00010000
00100000
,
00000001
00100000
00010000
00000000
10000001
00000000
01000000
10000000
,
00001000
00000000
00001000
00000000
10000001
00001000
00000001
00000010
,
10000000
00000010
00000001
00000000
10001000
00000000
00000100
00001000
,
10000000
00000000
10000000
00000000
00010001
10000000
00010000
00000000
,
10001000
00000000
00001000
00000000
10000001
00001000
00000001
00100010
,
00000000
00100010
00010001
00000000
10001000
00000000
01000100
00000000
,
00010001
00010001
00000000
10011001
,
10000100
00000010
10001000
00000000
,
10000001
00000010
10000100
00000000
,
10001000
00000001
00000100
00000000
10000001
00001000
00000100
00000000
,
10000010
00000001
00001000
00000100
10000010
00000001
00001000
00000100
,
01000001
00100000
10000001
00000000
,
00010001
00100000
01000001
00000000
,
10000001
00010000
01000000
00000000
00010001
10000000
01000000
00000000
,
00100001
00010000
10000000
01000000
00100001
00010000
10000000
01000000
,
10011001
10011001
01000100
00000000
,
10011001
10011001
01000100
00000000
,
10000001
00000000
10000000
00000000
00100001
10000000
01000000
00000000
,
00100001
01000000
10000000
01000000
00100001
00010000
10000000
00000000
,
10011001
10011001
01000100
00000000
,
10011001
10011001
01000100
00000000
,
10001000
00000000
00001000
00000000
10000010
00001000
00000100
00000000
,
10000010
00000100
00001000
00000100
10000010
00000001
00001000
00000000
,
10000001
00000000
10000000
00000000
10000001
00010000
10000000
00000000
,
01000001
00100000
00010000
01000000
00100001
00000000
10010000
00000000
,
10000001
00010000
01000000
00000000
00010001
10000000
01000000
00000000
,
00100001
00010000
10000000
01000000
00100001
00010000
11000000
00000000
,
10000001
00000000
00000001
00000000
10000001
00001000
00000001
00000000
,
10000010
00000100
00001000
00000010
10000100
00000000
00001001
00000000
,
10000001
00001000
00000010
00000000
10001000
00000001
00000010
00000000
,
10000100
00001000
00000001
00000010
10000100
00001000
00000011
00000000
,
10000001
00000000
00010000
00000000
01000001
01000000
01000000
00000000
,
10001000
00000000
00000001
00000000
10000100
00000100
00000100
00000000
,
00100001
00000000
10000000
00000000
00010001
00010000
00010000
00000000
,
10000010
00000000
00001000
00000000
10000001
00000001
00000001
00000000
,
10001000
00000100
00000010
00000001
10000100
00000010
00001000
00000100
,
10001000
01000000
00100000
00010000
01000001
00100000
10000000
01000000
,
10001000
00010001
00010001
00010001
01000100
00100010
01000100
00010001
,
10001000
00010001
00010001
00010001
01000100
00100010
01000100
00100010
,
10011001
00000000
00000000
00000000
;

//---------------dance-solo - ----------------
#NOTEDATA:;
#CHARTNAME:;
#STEPSTYPE:dance-solo;
#DESCRIPTION:;
#CHARTSTYLE:;
#DIFFICULTY:Easy;
#METER:3;
#RADARVALUES:0.234822,0.303939,0.134395,0.000000,0.000000,159.000000,146.000000,13.000000,0.000000,0.000000,0.000000,0.000000,0.000000,0.000000,0.234822,0.303939,0.134395,0.000000,0.000000,159.000000,146.000000,13.000000,0.000000,0.000000,0.000000,0.000000,0.000000,0.000000;
#CREDIT:;
#DISPLAYBPM:125.000000;
#NOTES:
000000
000000
000000
000000
,
000000
000000
000000
000000
,
000000
000000
000000
000000
,
100000
000000
000000
000000
,
001000
000000
000000
000100
000000
000000
001000
000000
,
100000
000000
000000
000000
,
000001
000000
000000
000100
000000
000000
000010
000000
,
100000
000000
000000
000000
,
001000
000000
000000
010000
000000
000000
001000
000000
,
000000
000000
000000
000000
,
100000
100000
100000
100000
,
000001
000000
000000
000000
,
001000
001000
001000
001000
,
000010
000000
000000
000000
,
100000
100000
000000
100001
,
100000
000001
000100
001000
,
010000
010000
000000
100001
,
000010
010000
000001
100000
,
000001
000001
000001
000001
,
100000
000001
000000
001000
,
010000
100000
000000
001000
,
000010
010000
000001
100000
,
000001
000001
000001
000001
,
100000
000001
000000
001000
,
010000
100000
000000
001000
,
100001
001000
000001
100001
,
100000
000100
100000
100001
,
010000
010000
001000
001000
,
000010
000010
001000
001000
,
100001
001000
000001
100001
,
100000
000100
100000
100001
,
010000
010000
001000
001000
,
000010
000010
001000
001000
,
100000
000000
000000
000000
,
000001
000001
000001
000001
,
010000
001000
000010
001000
,
100000
000001
100000
000001
,
100000
000000
000000
000000
,
000001
000001
000001
000001
,
010000
001000
000010
001000
,
100000
000001
100000
000001
,
010000
000000
000001
100001
,
000010
000000
100000
100001
,
010000
000010
100000
100001
,
000010
010000
000001
100001
,
010000
000000
000000
000000
,
000010
010000
000001
100000
,
010000
001000
000010
001000
,
100000
000001
100000
000001
,
100001
000000
000000
000000
;

//---------------dance-solo - ----------------
#NOTEDATA:;
#CHARTNAME:;
#STEPSTYPE:dance-solo;
#DESCRIPTION:;
#CHARTSTYLE:;
#DIFFICULTY:Medium;
#METER:5;
#RADARVALUES:0.336725,0.430580,0.062028,0.000000,0.000000,228.000000,222.000000,6.000000,0.000000,0.000000,0.000000,0.000000,0.000000,0.000000,0.336725,0.430580,0.062028,0.000000,0.000000,228.000000,222.000000,6.000000,0.000000,0.000000,0.000000,0.000000,0.000000,0.000000;
#CREDIT:;
#DISPLAYBPM:125.000000;
#NOTES:
000000
000000
000000
000000
,
000000
000000
000000
000000
,
000000
000000
000000
000000
,
010000
010000
100000
100000
,
000010
000010
000001
000001
,
100000
000001
001000
010000
,
001000
000001
100000
000010
,
100000
000001
001000
010000
,
001000
000001
100000
000010
,
100000
000000
100000
000000
000001
000010
000001
000000
,
001000
000000
001000
000000
000010
010000
000010
100000
,
000001
000000
000001
000000
100000
010000
100000
000000
,
001000
000000
001000
000000
010000
000010
010000
000001
,
100000
000000
100000
000000
000001
000010
000001
000000
,
001000
000000
001000
000000
000010
010000
000010
100000
,
000001
000000
000001
000000
100000
010000
100000
000000
,
001000
000000
001000
000000
010000
000010
010010
000000
,
100000
010000
100000
000000
000000
000000
000001
000000
,
001000
100000
001000
000000
000000
000001
000001
000000
,
100000
010000
100000
000000
000000
000000
000001
000000
,
001000
100000
001000
000000
000000
000001
000001
000000
,
100000
000100
001000
000000
000000
000000
000010
000000
,
100000
001000
000100
000000
000000
000001
000010
000000
,
001000
100000
000001
000000
000000
000000
010000
000000
,
001000
100000
000001
000000
000000
010000
000010
000000
,
100000
010000
100000
010000
100000
000100
100000
000100
,
001000
000001
001000
000001
001000
000010
001000
000010
,
100000
001000
000100
000001
,
100000
000001
001000
000100
,
100000
010000
100000
010000
100000
000100
100000
000100
,
001000
000001
001000
000001
001000
000010
001000
000010
,
100000
001000
000100
000001
,
100000
000001
001000
000100
,
100000
000001
001000
010000
,
001000
000001
100000
000010
,
100000
000001
001000
010000
,
001000
000001
100000
000010
,
100000
000000
000001
000000
001000
000010
001000
000000
,
000001
000000
100000
000000
000001
010000
001000
000000
,
100000
000000
100000
000000
001000
010000
000001
000000
,
001000
000010
001000
000000
000001
000000
000000
000000
,
100000
000000
000100
000100
000000
000000
100001
000000
,
000010
000000
100000
100000
000000
000000
001100
000000
,
010000
000000
000001
000001
000000
000000
000011
000000
,
001000
000000
010000
010000
000000
000000
110000
000000
,
100000
000000
000001
000000
001000
000010
001000
000000
,
000001
000000
100000
000000
000001
010000
001000
000000
,
100000
000000
100000
000000
001000
010000
000001
000000
,
001000
000010
001000
000000
000001
000000
000000
000000
,
101000
000000
000000
000000
;

//---------------dance-solo - ----------------
#NOTEDATA:;
#CHARTNAME:;
#STEPSTYPE:dance-solo;
#DESCRIPTION:;
#CHARTSTYLE:;
#DIFFICULTY:Hard;
#METER:6;
#RADARVALUES:0.388415,0.405252,0.289466,0.000000,0.010338,263.000000,235.000000,28.000000,0.000000,0.000000,0.000000,0.000000,0.000000,0.000000,0.388415,0.405252,0.289466,0.000000,0.010338,263.000000,235.000000,28.000000,0.000000,0.000000,0.000000,0.000000,0.000000,0.000000;
#CREDIT:;
#DISPLAYBPM:125.000000;
#NOTES:
000000
000000
000000
000000
,
000000
000000
000000
000000
,
000000
000000
000000
000000
,
100000
001000
000100
000001
,
010000
000001
000001
100000
,
001000
000000
000100
000000
000010
000000
100000
000001
,
010000
000001
000001
100000
,
001000
000000
000100
000000
000010
000000
100000
000001
,
000000
000000
000000
000000
000000
000000
000000
000000
000000
000000
000000
000000
100000
010000
100000
010000
,
100000
000000
000000
000000
000001
000000
000001
001000
,
000010
000000
100000
000000
000001
001000
000001
000100
,
000001
000000
100000
000000
000100
100000
001000
000100
,
000010
000000
010000
000000
001000
000001
001000
100000
,
001000
000000
000010
000000
000001
000000
100000
001000
,
010000
000000
000001
000000
100000
001000
100000
000100
,
100000
000000
000001
000000
000100
000001
001000
000100
,
010000
000000
000010
000000
001000
100000
100000
100000
,
000000
100001
100001
100001
,
001000
000000
000010
000000
010000
000000
001000
000001
,
001000
000000
100000
100000
001000
000000
000010
000001
,
100000
010000
000000
000000
000000
100000
000001
100000
,
000001
001100
001100
001100
,
100000
000000
000010
000000
010000
000000
001000
000001
,
001000
000000
100000
100000
001000
000000
000010
000001
,
001000
010000
000000
000000
000000
000000
100000
001000
,
100000
000001
001000
000000
000011
000000
000011
000000
,
001000
010000
000100
000000
110000
000000
110000
000000
,
100000
000010
100000
000001
001000
000010
001000
000001
,
100000
100001
000100
001100
,
100000
000001
001000
000000
000110
000000
000110
000000
,
001000
010000
000100
000000
010100
000000
010100
000000
,
100000
000010
100000
000001
001000
000010
001000
000001
,
100000
100001
000100
001100
,
000000
100001
100001
100001
,
001000
000000
000010
000000
010000
000000
001000
000001
,
001000
000000
100000
100000
001000
000000
000010
000001
,
100000
010000
000000
000000
000000
100000
000001
100000
,
000001
001100
001100
001100
,
100000
000000
000010
000000
010000
000000
001000
000001
,
001000
000000
100000
100000
001000
000000
000010
000001
,
001000
010000
000000
000000
000001
000000
000001
000000
,
010000
010000
010000
000000
001000
100000
000001
000000
,
000010
000010
000010
000000
000001
001000
100000
000000
,
001000
001000
001000
000000
000100
100000
000001
000000
,
100000
100000
100000
000000
000010
001000
000001
000000
,
000000
100001
100001
100001
,
001000
000000
000010
000000
010000
000000
001000
000001
,
001000
000000
100000
100000
001000
000000
000010
000001
,
100000
010000
000000
000000
000000
100000
000001
100000
,
100001
000000
000000
000000
;

//---------------dance-single - ----------------
#NOTEDATA:;
#CHARTNAME:;
#STEPSTYPE:dance-single;
#DESCRIPTION:;
#CHARTSTYLE:;
#DIFFICULTY:Challenge;
#METER:14;
#RADARVALUES:0.666066,0.683862,0.175747,0.082704,0.785692,451.000000,434.000000,17.000000,8.000000,0.000000,0.000000,0.000000,0.000000,0.000000,0.666066,0.683862,0.175747,0.082704,0.785692,451.000000,434.000000,17.000000,8.000000,0.000000,0.000000,0.000000,0.000000,0.000000;
#CREDIT:;
#DISPLAYBPM:125.000000;
#NOTES:
// measure 0
0000
0000
0000
0000
,  // measure 1
0000
0000
0000
0000
,  // measure 2
0000
0000
0000
0000
,  // measure 3
0010
0001
0010
0000
1000
0100
1000
0001
,  // measure 4
0100
0000
0010
0000
0100
0000
0000
0000
0010
1000
0010
0000
0100
0000
0001
0000
,  // measure 5
2000
0000
0000
0000
0010
0000
0000
0000
3001
1000
0100
0000
1000
0000
0001
0100
,  // measure 6
0020
0000
0000
0000
1000
0000
0000
0000
0130
0001
0010
0000
0001
0000
0010
0200
,  // measure 7
1000
0000
0000
0000
0010
0000
0000
0000
1300
0010
0100
0000
0001
0000
0010
0001
,  // measure 8
2000
0000
0000
0000
0000
0000
0100
0000
0000
0000
0000
0000
3010
1000
0001
1000
,  // measure 9
0100
1000
0100
0000
0010
0100
0010
0000
0001
0000
0010
0000
0001
0000
1000
0000
,  // measure 10
0010
0000
0100
0000
0001
0000
1000
0000
0100
0000
0010
0001
0000
0010
0001
0010
,  // measure 11
0001
0000
0100
0000
0010
0000
1000
0000
0100
0000
0010
0100
0000
0100
1000
0100
,  // measure 12
1000
0100
0000
0100
1000
0100
0000
0100
1000
0100
0000
0100
1000
0100
0010
0001
,  // measure 13
1000
0000
0000
0000
1100
0000
0000
0000
1000
0000
0010
0000
1000
0000
0001
1000
,  // measure 14
0100
0000
1000
0000
0010
0000
0100
0000
0001
0000
0010
0001
0000
1000
0100
0010
,  // measure 15
0100
0000
1000
0000
0010
0000
0100
0000
0001
0000
0010
0001
0000
1000
0100
0010
,  // measure 16
0002
0000
0000
0000
0000
1000
1003
0001
,  // measure 17
0100
0000
0000
0000
0101
0000
0000
0000
1000
0010
0000
1000
0010
0000
1000
0000
,  // measure 18
0001
0000
0000
0011
0000
0000
0010
0000
0001
0000
1000
0100
0000
1000
0100
0000
,  // measure 19
1000
0100
0010
0100
1000
0001
0100
0010
,  // measure 20
0100
0000
0110
0000
1010
0000
0101
0001
,  // measure 21
0010
0001
0010
0000
1000
0100
1000
0000
0001
0000
1000
0010
0000
0100
0001
0010
,  // measure 22
0001
0000
0010
0000
0001
0000
0100
0000
0010
0000
1000
0010
0000
1000
0010
0000
,  // measure 23
1000
0010
1000
0000
0001
0100
0001
0000
1000
0000
0100
0010
0000
0100
0010
0000
,  // measure 24
0001
0010
0000
0001
0010
0001
0000
0010
0001
0010
0000
0001
0010
0100
1000
0010
,  // measure 25
0100
0000
0000
0000
0101
0000
0000
0000
1010
0000
0010
1000
0000
0001
0100
0000
,  // measure 26
0001
0000
0011
0000
0100
0000
1100
0000
1000
0000
0001
0100
0000
0010
1000
0010
,  // measure 27
0100
0000
0001
0000
1000
0000
0100
0000
0010
0000
0001
0010
0000
0001
0010
0000
,  // measure 28
0100
1000
0100
0000
0001
0100
0001
0000
1000
0010
0000
1000
0010
1000
0000
1000
,  // measure 29
0001
0000
0000
0001
0100
0000
1000
0000
1100
0000
0000
1000
0100
0000
0001
0000
,  // measure 30
0011
0000
0000
0010
0001
0000
1000
0000
1010
0000
0000
0010
1000
0000
0001
0000
,  // measure 31
1001
0000
0000
1000
0010
0000
0100
0000
0001
0010
0001
1000
0010
0100
0000
0100
,  // measure 32
0010
0100
0000
0100
1000
0100
0000
0100
0010
0100
0000
0100
0001
0100
0010
1000
,  // measure 33
0200
0000
0000
0000
0010
0000
0010
0000
1000
0000
0000
1300
0001
0000
1000
0100
,  // measure 34
0010
0000
0001
0000
1000
0000
0001
0000
0100
0000
0001
0010
0000
0001
0010
0000
,  // measure 35
0100
1000
0010
0000
0010
0100
0001
0000
1001
0000
0001
0010
0000
0100
1000
0100
,  // measure 36
1000
0100
0000
0100
1000
0100
0000
0100
0010
0100
0000
0100
1000
0100
0010
0100
,  // measure 37
2000
0000
0000
0000
0001
0000
0000
0000
0010
0000
0000
3010
1000
0000
0001
0100
,  // measure 38
0010
0000
1000
0000
0001
0000
1000
0000
0100
0000
0010
0001
0000
0010
0001
0000
,  // measure 39
1000
0100
0010
0000
0010
0100
1000
0000
1001
0000
1000
0010
0000
0100
0001
0000
,  // measure 40
0001
0100
0000
0001
0100
0010
0000
0010
0100
0001
0000
0001
0100
0010
0100
0001
,  // measure 41
0020
0000
0000
0000
0100
0000
0000
0000
0001
0000
0000
0031
0100
0000
0001
0000
,  // measure 42
1000
0010
1000
0000
0001
0100
0001
0000
1000
0000
0010
0100
0000
0001
1000
0100
,  // measure 43
0010
0000
0001
0000
0100
0000
0010
0000
1000
0000
0010
1000
0000
0001
0100
0000
,  // measure 44
0001
1000
0000
1000
0010
1000
0000
1000
0100
0010
0000
0100
0010
0001
0010
0100
,  // measure 45
1000
0000
0000
0000
1100
0000
0000
0000
1000
0010
0000
1000
0010
0000
1000
0000
,  // measure 46
0001
0010
0100
0000
0010
0100
1000
0000
0010
1000
0000
0001
0100
0000
0001
0000
,  // measure 47
1000
0010
0100
0000
0010
0000
0100
0000
1000
0000
0001
0100
0000
0010
0100
0000
,  // measure 48
1000
0100
0000
0100
0010
0100
0000
0010
0100
0010
0000
0010
0001
1000
0100
0010
,  // measure 49
0001
0000
0000
0000
;
