#TITLE:more more more;
#SUBTITLE:;
#ARTIST:capsule;
#TITLETRANSLIT:;
#SUBTITLETRANSLIT:;
#ARTISTTRANSLIT:;
#GENRE:;
#CREDIT:;
#BANNER:more more more.png;
#BACKGROUND:more more more-bg.png;
#LYRICSPATH:;
#CDTITLE:;
#MUSIC:more more more.ogg;
#OFFSET:0.000000;
#SAMPLESTART:31.280001;
#SAMPLELENGTH:15.000000;
#SELECTABLE:YES;
#BPMS:0.000000=135.000000
;
#STOPS:
;
#BGCHANGES:;
#KEYSOUNDS:;
#ATTACKS:;

//---------------dance-single - ----------------
#NOTES:
     dance-single:
     :
     Beginner:
     1:
     0.086938,0.160440,0.009221,0.000000,0.000000,66.000000,65.000000,1.000000,0.000000,0.000000,0.000000,0.086938,0.160440,0.009221,0.000000,0.000000,66.000000,65.000000,1.000000,0.000000,0.000000,0.000000:
0000
0000
0000
0000
,
0000
0000
0000
0000
,
0000
0000
0000
0000
,
0000
0000
0000
0000
,
0000
0000
0000
0000
,
0000
0000
0000
0000
,
0001
0000
0000
0000
,
1000
0000
0000
0000
,
0001
0000
0000
0000
,
1000
0000
0000
0000
,
0010
0000
0000
0000
,
0000
0000
0000
0000
,
0010
0000
0000
0000
,
0000
0000
0000
0000
,
0001
0000
0000
0000
,
1000
0000
0000
0000
,
0010
0000
0000
0000
,
0100
0000
0000
0000
,
0001
0000
0001
0000
,
0001
0000
0000
0000
,
1000
0000
1000
0000
,
1000
0000
0000
0000
,
0001
0000
0001
0000
,
0001
0000
0000
0000
,
1000
0000
1000
0000
,
1000
0000
0000
0000
,
0100
0000
0000
0000
,
0000
0000
0000
0000
,
0010
0000
0000
0000
,
0000
0000
0000
0000
,
1000
0000
0000
0000
,
0000
0000
0000
0000
,
0001
0000
0000
0000
,
0000
0000
0000
0000
,
1000
0000
0000
0000
,
0100
0000
0000
0000
,
0001
0000
0000
0000
,
0100
0000
0000
0000
,
0100
0000
0000
0000
,
0010
0000
0000
0000
,
0000
0000
0000
0000
,
0000
0000
0000
0000
,
0001
0000
0001
0000
,
0001
0000
0001
0000
,
1000
0000
1000
0000
,
1000
0000
1000
0000
,
0001
0000
0001
0000
,
0001
0000
0001
0000
,
1000
0000
1000
0000
,
1000
0000
1000
0000
,
0001
0000
0001
0000
,
0100
0000
0100
0000
,
1000
0000
1000
0000
,
0100
0000
0100
0000
,
0001
0000
0001
0000
,
0100
0000
0100
0000
,
1000
0000
1000
0000
,
1000
0000
0001
0000
,
1001
0000
0000
0000
,
0000
0000
0000
0000
;

//---------------dance-single - ----------------
#NOTES:
     dance-single:
     :
     Easy:
     3:
     0.147531,0.217608,0.009221,0.221296,0.000000,112.000000,111.000000,1.000000,24.000000,0.000000,0.000000,0.147531,0.217608,0.009221,0.221296,0.000000,112.000000,111.000000,1.000000,24.000000,0.000000,0.000000:
0000
0000
0000
0000
,
0000
0000
0000
0000
,
0000
0000
0000
0000
,
0000
0000
0000
0000
,
0000
0000
0000
0000
,
0000
0000
0000
0000
,
1000
0000
0100
0000
,
0001
0000
0100
0000
,
1000
0000
0100
0000
,
0001
0000
0100
0000
,
2000
3000
0200
0300
,
0020
0030
0002
0003
,
2000
3000
0200
0300
,
0020
0030
0002
0003
,
2000
0000
0000
3000
,
0020
0000
0000
0030
,
0200
0000
0000
0300
,
0002
0000
0003
0000
,
1000
1000
1000
0000
,
0100
0000
0010
0000
,
0001
0001
0001
0000
,
0010
0000
0100
0000
,
1000
1000
1000
0000
,
0100
0000
0010
0000
,
0001
0001
0001
0000
,
0100
0000
0010
0000
,
0002
0000
0000
0003
,
1000
0000
0001
0000
,
0020
0000
0000
0030
,
0100
0100
0100
0000
,
2000
0000
0000
3000
,
0001
0000
1000
0000
,
0020
0000
0000
0030
,
0100
0000
0000
0000
,
1000
0000
0100
0000
,
0001
0000
0100
0000
,
0020
0030
0100
0000
,
1000
0000
0001
0001
,
0100
0000
1000
1000
,
0100
0000
0001
0002
,
0000
0000
0000
0003
,
1000
0000
0000
0000
,
0001
0001
0001
0000
,
0100
0000
0010
0000
,
1000
1000
1000
0000
,
0010
0000
0100
0100
,
0001
0001
0001
0000
,
0100
0000
0010
0000
,
1000
1000
1000
0000
,
0100
0000
0000
0000
,
0010
0010
0002
0003
,
1000
0000
0001
0000
,
0100
0100
2000
3000
,
0001
0100
1000
0000
,
0010
0010
2000
3000
,
0100
0000
0010
0000
,
0100
0100
0002
0003
,
1000
0000
1000
0001
,
2002
0000
0000
0000
,
3003
0000
0000
0000
,
0000
0000
0000
0000
;

//---------------dance-single - ----------------
#NOTES:
     dance-single:
     :
     Medium:
     7:
     0.270034,0.353613,0.295061,0.202855,0.018441,205.000000,173.000000,32.000000,22.000000,0.000000,0.000000,0.270034,0.353613,0.295061,0.202855,0.018441,205.000000,173.000000,32.000000,22.000000,0.000000,0.000000:
0000
0000
0000
0000
,
0000
0000
0000
0000
,
0000
0000
0000
0000
,
0000
0000
0000
0000
,
0000
0000
0000
0000
,
0000
0000
0000
0000
,
0100
0001
1000
0000
,
0100
1000
0001
0000
,
0100
0010
1000
0000
,
0100
0010
0001
0000
,
2000
0000
3200
0000
,
0320
0000
0032
0000
,
2003
0000
3200
0000
,
0320
0000
0032
0000
,
2003
0000
0000
0000
,
3020
0000
0000
0000
,
0230
0000
0000
0000
,
0302
0000
1003
0000
,
1100
1100
1100
0000
,
0100
0001
0010
0001
,
0101
0101
0101
0000
,
0010
0000
1000
0000
0001
1000
0001
0000
,
0011
0011
0011
0000
,
0100
1000
0010
1000
,
1010
1010
1010
0000
,
1002
0000
0100
0103
,
0020
1000
0100
1000
,
0100
0001
0100
1000
,
0230
0010
0301
0000
,
0001
0000
1000
0000
,
0002
0100
1000
0100
,
1000
0010
1000
0100
,
2003
0010
3001
0000
,
0110
0000
0000
0000
,
1000
0001
0100
0001
,
0010
1000
0001
0010
,
0100
0001
0010
0000
1001
0000
0000
0000
,
1000
0001
1000
0000
0001
1000
0001
0000
,
0100
0010
0100
0000
1000
0000
0001
0000
,
0010
0100
0010
0000
2000
0000
0002
0000
,
0000
0000
0000
3003
,
0010
0100
1001
0000
,
1010
1010
1001
0000
,
0001
0100
0010
0000
1000
0000
0001
0000
,
0101
0101
1001
0000
,
1000
0000
0001
0000
1000
0001
1000
0000
,
0110
0110
1001
0000
,
1000
0000
0001
0000
0100
0010
0100
0000
,
1001
0000
1001
0000
1001
0000
0010
0200
,
0000
0000
0000
0300
,
0001
0000
0000
0001
0000
0000
0001
0000
0000
0000
0000
0000
1000
0000
0000
0000
,
0100
1001
0010
0001
,
1000
0000
0000
1000
0000
0000
1000
0000
0000
0000
0000
0000
0001
0000
0000
0000
,
0100
0000
0010
0100
0000
0001
1000
0000
,
0001
0000
0000
0001
0000
0000
0001
0000
0000
0000
0000
0000
1000
0000
0000
0000
,
0100
1001
1000
0010
,
1000
0000
0000
1000
0000
0000
1000
0000
0000
0000
0000
0000
0010
0000
0100
0000
,
0000
0001
0100
0000
0010
0000
0101
0000
,
2002
0000
0000
0000
,
3003
0000
0000
0000
,
0000
0000
0000
0000
;

//---------------dance-single - ----------------
#NOTES:
     dance-single:
     :
     Hard:
     10:
     0.404392,0.489618,0.359606,0.258179,0.101427,307.000000,268.000000,39.000000,28.000000,0.000000,0.000000,0.404392,0.489618,0.359606,0.258179,0.101427,307.000000,268.000000,39.000000,28.000000,0.000000,0.000000:
0000
0000
0000
0000
,
0000
0000
0000
0000
,
0000
0000
0000
0000
,
0000
0000
0000
0000
,
0000
0000
0000
0000
,
0000
0000
0000
0000
,
1000
0000
0100
0000
0001
1000
0100
0000
,
1000
0000
0001
0000
0100
0100
0010
0000
,
0001
0000
0100
0000
1000
0100
0010
0000
,
0001
0000
1000
0000
0010
1000
0001
0000
,
2000
0000
0000
0001
0000
0000
0001
0000
3200
0000
0000
0010
0000
0000
0010
0000
,
2300
0000
3002
0000
,
0023
0000
0000
0100
0000
0000
0100
0000
0032
0000
0000
1000
0000
0000
1000
0000
,
0203
0000
0320
0000
,
2030
0001
0000
0001
0000
0001
0000
0001
,
3200
0001
0000
0001
0000
0001
0000
0001
,
0320
0001
0000
0001
0000
0001
0000
0031
,
1000
0100
0010
0001
1001
0000
0000
0000
,
1000
0000
0000
1000
0000
0000
1001
0000
0000
0000
0010
0000
0100
0000
0000
0000
,
0002
0000
1000
0000
0103
0010
1000
0000
,
0001
0000
0000
0001
0000
0000
1001
0000
0000
0000
0100
0000
0010
0000
0000
0000
,
1000
0001
0100
0001
1000
0010
0100
0000
,
0010
0000
0000
0010
0000
0000
1010
0000
0000
0000
0100
0000
0001
0000
0000
0000
,
2000
0000
3010
0100
0100
0000
1001
0000
,
0100
0000
0000
0100
0000
0000
0101
0000
0000
0000
1000
0000
0010
0000
0100
0000
,
0000
0001
0001
0100
0010
0000
1010
0000
,
0102
0010
0100
2003
,
3010
0100
0001
1000
0010
0100
0001
0000
,
2010
0001
0100
3020
,
0130
0001
1000
0010
0100
0000
0110
0000
,
0021
1000
0001
0230
,
1300
0010
0100
0001
0010
1000
0010
0000
,
1200
0000
0000
0000
0001
0000
0000
0000
1000
0000
0000
0000
0310
0000
0001
1000
,
0000
0000
0000
0000
1001
0100
0010
0000
,
0100
0001
0010
0000
2000
0000
0001
0000
,
3010
0100
0001
0000
0200
0000
1000
0000
,
0301
0000
1001
0000
0010
0100
0110
0000
,
0001
0100
0001
0000
1000
0100
1000
0100
,
0001
0100
0001
0000
1000
0000
0001
0000
,
0100
0010
0100
0000
0002
0000
2000
0000
,
0000
0000
0000
3000
,
1003
0100
0001
0000
1000
0001
1001
0000
,
0001
0000
0000
0001
0000
0000
1001
0000
0000
0000
0100
0000
0010
0000
0000
0000
,
2000
0000
0001
0000
3010
0100
0001
0000
,
1000
0000
0000
1000
0000
0000
1001
0000
0000
0000
0010
0000
0100
0000
0000
0000
,
0001
1000
0010
1000
0001
0100
0100
0010
,
0100
0000
0000
0001
0000
0000
0101
0000
0000
0000
0010
0000
1000
0000
0000
0000
,
0002
0000
0100
0000
0013
0100
1000
0000
,
0010
0000
0000
1000
0000
0000
1010
0000
0000
0000
0001
0000
0100
0000
0010
0100
,
0000
0001
1000
0000
0100
0000
0110
0000
,
1000
0000
0000
1100
0000
0000
1001
0000
0001
0000
0000
0101
0000
0000
1001
0000
,
0000
0010
0100
0000
0001
0100
1000
0000
,
0010
0000
0000
0110
0000
0000
1010
0000
0100
0000
0000
1100
0000
0000
0110
0000
,
0000
0001
1000
0001
0100
0010
0100
0000
,
0001
0000
0000
1001
0000
0000
0011
0000
0100
0000
0000
1100
0000
0000
1001
0000
,
0000
0100
0010
0100
0000
0001
1000
0000
,
0010
0000
0000
1001
0000
0000
0101
0000
0010
0000
0000
1001
0000
0000
1100
0000
,
0000
0010
0010
0010
0100
0000
0110
0000
,
2002
0000
0000
0000
,
3003
0000
0000
0000
,
0000
0000
0000
0000
;

//---------------dance-double - ----------------
#NOTES:
     dance-double:
     :
     Easy:
     3:
     0.152800,0.217608,0.027662,0.073765,0.000000,116.000000,113.000000,3.000000,8.000000,0.000000,0.000000,0.152800,0.217608,0.027662,0.073765,0.000000,116.000000,113.000000,3.000000,8.000000,0.000000,0.000000:
00000000
00000000
00000000
00000000
,
00000000
00000000
00000000
00000000
,
00000000
00000000
00000000
00000000
,
00000000
00000000
00000000
00000000
,
00000000
00000000
00000000
00000000
,
00000000
00000000
00000000
00000000
,
00010000
00000000
00000000
00000000
,
00001000
00000000
00000000
00000000
,
00000100
00000000
00000000
00000000
,
00000001
00000000
00000000
00000000
,
00000010
00000000
00000010
00000000
,
00000100
00000000
00000100
00000000
,
00001000
00000000
00001000
00000000
,
00010000
00000000
00010000
00000000
,
02000000
00000000
00000000
03000000
,
00200000
00000000
00000000
00300000
,
20000000
00000000
00000000
30000000
,
00020000
00000000
00030000
00000000
,
01000000
01000000
01000000
00000000
,
00010000
00000000
00001000
00000000
,
00010000
00010000
00010000
00000000
,
00000100
00000000
00000010
00000000
,
00000001
00000001
00000001
00000000
,
00000100
00000000
00000010
00000000
,
00001000
00001000
00001000
00000000
,
00011000
00000000
00000000
00000000
,
00010000
00000000
00001000
00000000
,
00010000
00000000
01000000
00000000
,
00100000
00000000
00010000
00000000
,
01000000
00000000
00010000
00000000
,
00001000
00000000
00010000
00000000
,
00001000
00000000
00000100
00000000
,
00000010
00000000
00001000
00000000
,
00000001
00000000
00000000
00000000
,
00001000
00010000
00001000
00000000
,
01000000
00000000
00100000
00000000
,
20000000
00000000
30010000
00000000
,
01000000
00000000
00010000
00010000
,
00100000
00000000
00001000
00010000
,
00000100
00000000
00001000
00000002
,
00000000
00000000
00000000
00000000
,
00000003
00000000
00000000
00000000
,
00000100
00000100
00000100
00000000
,
00001000
00010000
00001000
00000000
,
00001000
00001000
00001000
00000000
,
01000000
00010000
00100000
00000000
,
10000000
10000000
10000000
00000000
,
01000000
10000000
00100000
00000000
,
00010000
00010000
00010000
00000000
,
00011000
00000000
00000000
00000000
,
00001000
00010000
00001000
00010000
,
00001000
00000000
00000010
00000000
,
00000001
00000100
00000001
00000100
,
00000001
00000000
00001000
00000000
,
00000100
00010000
00000100
00010000
,
00000100
00000000
00001000
00000000
,
00100000
01000000
00100000
01000000
,
00100000
00000000
10000000
00000000
,
20020000
00000000
00000000
00000000
,
30030000
00000000
00000000
00000000
,
00000000
00000000
00000000
00000000
;

//---------------dance-double - ----------------
#NOTES:
     dance-double:
     :
     Medium:
     8:
     0.255544,0.326412,0.165972,0.285841,0.018441,194.000000,176.000000,18.000000,31.000000,0.000000,0.000000,0.255544,0.326412,0.165972,0.285841,0.018441,194.000000,176.000000,18.000000,31.000000,0.000000,0.000000:
00000000
00000000
00000000
00000000
,
00000000
00000000
00000000
00000000
,
00000000
00000000
00000000
00000000
,
00000000
00000000
00000000
00000000
,
00000000
00000000
00000000
00000000
,
00000000
00000000
00000000
00000000
,
01000000
10000000
01000000
00000000
,
00001000
00010000
00001000
00000000
,
00000010
00000001
00000010
00000000
,
00010000
00001000
00010000
00000000
,
20000000
00000000
32000000
00000000
,
03200000
00000000
00320000
00000000
,
00032000
00000000
00003200
00000000
,
00000320
00000000
00000032
00000000
,
00002003
00000000
00000000
00000000
,
00203000
00000000
00000000
00000000
,
00320000
00000000
00000000
00000000
,
00002000
00000000
00033000
00000000
,
00011000
00010000
01000000
10000000
,
00100000
01000000
00100000
00000000
00010000
00000000
00001000
00000000
,
00011000
00001000
00000100
00000001
,
00000010
00000100
00000010
00000000
00001000
00000000
00010000
00000000
,
00012000
00000100
00013000
00100000
,
10000000
01000000
10000000
00000000
00100000
00000000
00010000
00000000
,
00021000
00000000
01000000
00000000
00031000
00000000
00010000
00001000
,
00000100
00000000
00000010
00000010
,
00002001
00010000
00003001
00000000
,
00000010
00000100
00001000
00000000
00010000
00000000
00000000
00000000
,
00021000
10000000
00031000
00000000
,
00001000
00010000
01000000
00000000
00100000
00000000
00000000
00000000
,
10020000
00001000
10030000
00000000
,
00100000
00010000
00001000
00000000
00010000
00000000
00000000
00000000
,
00012000
00000001
00013000
00000000
,
00001001
00000000
00000010
00000010
,
00000001
00000100
00001000
00000000
00010000
00000000
00001000
00000000
,
00000100
00000001
00001000
00010000
,
00012000
00000000
00003000
00000000
01000000
00100000
01000000
00000000
,
01100000
00000000
10000000
10000000
,
10010000
00000000
01000000
00000000
,
00001000
00011000
00002000
00000002
,
00000000
00000000
00000000
00003003
,
00000001
00001000
00010000
00000000
,
00021000
00100000
00031000
00000010
,
00000001
00000010
00000001
00000000
00000100
00000000
00001000
00000000
,
00012000
00000010
00013000
00100000
,
10000000
01000000
10000000
00000000
01000000
00000000
00010000
00000000
,
00021000
00100000
00001000
01030000
,
00001000
00000100
00001000
00010000
,
00012000
00000000
00000010
00000000
00010000
00000000
00003100
00000010
,
00000000
00000000
00001000
00010000
,
00001000
00000000
00000000
00001000
00000000
00000000
00002000
00000000
00000000
00000000
00000000
00000000
00003000
00000000
00000000
00000000
,
00100000
00010000
10000000
01000000
,
00100000
00000000
00000000
00100000
00000000
00000000
00200000
00000000
00000000
00000000
00000000
00000000
00300000
00000000
00000000
00000000
,
00010000
00000000
10000000
00000000
01000000
00010000
00001000
00000000
,
00010000
00000000
00000000
00010000
00000000
00000000
00020000
00000000
00000000
00000000
00000000
00000000
00030000
00000000
00000000
00000000
,
00000010
00001000
00000001
00000100
,
00000010
00000000
00000000
00000010
00000000
00000000
00000020
00000000
00000000
00000000
00000000
00000000
00001030
00000000
00000001
00000000
,
00000000
00000001
00001000
00000000
00000010
00000000
00010000
00000000
,
00022000
00000000
00000000
00000000
,
00033000
00000000
00000000
00000000
,
00000000
00000000
00000000
00000000
;

//---------------dance-double - ----------------
#NOTES:
     dance-double:
     :
     Hard:
     11:
     0.417565,0.489618,0.451813,0.202855,0.115258,317.000000,268.000000,49.000000,22.000000,0.000000,0.000000,0.417565,0.489618,0.451813,0.202855,0.115258,317.000000,268.000000,49.000000,22.000000,0.000000,0.000000:
00000000
00000000
00000000
00000000
,
00000000
00000000
00000000
00000000
,
00000000
00000000
00000000
00000000
,
00000000
00000000
00000000
00000000
,
00000000
00000000
00000000
00000000
,
00000000
00000000
00000000
00000000
,
10010000
00000000
00000000
00100000
00010000
00000000
10000000
00000000
00100000
00000000
00010000
00000000
00000000
00000000
00000000
00000000
,
00011000
00000000
00000000
00000010
00010000
00000000
00001000
00000000
00000100
00000000
00000010
00000000
00000000
00000000
00000000
00000000
,
00000110
00000000
00000000
00000001
00000100
00000000
00000010
00000000
00001000
00000000
00000001
00000000
00000000
00000000
00000000
00000000
,
00001001
00000000
00000000
00000001
00000100
00000000
00001000
00000000
00010000
00000000
00001000
00000000
00011000
00000000
00000000
00000000
,
02000000
00000000
00000000
00100000
00000000
00000000
00100000
00000000
23000000
00000000
00000000
00000000
00000000
00000000
00000000
00000000
,
30200000
00000000
00320000
00000000
,
00032000
00000000
00000000
00010000
00000000
00000000
00010000
00000000
00003200
00000000
00000000
00000000
00000000
00000000
00000000
00000000
,
00000302
00000000
00000023
00000000
,
00000230
00001000
00000000
00010000
00000000
00001000
00000300
00010000
,
00200000
00010000
00000000
00001000
00000000
00010000
00300000
00001000
,
00000020
00001000
00000000
00010000
00000000
00001000
00000030
00010000
,
00002000
00013000
00011000
00000000
,
00100000
00000000
00000000
00100000
00000000
00000000
00110000
00000000
00000000
00000000
01000000
00000000
10000000
00000000
00000000
00000000
,
00100000
00000000
01010000
00000000
10000000
01000000
00010000
00000000
,
01000000
00000000
00000000
01000000
00000000
00000000
11000000
00000000
00000000
00000000
00100000
00000000
00010000
00000000
00000000
00000000
,
01000000
00100000
10000000
01000000
00010000
00001000
00010000
00000000
,
00000100
00000000
00000000
00000100
00000000
00000000
00001100
00000000
00000000
00000000
00000010
00000000
00000001
00000000
00000000
00000000
,
00000100
00000000
00001001
00000000
00000010
00000100
00001000
00000000
,
00000001
00000000
00000000
00000001
00000000
00000000
00000011
00000000
00000000
00000000
00001000
00000000
00000100
00000000
00001000
00000000
,
00000000
00000001
00000100
00000000
00000010
00000000
00000110
00000000
,
00021000
00000000
00100000
00000000
10030000
01000000
00100000
00000000
,
10000000
00010000
01000000
00001000
00010000
00100000
01000000
00000000
,
10020000
00000000
00100000
00000000
00031000
00000100
00000001
00000000
,
00000100
00001000
00000010
00000000
00001010
00000000
00001100
00000000
,
00012000
00000000
00000010
00000000
00003001
00000100
00000010
00000000
,
00000001
00001000
00000100
00010000
00001000
00000010
00000100
00000000
,
00002001
00000000
00000000
00000000
00000010
00000000
00000000
00000000
00013000
00000000
01000000
00000000
10000000
00000000
00000000
10000000
,
00000000
00000000
00000000
00000000
01100000
10000000
00010000
00000000
,
01000000
00000000
01000000
00000000
00010000
00100000
01000000
00000000
,
10000000
00000000
00100000
00000000
00010000
00001000
00000100
00000000
,
00001002
00000000
00000013
00000000
00000100
00000010
00000110
00000000
,
00000001
00000100
00000101
00000000
00000010
00001000
00000100
00010000
,
00001000
00100000
00101000
00000000
00010000
01000000
10000000
01000000
,
00010000
01000000
01010000
00000000
00002000
00000000
00020000
00000000
,
00000000
00000000
00000000
00033000
,
01000000
00100000
00010000
00001000
00000100
00000000
00000110
00000000
,
00000001
00000000
00000000
00000101
00000000
00000000
00001001
00000000
00000000
00000000
00000010
00000000
00000001
00000000
00000000
00000000
,
00000100
00000000
00001010
00000000
00000001
00001000
00000100
00000000
,
00010000
00000000
00000000
00011000
00000000
00000000
00010100
00000000
00000000
00000000
00000010
00000000
00001000
00000000
00000000
00000000
,
00010000
00100000
10000000
00100000
00010000
01000000
00100000
00000000
,
10000000
00000000
00000000
11000000
00000000
00000000
10010000
00000000
00000000
00000000
00100000
00000000
10000000
00000000
00000000
00000000
,
01000000
00000000
00110000
00000000
10000000
00010000
01000000
00000000
,
00001000
00000000
00000000
00011000
00000000
00000000
01001000
00000000
00000000
00000000
00100000
00000000
00001000
00000000
00010000
00002000
,
00000000
00010000
00010000
00000000
00000010
00000000
00013000
00000000
,
00011000
00000000
00000000
00011000
00000000
00000000
00011000
00000000
00001000
00000000
00000000
00000100
00000000
00000000
00000001
00000000
,
00000000
00000010
00000100
00000000
00001000
00000001
00001000
00000000
,
00001001
00000000
00000000
00001001
00000000
00000000
00000101
00000000
00000010
00000000
00000000
00001000
00000000
00000000
00010000
00000000
,
00000000
00001000
00010000
00100000
00010000
00001000
00010000
00000000
,
00011000
00000000
00000000
00011000
00000000
00000000
00011000
00000000
00010000
00000000
00000000
00100000
00000000
00000000
10000000
00000000
,
00000000
01000000
00100000
00000000
10000000
00010000
10000000
00000000
,
10010000
00000000
00000000
10010000
00000000
00000000
11000000
00000000
00100000
00000000
00000000
00001000
00000000
00000000
00010000
00001000
,
00000000
00000000
00000000
00000000
00010000
00001000
00000100
00000000
,
00002002
00000000
00000000
00000000
,
00003003
00000000
00000000
00000000
,
00000000
00000000
00000000
00000000
;

//---------------dance-single - ----------------
#NOTES:
     dance-single:
     :
     Challenge:
     17:
     0.853570,1.006436,0.175193,0.147531,1.350828,648.000000,629.000000,19.000000,16.000000,0.000000,0.000000,0.853570,1.006436,0.175193,0.147531,1.350828,648.000000,629.000000,19.000000,16.000000,0.000000,0.000000:
// measure 0
0000
0000
0000
0000
,  // measure 1
0000
0000
0000
0000
,  // measure 2
0000
0000
0000
0000
,  // measure 3
0000
0000
0000
0000
,  // measure 4
0000
0000
0000
0000
,  // measure 5
0000
0000
0000
0000
,  // measure 6
1000
0000
0010
1000
0000
1100
0000
1001
0000
0001
0100
0000
1100
0000
0000
0000
,  // measure 7
1000
0000
0100
0001
0000
1001
0000
0101
0000
0001
0010
0000
0011
0000
0000
0000
,  // measure 8
0010
0000
1000
0001
0000
1001
0000
0110
0000
0010
0100
0000
0110
0000
0000
0000
,  // measure 9
0010
0000
0001
0010
0000
0110
0000
1100
0000
1000
0100
0000
0010
0001
0100
0010
,  // measure 10
1000
0000
0100
1000
0000
1000
0100
0000
0001
0100
0000
0100
0001
1000
0100
0010
,  // measure 11
0002
0000
0203
0000
,  // measure 12
0310
0000
1000
0010
0000
0010
0001
0000
0001
0100
0000
0100
1000
0001
0100
0010
,  // measure 13
0002
0000
0023
0000
,  // measure 14
0130
0100
0001
1000
0010
0100
0001
1000
0100
0100
1000
0010
0100
0001
1000
0100
,  // measure 15
0010
0010
0001
1000
0010
0100
0001
1000
0010
0010
0001
0100
0010
1000
0001
0010
,  // measure 16
1000
1000
0010
0100
0001
0001
0010
0100
1000
1000
0001
0001
0100
0100
0010
0010
,  // measure 17
1000
0000
0000
0100
0000
0000
0010
0000
0000
0001
0000
0000
1000
0000
0000
0010
0000
0000
0100
0000
0000
0001
0000
0000
1000
0000
0100
0000
0010
0000
0001
0000
0010
0000
0100
0000
1000
0000
0001
0000
0100
0000
0010
0000
1000
0000
0000
0000
,  // measure 18
0100
1000
0000
0010
0100
0000
0001
0010
0000
0100
0010
0000
0001
0010
0100
0010
,  // measure 19
1000
0000
0000
0010
0000
0000
0100
0000
0000
1000
0000
0000
0001
0000
0000
1000
0100
0010
0001
1000
0010
0100
0001
0010
,  // measure 20
0100
0010
0000
0010
0001
0000
0001
0010
0000
0010
1000
0000
0100
1000
0010
0100
,  // measure 21
0001
0000
0000
0020
0000
0000
0230
0000
0000
2300
0000
0000
3002
0000
0000
0103
0001
0010
0100
1000
0010
0100
0000
0000
,  // measure 22
0001
0010
0000
0100
1000
0000
0100
1000
0000
0010
0100
0000
0001
0010
0100
1000
,  // measure 23
0010
0000
0000
1000
0000
0000
0001
0000
0000
0010
0000
0000
0100
0000
0000
1000
0100
0010
0001
0010
0100
1000
0000
0000
,  // measure 24
0010
0001
0010
0001
0000
0000
0010
0001
0010
0001
0000
0000
0010
0001
0010
0001
0100
0000
0000
0000
0010
0000
1000
0000
0001
0000
0100
0000
0010
0000
1000
0000
,  // measure 25
0000
0100
1000
0000
0100
0010
0000
0001
0010
0000
1000
0000
1001
0000
0000
0000
,  // measure 26
1200
0001
1000
0301
,  // measure 27
1000
0100
0100
0001
0100
0100
1000
0100
0100
0001
0100
0100
1000
0100
0100
0000
,  // measure 28
0120
1000
0001
1030
,  // measure 29
0001
0010
0010
1000
0010
0010
0001
0010
0010
1000
0010
0010
0001
0010
0010
0000
,  // measure 30
2010
0100
0001
3100
,  // measure 31
0100
1000
1000
0010
1000
1000
0001
1000
1000
0100
1000
1000
0001
1000
1000
0000
,  // measure 32
1002
0010
1000
0103
,  // measure 33
1000
0001
0001
0010
0001
0001
0100
0001
0001
1000
0001
0001
0100
0001
0001
0000
,  // measure 34
1000
0010
0100
0010
0001
0000
0010
0000
1000
0100
0001
0010
0001
0000
1000
0000
,  // measure 35
0001
0100
0010
1000
0100
0000
0010
0000
1000
0010
0100
0001
0010
0000
1000
0000
,  // measure 36
0100
0000
0000
0001
0000
0000
1000
0000
0000
0010
0000
0000
0001
0000
0000
0100
0000
0000
0010
0000
0000
1000
0000
0000
0001
0000
0010
0000
0001
0000
0010
0000
0000
0100
0000
0000
1000
0000
0100
0000
1000
0000
0100
0000
0000
0000
0000
0000
,  // measure 37
0001
0010
0001
0000
0010
0001
0010
0000
0001
0000
0000
0000
0100
0000
0000
0000
0010
1000
0010
0000
1000
0010
1000
0000
0010
0000
0000
0000
1000
0000
0000
0000
,  // measure 38
0100
0000
0010
0000
0001
0000
0010
0000
0100
0000
1000
0000
0100
0000
0000
0001
0000
0000
1000
0000
0000
0100
0000
0000
0010
0000
0000
1000
0000
0000
0001
0000
0000
0010
0000
0000
0100
0000
0000
0001
0000
0000
1000
0000
0000
0010
0000
0000
,  // measure 39
0100
0000
0010
0000
0100
0000
0010
0000
0100
0000
0010
0000
0001
0000
0000
0100
0000
0000
0010
0000
0000
1000
0000
0000
0001
0000
0000
0100
0000
0000
0010
0000
0000
1000
0000
0000
0001
0000
0000
0010
0000
0000
1000
0000
0000
0001
0000
0000
,  // measure 40
0100
0010
1000
0010
0100
0001
1000
0001
0100
0010
0001
0100
0010
1000
0001
0010
,  // measure 41
1000
0100
1000
0100
0010
0000
0001
0000
0100
0001
0100
0001
0010
0000
0110
0000
,  // measure 42
1000
0100
0000
0001
0100
0000
1000
0100
0000
0001
0100
0000
0010
1000
0001
0010
,  // measure 43
1000
0100
1000
0000
0100
1000
0100
0000
1000
0100
1000
0000
0100
0000
0010
0000
0001
0000
0000
0000
1000
0000
0001
0000
0100
0000
0000
0000
0010
0000
0000
0000
,  // measure 44
0001
0010
0000
1000
0010
0000
0001
0010
0000
1000
0010
0000
0100
0001
1000
0010
,  // measure 45
0100
0010
0100
0000
0010
0100
0010
0000
0100
0010
0100
0000
0010
0000
0100
0000
0001
0000
0000
0000
1000
0000
0010
0000
0001
0000
0000
0000
0100
0000
0000
0000
,  // measure 46
0001
1000
0000
0010
0100
0000
1000
0001
0000
0100
0010
0000
1000
0010
0001
0100
,  // measure 47
1000
0001
1000
0000
0001
1000
0001
0000
1000
0001
1000
0000
0001
0000
0000
0000
0010
0000
0000
0000
1000
0000
0010
0000
0001
0000
0000
0000
0100
0000
0000
0000
,  // measure 48
0100
0010
0000
0001
0010
0000
1000
0010
0000
0100
0001
0000
0010
0001
0100
0010
,  // measure 49
1000
0000
0000
0000
0100
0000
0000
0000
1000
0000
0000
0000
0001
0000
0000
0000
0100
0000
0000
0000
0000
0000
0000
0000
0100
0010
0100
0000
0010
0100
0010
0000
,  // measure 50
0100
0001
0000
1000
0100
0000
0001
0010
0000
1000
0010
0000
0001
0010
0100
1000
,  // measure 51
0010
0100
0001
0000
0001
0100
0010
0000
1000
0100
0010
0000
0001
0000
0000
0000
0100
0000
0000
0000
0010
0000
1000
0000
0001
0000
0000
0000
0100
0000
0000
0000
,  // measure 52
0010
1000
0000
0001
0010
0000
0100
0001
0000
1000
0100
0000
0010
0001
1000
0010
,  // measure 53
0100
0010
0001
0000
0001
0010
0100
0000
1000
0010
0100
0000
0010
0000
0000
0000
0100
0000
0000
0000
0001
0000
0100
0000
0010
0000
0000
0000
1000
0000
0000
0000
,  // measure 54
0001
0010
0000
0010
0100
0000
0100
1000
0000
1000
0010
0000
0010
0001
1000
0010
,  // measure 55
0001
0010
0100
0000
0010
0100
1000
0000
1000
0001
0100
0000
0010
0000
0000
0000
0100
0000
0000
0000
1000
0000
0100
0000
0010
0000
0000
0000
0001
0000
0000
0000
,  // measure 56
1000
0100
0000
0100
0010
0000
0010
0001
0000
0001
0100
0000
0001
0010
2000
0200
,  // measure 57
0000
0000
3300
1100
,  // measure 58
0202
0000
0000
0000
,  // measure 59
0303
0000
0000
0000
;
