#TITLE:exotic ethnic;
#SUBTITLE:;
#ARTIST:RevenG;
#TITLETRANSLIT:;
#SUBTITLETRANSLIT:;
#ARTISTTRANSLIT:;
#GENRE:;
#CREDIT:;
#BANNER:exotic ethnic.png;
#BACKGROUND:exotic ethnic-bg.png;
#LYRICSPATH:;
#CDTITLE:;
#MUSIC:exotic ethnic.ogg;
#OFFSET:0.000000;
#SAMPLESTART:21.480000;
#SAMPLELENGTH:15.000000;
#SELECTABLE:YES;
#DISPLAYBPM:190.000000;
#BPMS:0.000000=190.475998
,4.000000=190.001007
;
#STOPS:
;
#BGCHANGES:;
#KEYSOUNDS:;
#ATTACKS:;

//---------------dance-single - ----------------
#NOTES:
     dance-single:
     :
     Beginner:
     4:
     0.187500,0.300000,0.041667,0.000000,0.000000,126.000000,122.000000,4.000000,0.000000,0.000000,0.000000,0.187500,0.300000,0.041667,0.000000,0.000000,126.000000,122.000000,4.000000,0.000000,0.000000,0.000000:
0000
0000
0000
0000
,
0000
0000
0000
0000
,
0000
0000
0000
0000
,
0000
0000
0000
0000
,
0000
0000
0000
0000
,
0010
0000
0000
0000
,
0001
0000
0000
0000
,
0010
0000
0000
0000
,
0100
0000
0000
0000
,
1000
0000
0010
0000
,
0100
0000
0100
0000
,
0001
0000
0000
0000
,
1000
0000
0000
0000
,
0100
0000
0010
0000
,
0001
0000
0001
0000
,
1000
0000
0000
0000
,
0100
0000
0000
0000
,
0001
0001
0000
0000
,
0010
0010
0000
0000
,
0001
0001
0000
0000
,
0010
0010
0000
0000
,
0100
0000
0010
0000
,
0001
0001
0001
0000
,
0100
0000
0010
0000
,
1000
1000
1000
0000
,
0001
0000
0100
0000
,
0010
0000
1000
0000
,
1000
0000
0100
0000
,
0010
0000
0001
0000
,
0001
0000
0010
0000
,
0100
0000
1000
0000
,
1000
0000
0100
0000
,
0010
0000
0001
0000
,
0010
0010
0010
0010
,
0000
0000
0000
0000
,
0100
0100
0100
0100
,
0000
0000
0000
0000
,
0010
0000
0010
0000
,
0001
0000
1000
0000
,
0001
0000
0100
0000
,
0001
0001
0000
0000
,
0100
0100
0000
0000
,
0001
0000
0100
0000
,
0001
0000
0100
0000
,
0010
0010
0010
0010
,
0010
0010
0010
0000
,
1000
0000
0000
0000
,
0001
0000
0000
0000
,
0010
0000
0000
0000
,
1000
0000
0000
0000
,
0100
0000
0000
0000
,
1000
0000
0000
0000
,
0001
0000
0000
0000
,
0100
0000
0000
0000
,
0001
0000
0000
0000
,
1001
0000
0100
0000
,
0001
0000
0100
0000
,
0110
0000
0001
0000
,
0010
0000
0001
0000
,
1001
0000
0100
0000
,
1000
0000
0100
0000
,
0110
0000
1000
0000
,
0010
0000
0000
0000
,
0001
0001
0000
0000
,
0010
0010
0000
0000
,
1000
1000
0000
0000
,
0100
0100
0000
0000
,
0001
0000
1000
0000
,
0001
0000
1000
0000
,
0010
0000
0100
0000
,
0001
0000
0001
0000
,
0010
0000
1000
0000
,
0100
0000
0000
0000
,
0000
0000
0000
0000
;

//---------------dance-single - ----------------
#NOTES:
     dance-single:
     :
     Easy:
     5:
     0.257440,0.341016,0.041667,0.135417,0.000000,173.000000,169.000000,4.000000,13.000000,0.000000,0.000000,0.257440,0.341016,0.041667,0.135417,0.000000,173.000000,169.000000,4.000000,13.000000,0.000000,0.000000:
0000
0000
0000
0000
,
0000
0000
0000
0000
,
0000
0000
0000
0000
,
0000
0000
0000
0000
,
0000
0000
0000
0000
,
0010
0000
1000
0000
,
0001
0000
0001
0000
,
0020
0000
0030
0000
,
0200
0000
0300
0000
,
1000
0000
0010
0000
,
0100
0000
0100
0000
,
0002
0000
0003
0000
,
2000
0000
3000
0000
,
0100
0000
0010
0000
,
0001
0000
0001
0000
,
2000
0000
3000
0000
,
0200
0000
0300
0000
,
0001
0001
0100
0100
,
0010
0010
1000
1000
,
0001
0001
0100
0100
,
0010
0010
1000
1000
,
0100
0000
0010
0000
,
0001
0001
0001
0001
,
0100
0000
0010
0000
,
1000
1000
1000
1000
,
0001
0000
0100
0000
,
0010
0000
1000
0000
,
1000
0000
0100
0000
,
0010
0000
0001
0000
,
0001
0000
0010
0000
,
0100
0000
1000
0000
,
1000
0000
0100
0000
,
0010
0000
0001
0000
,
0010
0010
0010
0010
,
1000
0000
0100
0000
,
0010
0010
0010
0010
,
0001
0000
1000
0000
,
0010
0000
0010
0000
,
0001
0000
1000
0000
,
0001
0000
0100
0000
,
0001
0001
0001
0001
,
0100
0100
0100
0100
,
0001
0001
0100
0100
,
0001
0001
0100
0100
,
0001
0100
0001
0100
,
0001
0100
0001
0001
,
1000
0000
0100
0000
,
0001
0000
0100
0000
,
0010
0000
0010
0000
,
1000
0000
1000
0000
,
0100
0000
0001
0000
,
1000
0000
1000
0000
,
0001
0000
0010
0000
,
0100
0000
0010
0000
,
0001
0000
0001
0000
,
1001
0000
0100
0000
,
0001
1000
0100
0000
,
0110
0000
0001
0000
,
0010
0100
0001
0000
,
1001
0000
0100
0000
,
1000
0001
0100
0000
,
0110
0000
1000
0000
,
0010
0100
1000
0000
,
0001
0001
1000
1000
,
0001
0001
1000
1000
,
0010
0010
0100
0100
,
0010
0010
0100
0100
,
0002
0003
2000
3000
,
0002
0003
2000
3000
,
0020
0030
0200
0300
,
0001
0000
0001
0000
,
0010
0000
1000
0000
,
0200
0000
0000
0300
,
0000
0000
0000
0000
;

//---------------dance-single - ----------------
#NOTES:
     dance-single:
     :
     Medium:
     8:
     0.369048,0.568359,0.197917,0.427083,0.000000,248.000000,229.000000,19.000000,41.000000,0.000000,0.000000,0.369048,0.568359,0.197917,0.427083,0.000000,248.000000,229.000000,19.000000,41.000000,0.000000,0.000000:
0000
0000
0000
0000
,
0000
0000
0000
0000
,
0000
0000
0000
0000
,
0001
0000
0000
0001
2000
0000
3000
0000
,
1000
0000
0000
1000
0002
0000
0003
0000
,
0010
0001
0100
0001
,
0010
0001
0100
0001
,
1000
0000
0000
1000
0002
0000
0003
0000
,
0001
0000
0000
0001
2000
0000
3000
0000
,
1000
0100
0001
0100
,
1000
0100
0001
0100
,
1000
0000
0000
0001
0200
0000
0300
0000
,
0001
0000
0000
1000
0200
0000
0300
0000
,
1000
1000
0001
0001
,
0010
0001
0100
0001
,
0010
0000
0000
0100
0020
0000
0030
0000
,
0001
0000
0000
1000
0002
0000
0003
0000
,
0110
0001
1000
0100
,
0001
0100
0010
0010
,
0110
1000
0001
0100
,
1000
0100
0010
0010
,
1001
0100
0010
0001
,
0010
0100
1000
1000
,
1001
0100
0010
1000
,
0010
0100
0001
0001
,
2000
0000
0100
0000
,
0001
0000
0100
3100
,
0002
0000
0100
0000
,
1000
0000
0100
0103
,
2000
0000
0010
0000
,
0100
0000
0010
3010
,
0002
0000
0100
0003
,
0010
1000
0100
1001
,
0010
1000
0010
0000
0001
0100
0001
0000
,
0010
1000
0010
0000
1001
0000
1100
0000
,
0010
0001
0010
0000
1000
0100
1000
0000
,
0010
0001
0010
0000
1001
0000
0101
0000
,
0020
0000
0030
1000
0100
0000
0001
0000
,
0020
0000
0030
1000
0100
0000
0001
0000
,
0010
0010
1000
0001
,
0000
1000
1000
1000
,
0000
0100
0100
0100
,
0000
0001
0001
0000
,
0100
0100
0000
0001
,
0000
1000
0000
0010
,
0000
0100
0100
0100
,
0020
0030
2000
3000
,
0002
0003
0010
1000
,
0100
1000
0020
0030
,
0200
0300
0002
0003
,
0020
0030
0100
1000
,
0001
0100
0010
0010
,
1001
0000
0010
0100
,
0000
0001
1000
0000
,
0100
0200
0000
0300
,
1001
0000
0000
0100
0020
0000
0030
0000
,
0001
0000
0000
0100
0020
0000
0030
0000
,
1000
0000
0000
0100
0020
0000
0030
0000
,
0001
0000
0000
0100
0020
0000
0030
0000
,
1000
0000
0000
0010
0100
0000
0001
0000
,
0001
0000
0000
0010
0100
0000
1000
0000
,
1000
0000
0000
0010
0100
0000
0001
0000
,
0001
0000
0000
0010
0100
0000
1000
0000
,
1001
0000
0100
0020
0000
0000
0031
0000
,
1001
0000
0100
0020
0000
0000
1030
0000
,
1001
0000
0100
0020
0000
0000
0031
0000
,
1001
0000
0100
0020
0000
0000
1030
0000
,
0001
0202
0000
0303
,
1000
2200
0000
3300
,
0010
2002
0000
3003
,
0020
0030
0200
0300
,
0002
0000
0000
0003
,
2002
0000
0000
3003
,
0000
0000
0000
0000
;

//---------------dance-single - ----------------
#NOTES:
     dance-single:
     :
     Hard:
     13:
     0.686012,0.644141,0.312500,0.302083,0.000000,461.000000,431.000000,30.000000,29.000000,0.000000,0.000000,0.686012,0.644141,0.312500,0.302083,0.000000,461.000000,431.000000,30.000000,29.000000,0.000000,0.000000:
0000
0000
0000
0000
,
0000
0000
0000
0000
,
0000
0000
0000
0000
,
0010
0000
0100
1000
0001
0000
0110
0000
,
0010
0000
0100
0001
1000
0000
0110
0000
,
0010
1000
0100
0001
0100
1000
0010
0001
,
0010
1000
0100
0001
0100
1000
0010
0000
,
0110
0000
0010
1000
0100
0000
1001
0000
,
0110
0000
0010
0001
0100
0000
1001
0000
,
0001
0100
1000
0100
0001
0010
0001
0100
,
1000
0100
0001
0010
0001
0100
1000
0000
,
0101
0000
0010
1000
0100
1000
0001
0000
,
1100
0000
0010
0001
0100
0001
1000
0000
,
1000
0010
0100
0010
1000
0100
0001
0100
,
1000
0010
0100
0001
0010
0100
1000
0000
,
1001
0000
0100
0010
0100
1000
0001
0000
,
1001
0000
0100
0010
0100
0001
1000
0000
,
0110
0000
0001
1000
0100
0000
0010
0001
,
0100
0000
0010
1000
0100
0010
0001
0000
,
1100
0000
0010
0100
0001
0000
0100
1000
,
0010
0000
0100
0001
1000
0100
0010
0001
,
1001
0000
1000
0010
0100
0000
1000
0100
,
0001
0010
0001
0100
1000
0100
0001
0010
,
0110
0000
1000
0010
0001
0010
1000
0100
,
0001
0100
1000
0010
0001
0010
1000
0000
,
0220
0000
0330
0001
2000
0000
3000
0100
,
0020
0000
0030
0001
0200
0000
0310
0000
,
2002
0000
3003
0010
0200
0000
0300
1000
,
0200
0000
0300
0001
0200
0000
0310
0000
,
0022
0000
0033
1000
0020
0000
0030
0010
,
0200
0000
0300
0001
2000
0000
3100
0000
,
0202
0000
0303
0001
0020
0000
0030
0000
,
1001
0000
0110
0000
0001
0010
0100
0000
,
0100
1000
0010
0001
0010
1000
0100
0010
,
0100
1000
0001
0100
0010
0100
0001
0000
,
0001
0010
0100
1000
0010
0001
0010
1000
,
0100
0010
0001
0100
1000
0100
0001
0000
,
1000
0100
1000
0010
0100
0001
0010
0100
,
1000
0001
0100
1000
0100
0010
1000
0000
,
0001
1000
0010
0100
0001
0010
0100
1000
,
0001
0100
1000
0100
1000
0100
0001
0010
,
0001
0010
1000
0010
1000
0010
0001
0100
,
0010
1000
0010
0100
0010
1000
0010
0100
,
0010
1000
0010
0100
0010
1000
0010
0100
,
0001
1000
0001
1000
0001
1000
0001
1000
,
0010
0100
0010
0100
0010
0000
0110
0000
,
0001
0000
1000
0000
0100
0010
0001
0000
,
0100
0000
0010
0000
0100
1000
0100
0001
,
0010
0100
1000
0010
0001
0000
0010
0000
,
1000
0100
2000
3000
,
0020
0000
0030
0000
0100
0001
0010
1000
,
0010
0001
0100
1000
0100
0000
0110
0000
,
2002
3003
0100
0202
,
0303
0010
2200
3300
,
0010
0100
0010
0100
,
1001
0000
0010
1000
0100
0000
0010
1000
,
0100
0000
0001
0010
0100
1000
0010
0000
,
1001
0000
0010
0100
0001
0000
0010
0100
,
0001
0000
0001
0010
1000
0010
0001
0000
,
0110
0000
0001
0100
1000
0100
0010
1000
,
0001
0010
0100
1000
0010
0001
0010
0000
,
1001
0000
0100
0010
0100
1000
0010
0001
,
0010
1000
0001
0010
0100
1000
0010
0000
,
0100
0001
0010
0100
1000
0001
0100
0001
,
0010
0100
0001
0100
1000
0010
1000
0100
,
0001
0100
1000
0010
0001
0010
1000
0100
,
1000
0010
0001
0010
1000
0100
0001
0100
,
1000
0010
0001
0010
1000
0100
0010
1000
,
0010
0001
0100
1000
0100
0001
0010
1000
,
0010
0001
0100
0010
0001
0010
1000
0100
,
0001
0100
1000
0001
0010
1000
0010
0001
,
2000
0000
0000
3000
,
0202
0000
0000
0303
,
0000
0000
0000
0000
;

//---------------dance-double - ----------------
#NOTES:
     dance-double:
     :
     Easy:
     5:
     0.305060,0.566406,0.302083,0.125000,0.000000,205.000000,176.000000,29.000000,12.000000,0.000000,0.000000,0.305060,0.566406,0.302083,0.125000,0.000000,205.000000,176.000000,29.000000,12.000000,0.000000,0.000000:
00000000
00000000
00000000
00000000
,
00000000
00000000
00000000
00000000
,
00000000
00000000
00000000
00000000
,
00000000
00000000
00000000
00000000
,
00000000
00000000
00000000
00000000
,
00000001
00000000
00000100
00000000
,
00001000
00010000
00001000
00000000
,
00200000
00000000
00310000
00000000
,
20000000
00000000
31000000
00000000
,
10000000
00000000
01000000
00000000
,
00010000
00001000
00010000
00000000
,
00000020
00000000
00001030
00000000
,
00000002
00000000
00000103
00000000
,
00001000
00000000
00010000
00000000
,
00100000
10000000
01000000
10000000
,
00010000
00010000
01000000
00000000
,
00001000
00001000
00010000
00000000
,
00011000
00000000
00000100
00000000
,
00000001
00000000
00001000
00000100
,
00011000
00000000
01000000
00000000
,
10000000
00000000
00010000
01000000
,
01100000
00000000
00001000
00000000
,
00010000
00000000
00000010
00000100
,
00000110
00000000
00010000
00000000
,
00001000
00000000
00100000
01000000
,
10000000
10000000
10000000
10000000
,
01000000
01000000
00010000
00010000
,
00001000
00001000
00001000
00001000
,
00000100
00000100
00000001
00000001
,
00000010
00000010
00000010
00000010
,
00001000
00001000
00010000
00010000
,
00100000
00000000
10000000
00000000
,
01000000
00010000
00001000
00000100
,
00001001
00001001
00001001
00001001
,
00000010
00000010
00000010
00011000
,
00011000
01000000
01000000
01000000
,
10010000
10010000
10010000
10010000
,
01100000
00000000
01100000
00000000
,
00001000
00010000
00001000
00010000
,
00022000
00000000
00000000
00033000
,
02002000
00000000
00000000
03003000
,
02020000
00000000
00000000
03030000
,
11000000
00000000
11000000
00000000
,
10010000
00000000
10010000
00000000
,
00011000
00011000
00011000
00011000
,
00000010
00000010
00000100
00001001
,
00000010
00000000
00000001
00000000
,
00000100
00000000
00000100
00000000
,
00001000
00000000
00010000
00000000
,
00001000
00000000
00010000
00000000
,
00100000
00000000
10000000
00000000
,
01000000
00000000
01000000
00000000
,
00010000
00000000
00001000
00000000
,
00010000
00000000
00001000
00000000
,
00000100
00000000
00000100
00000000
,
00001001
00000100
00000000
00000100
,
00000000
00001000
00000000
00001000
,
00000000
00010000
00000000
00010000
,
00000000
01000000
00000000
01000000
,
00000000
10000000
00000000
01000000
,
00000000
00010000
00000000
00001000
,
00000000
00000010
00000000
00000001
,
00000000
00000100
00000100
00000100
,
00001000
00000000
00010000
00000000
,
01000000
00000000
10000000
10000000
,
01000000
00000000
00010000
00000000
,
00000010
00000000
00001000
00001000
,
00000001
00000000
00000100
00000000
,
00001000
00000000
00010000
00010000
,
00100000
00000000
10000000
00000000
,
01000000
01000000
01000000
01000000
,
00020000
00000000
00000000
00030000
,
00002000
00000000
00003000
00000000
,
00000000
00000000
00000000
00000000
;

//---------------dance-double - ----------------
#NOTES:
     dance-double:
     :
     Medium:
     9:
     0.437500,0.566406,0.375000,0.197917,0.000000,294.000000,258.000000,36.000000,19.000000,0.000000,0.000000,0.437500,0.566406,0.375000,0.197917,0.000000,294.000000,258.000000,36.000000,19.000000,0.000000,0.000000:
00000000
00000000
00000000
00000000
,
00000000
00000000
00000000
00000000
,
00000000
00000000
00000000
00000000
,
00100000
00000000
10000000
00000000
01000000
00010000
00001000
00000000
,
00010000
00000000
00001000
00000000
00001000
00000100
00000001
00000000
,
00001000
00000000
00000001
00000000
,
00000100
00001000
00010000
01000000
,
10000000
00000000
00000000
00000000
01000000
00010000
00001000
00000000
,
00100000
00000000
00000000
00000000
00001000
00010000
00000100
00000000
,
00010000
00000000
00100000
00000000
,
10000000
01000000
00010000
00001000
,
00010000
00000000
00000010
00000000
00001000
00000001
00000100
00000000
,
00001000
00000000
00010000
00000000
01000000
10000000
00100000
00000000
,
00010000
00000000
00100000
00000000
,
00001000
00000000
00010000
00000000
,
00000010
00000000
00000000
00000000
00000100
00000001
00001000
00000000
,
00000100
00000000
00000000
00000000
00010000
00001000
00100000
00000000
,
00011000
00100000
10000000
01000000
,
00010000
00000000
00001000
00000000
00010000
00001000
00000100
00000000
,
00000110
00000001
00001000
00000100
,
00010000
00000000
00001000
00000000
00100000
00001000
00010000
00000000
,
00011000
00000010
00000001
00000100
,
00001000
00000000
00010000
00000000
00001000
00010000
01000000
00000000
,
01100000
10000000
00010000
01000000
,
00001000
00000000
00010000
00000000
00000010
00010000
00001000
00000000
,
00022000
00033000
00200000
00300000
,
02000000
03000000
00001000
00010000
,
02002000
03003000
00020000
00030000
,
00000200
00000300
00001000
00000010
,
00000202
00000303
00002000
00003000
,
00000200
00000300
00001000
00010000
,
20200000
30300000
02020000
03030000
,
01001000
00011000
00010010
00011000
,
00011000
00000010
00000001
00000100
,
00001000
00010000
00011000
00010100
,
00011000
00100000
10000000
01000000
,
00010000
00001000
00011000
01001000
,
01010000
00000000
01010000
00000000
,
00100000
10000000
01000000
00010000
,
00011000
00000000
00000000
00011000
00000000
00000000
00011000
00000000
,
00000000
00000010
00000001
00000100
,
00000000
00001000
00010000
01000000
,
00000000
10000000
00100000
01000000
,
00001000
00010000
00000010
00001000
,
00001001
00000110
00010010
00011000
,
00100000
01000000
10010000
11000000
,
00100000
00010000
10000000
01000000
,
00010000
00001000
00000100
00000001
,
00000010
00000001
00000100
00001000
,
00010000
01000000
10000000
00010000
,
10000000
01000000
00010000
00001000
,
00000100
00000001
00000010
00000001
,
00000100
00000000
00001000
00000101
,
00000000
00000010
00000001
00000100
,
00001000
00010000
01000000
10000000
,
01100000
00010000
01000000
00001000
,
00010000
00000000
00000010
00000000
00001000
00000001
00000100
00000000
,
00000110
00001000
00000100
00010000
,
00001000
00000000
00100000
00000000
00010000
10000000
01000000
00000000
,
10000000
01000000
00010000
00001000
,
00100000
00000000
00001000
00000000
00010000
00001000
00000100
00000000
,
00000001
00000100
00001000
00010000
,
00000010
00000000
00010000
00000000
00010000
00001000
01000000
00000000
,
01000000
00000000
00000000
00001000
00010000
00000000
00000000
00000010
,
00000100
00000000
00000000
00000001
00001000
00000000
00000000
00001000
,
00000100
00000000
00000000
00010000
00001000
00000000
00000000
00100000
,
01000000
00000000
00000000
10000000
00010000
00000000
00100000
00000000
,
10010000
00000000
00000000
01000000
00010000
00000000
00000000
00001000
,
00000100
00000000
00000000
00000001
00000010
00000000
00000100
00000000
,
00001001
00000000
00000000
00000010
00000100
00000000
00001000
00000000
,
00010000
01000000
10000000
00200000
,
00000000
00000000
00000000
00300000
,
02002000
00000000
03003000
00000000
,
00000000
00000000
00000000
00000000
;

//---------------dance-double - ----------------
#NOTES:
     dance-double:
     :
     Hard:
     13:
     0.450893,0.568359,0.395833,1.427083,0.000000,303.000000,265.000000,38.000000,137.000000,0.000000,0.000000,0.450893,0.568359,0.395833,1.427083,0.000000,303.000000,265.000000,38.000000,137.000000,0.000000,0.000000:
00000000
00000000
00000000
00000000
,
00000000
00000000
00000000
00000000
,
00000000
00000000
00000000
00000000
,
00200000
00000000
00300000
10000000
02000000
00000000
13000000
00000000
,
00020000
00000000
00030000
00001000
00000200
00000000
00000301
00000000
,
00000002
00000100
00001000
00000023
,
00000001
00000100
00001030
00010000
,
00200000
00000000
00300000
00100000
02000000
00000000
03010000
00000000
,
00200000
00000000
00300000
00001000
00000200
00000000
00001300
00000000
,
00020000
01000000
10000000
00100000
,
00032000
00000100
00000001
00003010
,
00000202
00000000
00000303
00000010
00002000
00000000
00003100
00000000
,
00022000
00000000
00033000
01000000
20000000
00000000
30010000
00000000
,
02000000
10000000
00100000
13000000
,
00200000
00010000
01000000
00310000
,
00022000
00000000
00033000
00000010
00000200
00000000
00000301
00000000
,
00002200
00000000
00003300
00000100
00020000
00000000
00031000
00000000
,
00022000
00000000
00033000
00100000
00020000
00000000
00030000
10000000
,
02000000
00000000
03000000
00100000
00020000
00000000
01030000
00000000
,
00022000
00000000
00033000
00000010
00002000
00000000
00003000
00000001
,
00000200
00000000
00000300
00000010
00002000
00000000
00003100
00000000
,
00000202
00000000
00000303
00000001
00002000
00000000
00003000
00001000
,
00020000
00000000
00030000
00010000
00200000
00000000
01300000
00000000
,
22000000
00000000
33000000
10000000
00020000
00000000
00030000
00010000
,
00002000
00000000
00003000
00001000
00000020
00000000
00000130
00000000
,
00022000
00003000
00200000
00030000
,
20000000
30300000
02000000
03010000
,
00022000
00030000
00000020
00003000
,
00000002
00000033
00000200
00001300
,
01002000
00010000
01000000
00023000
,
00000000
00000000
00000000
00000000
01000000
01000000
01030000
00000000
,
22000000
00000000
33000000
00010000
00220000
00000000
00330000
00001000
,
00011000
00000000
00010100
00000000
00000010
00001000
00000100
00000000
,
00000202
00000000
00000303
00001000
00020000
00000000
00030000
01000000
,
20000000
00000000
00000000
00000000
00100000
00100000
30100000
00000000
,
02200000
00000000
03300000
20020000
00000000
30030000
22000000
00000000
,
33000000
00010000
00000000
00010000
00002000
00000000
00003100
00000000
,
00000202
00000303
00002002
00000003
,
00000010
00000001
00000100
00003010
,
00000220
00000000
00000330
00002002
00000000
00003003
00000202
00000000
,
00000303
00001000
00000000
00001000
00020000
00000000
02030000
00000000
,
03000000
00001000
00001000
00001000
00020000
00000000
02030000
00000000
,
03000000
20000000
01000000
31000000
00000000
00200000
00001000
00301000
,
00000000
00020000
00000100
00030100
00000000
00002000
00000001
00003001
,
00000000
00000100
00000000
00001000
00000000
00010000
00000000
01000000
,
00000000
10000000
10000000
10000000
00100000
00000000
01010000
00000000
,
00200000
00001000
00310000
00001000
,
00000200
00000001
00000010
00000301
,
00000220
00000000
00000330
00001000
00020000
00000000
01030000
00000000
,
22000000
00000000
33000000
00100000
00020000
00000000
00031000
00000000
,
00002020
00000000
00003030
00000001
00000200
00000000
00001300
00000000
,
00010000
01000000
11000000
10010000
,
02200000
03300000
10000000
02020000
,
03030000
00001000
00000220
00000330
,
00000002
00000020
00000000
00000033
,
00002200
00000000
00003300
00010000
00002000
00000000
00003000
00100000
,
02000000
00000000
03000000
10000000
00020000
00000000
00030000
00001000
,
00000020
00000000
00000030
00000100
00000002
00000000
00000003
00000001
,
00002000
00000000
00003000
00001000
00200000
00000000
00300000
01000000
,
20000000
00000000
30000000
00100000
00020000
00000000
00030000
00001000
,
02000000
00000000
03000000
10000000
02000000
00000000
03000000
00001000
,
00020000
00000000
00030000
00000100
00000002
00000000
00000003
00000001
,
00002000
00000000
00003000
00001000
00200000
00000000
00300000
01000000
,
20010000
01000000
00010000
31000000
,
00012000
00100000
00010000
00103000
,
00010020
00001000
00000100
00001030
,
00000210
00000001
00000010
00001000
,
00020300
01000000
10000000
00100000
,
00032000
00000100
00000001
00000010
,
00023000
01000000
10000000
00100000
,
00032000
00000100
00000001
00000010
,
00023000
00000000
00000000
00030000
,
00000020
00000000
00000000
00000030
,
00000000
00000000
00000000
00000000
;

//---------------dance-single - edit----------------
#NOTES:
     dance-single:
     :
     Edit:
     15:
     0.822917,0.988542,0.197917,1.312500,0.307292,553.000000,534.000000,19.000000,126.000000,0.000000,0.000000,0.822917,0.988542,0.197917,1.312500,0.307292,553.000000,534.000000,19.000000,126.000000,0.000000,0.000000:
0000
0000
0000
0000
,
0000
0000
0000
0000
,
0000
0000
0000
0000
,
2000
0000
3001
1000
0200
0000
1300
0001
,
2000
0000
3001
1000
0100
0010
0001
1000
,
0020
0000
2030
0000
3200
0320
0032
0203
,
0320
2030
3002
0023
0230
2300
3200
0320
,
0032
0000
1003
0100
0020
0000
0031
1000
,
0002
0000
0013
0100
1000
0001
0010
0100
,
2000
0000
3200
0000
0320
0032
0203
0320
,
2030
3200
0320
0032
0203
0320
2030
3020
,
0230
0000
0301
1000
0002
0000
0013
0001
,
0200
0000
0310
1000
0100
0010
0100
1000
,
0002
0000
2003
0000
3200
2300
3020
0230
,
0302
0023
0230
2300
3002
2003
3200
0320
,
0032
0203
2300
3200
0302
0203
2300
3200
,
0320
0230
0302
0203
0320
2030
3200
0320
,
0230
0000
1300
0001
0200
0000
0301
1000
,
0200
0000
0000
0000
1300
0000
0001
0000
0100
1000
0100
0000
1000
0000
0001
0000
,
0200
0000
0301
0010
0200
0000
0310
0100
,
2000
0000
0000
0000
3001
0000
1000
0000
0100
1000
0100
0000
1000
0000
0010
0000
,
0200
0000
0301
0100
0020
0000
1030
0010
,
0200
0000
0000
0000
0301
0000
1000
0000
0100
0010
0100
0000
0010
0000
0001
0000
,
2000
0000
3001
0010
0200
0000
1300
0100
,
0020
0000
0000
0000
1030
0000
0001
0000
0010
0001
0010
0000
0001
0000
0100
0000
,
0001
0100
1000
0100
0001
0100
1000
0100
,
0001
0100
1000
0100
0002
0203
2300
3200
,
0320
0031
0010
1000
0010
0001
0010
1000
,
0010
0001
0010
1000
0020
0032
0023
2030
,
3200
1300
0010
1000
0100
0010
1000
0010
,
0100
1000
0010
1000
0200
2300
3020
0230
,
0310
0001
0010
0200
0301
0010
0100
0010
,
0001
0101
1010
1100
,
1000
0100
1000
0000
0010
0000
0100
0000
0001
0000
0010
0000
0001
0000
1000
0000
,
0001
0100
0001
0000
0010
0000
1000
0000
0100
0000
1000
0000
0010
0000
1000
0000
,
0001
1000
0001
0000
0010
0000
0100
0000
1000
0000
0100
0000
0010
0000
0001
0000
,
1000
0001
1000
0000
0010
0000
0010
0000
0100
0000
0000
0000
0110
0000
0000
0000
,
0010
1000
0010
0000
0001
0000
0100
0000
0010
0000
1000
0000
0100
0000
0010
0000
,
0001
0010
0001
0000
0100
0000
0010
0000
1000
0000
0010
0000
0100
0000
0002
0000
,
0013
0100
1000
0002
0103
0010
1000
0000
,
1000
0000
0100
1000
0100
0000
1000
0000
0010
0000
0000
0000
0110
0000
0000
0000
,
0001
0000
1000
0100
0010
0100
1000
0000
0001
0000
0000
0000
1001
0000
0000
0000
,
0000
0000
0010
2000
0100
0000
3100
0000
0000
0000
1000
0200
0010
0000
0310
0000
,
0000
0000
0010
0002
0010
0000
0013
0000
0000
0000
1000
0020
1000
0000
0130
0000
,
0001
0000
1000
0100
0010
0000
0100
0010
0001
0000
0001
0010
0100
0000
0010
0100
,
1000
0000
0001
1000
0100
0010
0001
0000
1000
0000
0000
0000
1001
0000
0000
0000
,
1000
0010
0001
1000
0010
0100
0001
0010
,
1000
0010
0001
0100
0010
1000
0100
0010
,
0001
0100
1000
0100
0002
0013
1000
0100
,
0010
0001
0100
0010
1000
0100
0010
0001
,
1000
0100
0010
0100
2000
3001
0100
0010
,
2000
0000
3100
1000
0100
1000
0100
0000
1000
0000
0000
0000
1100
0000
0000
0000
,
0202
0303
0001
2200
,
3300
0000
0010
0000
0220
0000
0330
2000
,
3000
0002
0003
2000
3000
0000
0001
0001
,
2000
0000
3001
1000
0200
0000
1300
0010
,
0200
0000
0000
0000
0310
0000
1000
0000
0001
0010
0001
0000
0100
0000
0010
0000
,
2000
0000
3100
1000
0002
0000
0013
0100
,
2000
0000
0000
0000
3100
0000
0010
0000
0001
1000
0001
0000
0100
0000
0010
0000
,
2000
0000
3100
0001
0020
0000
0031
0100
,
0020
0000
0000
0000
1030
0000
0100
0000
0010
0001
0010
0000
0100
0000
0010
0000
,
0002
0000
0103
1000
0200
0000
0301
1000
,
0020
0000
0000
0000
0130
0000
0001
0000
1000
0010
1000
0000
0010
0000
0100
0000
,
0001
0010
0001
0000
0010
0100
0010
0000
0100
1000
0100
0000
1000
0100
1000
0000
,
0100
0010
0100
0000
0010
0001
0010
0000
0001
0010
0001
0000
0010
0100
0010
0000
,
0100
1000
0100
0000
1000
0010
1000
0000
0010
0100
0010
0000
0100
0001
0100
0000
,
0001
0010
0001
0000
0010
0100
0010
0000
0100
1000
0100
0000
1000
0100
1000
0000
,
0010
1000
0010
0000
0001
0100
0001
0000
0010
1000
0010
0000
0001
0100
0001
0000
,
0010
0001
0010
0000
0100
0010
0100
0000
1000
0100
1000
0000
0010
0001
0010
0000
,
1000
0100
1000
0000
0010
0001
0010
0001
0010
0000
0011
0000
0000
1001
0000
0000
,
0101
0000
0000
1001
0000
0000
1100
0000
0000
1010
0000
0000
1001
0000
0110
0000
,
0010
1000
0100
0010
0001
0010
0100
2000
,
0200
0000
0000
0000
,
3300
0000
0000
0000
;

//---------------dance-single - ----------------
#NOTES:
     dance-single:
     :
     Challenge:
     15:
     0.776786,0.909375,0.395833,0.635417,0.109375,522.000000,484.000000,38.000000,61.000000,0.000000,0.000000,0.776786,0.909375,0.395833,0.635417,0.109375,522.000000,484.000000,38.000000,61.000000,0.000000,0.000000:
0000
0000
0000
0000
,
0000
0000
0000
0000
,
0000
0000
0000
0000
,
0001
0000
0100
1000
0000
0100
0110
0000
,
1000
0100
0001
0100
0000
0100
0110
0000
,
0020
0031
2000
3010
0200
1300
0200
0301
,
0020
1030
0020
0031
2000
3100
2000
3000
,
1000
0100
0010
0001
0010
0100
1000
0010
,
0001
0010
1000
0100
0010
0100
0001
0100
,
0020
0031
2000
3010
0200
1300
0200
0301
,
0020
1030
0020
0031
2000
3100
2000
3000
,
0101
0000
0001
1000
0100
1000
0001
0000
,
1000
0100
0010
0001
0100
0000
1001
0000
,
0002
0013
0200
0310
0002
0103
2000
3100
,
0002
0013
0200
1300
0020
0130
0002
0003
,
1001
0000
1000
0010
0001
0010
1000
0001
,
1001
0000
0001
0010
1000
0010
0001
1000
,
1100
0000
0001
0100
1000
0000
1000
0100
,
0001
0000
0010
0001
0100
0010
1000
0001
,
0011
0000
1000
0100
0001
0000
0001
0100
,
1000
0000
0010
1000
0100
0010
0001
1000
,
0001
0100
0001
0000
1000
0000
0001
0000
0100
0000
0000
0000
0010
1000
0010
0000
,
1000
0010
1000
0100
0001
1000
0010
0001
,
0011
0000
0001
0010
1000
0010
0100
0001
,
0100
1000
0001
0100
1000
0100
0010
0001
,
0020
0000
0130
0010
2000
0001
3001
1000
,
0002
0000
1003
0100
0010
0001
0010
0100
,
2000
0000
3010
1000
0002
1000
1003
0001
,
2000
0000
3001
0010
0100
1000
0100
0010
,
0200
0000
1300
0100
0020
0001
0031
1000
,
0002
0000
1003
0100
0010
0001
0010
0100
,
2200
0000
3300
1100
0022
0000
0033
0011
,
1001
0000
0110
0000
0001
0010
0100
1000
,
0100
0000
1000
0000
0010
0000
0001
0000
0010
0000
1000
0000
0100
0010
0100
0000
,
0010
0001
0100
1000
0100
0010
1000
0010
,
1000
0000
0010
0000
0100
0000
0001
0000
0010
0000
1000
0000
0010
0100
0010
0000
,
0100
0010
0001
0100
0010
1000
0100
0001
,
0100
0000
1000
0000
0001
0000
0010
0000
0100
0000
0001
0000
0100
0010
0100
0000
,
1000
0001
0100
1000
0100
0010
1000
0100
,
0220
0000
0330
2002
0000
3003
0202
0000
,
0303
1000
0000
1000
0002
0000
0203
0000
,
0300
0001
0001
0001
2000
0000
3020
0000
,
0000
0100
0100
0230
0000
0001
0001
0302
,
0000
1000
1000
2003
0000
0010
0010
3020
,
0000
0100
0000
1000
0000
0001
0000
0130
,
0000
0001
0001
0001
1000
0000
1100
0000
,
1000
0100
1000
0100
0010
0001
0010
0001
,
0100
0000
0010
0000
0100
1000
0100
0001
,
0010
0100
1000
0010
0001
0000
0010
0000
,
1000
0100
0010
0001
2000
0000
3001
0000
,
0002
0000
1003
1000
1000
0001
0010
1000
,
0010
0001
0100
1000
0100
0000
0110
0000
,
1200
0301
0110
0021
,
1030
0000
1001
0000
2200
0000
3300
0011
,
0000
0110
0000
1200
0000
0320
0000
0031
,
0110
0000
0001
0100
1000
0000
1000
0100
,
0001
0000
0010
0001
0100
0010
1000
0001
,
0011
0000
1000
0100
0001
0000
0001
0100
,
1000
0000
0010
1000
0100
0010
0001
1000
,
0110
0000
0001
0100
1000
0100
0010
1000
,
0001
0010
0100
1000
0010
0001
0010
0100
,
1001
0000
1000
0100
0001
0100
0010
0001
,
1000
0010
0100
0001
0010
1000
0010
0100
,
1000
0100
1000
0000
0001
0000
0010
0000
0001
0100
0001
0000
1000
0000
0010
0000
,
0100
0001
0100
0000
0001
0000
1000
0000
0010
0100
0010
0000
0100
0000
0001
0000
,
1000
0100
1000
0000
0010
0000
0100
0001
0100
0001
0100
0000
0010
0000
1000
0000
,
0100
0010
0001
0010
1000
0010
0001
0100
,
1000
0000
0100
0000
0001
0000
0010
0000
0001
0000
0100
0000
0010
1000
0010
1000
,
0010
0000
0100
0000
0001
0100
0001
0100
0001
0000
1000
0000
0100
0000
0001
0000
,
0100
0000
1000
0000
0100
1000
0100
1000
0100
0000
0011
0000
0000
1100
0000
0000
,
1010
0000
0000
0101
0000
0000
1001
0000
0001
1000
0001
0000
1000
0000
0001
0000
,
1000
0100
0010
0001
0010
0100
1000
0100
,
0202
0000
0000
0303
;

//---------------dance-double - ----------------
#NOTES:
     dance-double:
     :
     Challenge:
     15:
     0.680059,0.833594,0.281250,0.645833,0.020833,457.000000,430.000000,27.000000,62.000000,0.000000,0.000000,0.680059,0.833594,0.281250,0.645833,0.020833,457.000000,430.000000,27.000000,62.000000,0.000000,0.000000:
// measure 0
00000000
00000000
00000000
00000000
,  // measure 1
00000000
00000000
00000000
00000000
,  // measure 2
00000000
00000000
00000000
00000000
,  // measure 3
00000001
00000000
00000100
00000010
00000000
00001000
00001010
00000000
,  // measure 4
00001000
00010000
01000000
00100000
00000000
10000000
10100000
00000000
,  // measure 5
20000000
30100000
02000000
03010000
00200000
00301000
00020000
00030100
,  // measure 6
00002000
00003010
00000200
00000301
00001000
00000000
00001100
00000000
,  // measure 7
00000010
00001000
00010000
01000000
00010000
00001000
00000010
00001000
,  // measure 8
00010000
01000000
00010000
00001000
00010000
00000000
01100000
00000000
,  // measure 9
10010000
00000000
00020000
00030000
02000000
03000000
00020000
00030000
,  // measure 10
00002000
00003000
00020000
00030000
00200000
00300000
01000000
00000000
,  // measure 11
10000000
00000000
00100000
10000000
01000000
00010000
00001000
00000000
,  // measure 12
00010000
00001000
00000100
00000001
00000010
00000000
00001001
00000000
,  // measure 13
00000002
00000103
00000020
00001030
00000200
00010300
00002000
00103000
,  // measure 14
00020000
01030000
00200000
10300000
02000000
03010000
00002000
00003000
,  // measure 15
00010000
00000000
00010000
00001000
00000100
00000001
00000100
00001000
,  // measure 16
00010000
00000000
00001000
00010000
01000000
10000000
01000000
00010000
,  // measure 17
00001000
00000000
00001000
00010000
00000010
00000000
00000010
00001000
,  // measure 18
00000001
00000000
00000001
00000010
00000001
00000100
00001000
00010000
,  // measure 19
00001000
00000000
00010000
00001000
00100000
00000000
00100000
00010000
,  // measure 20
10000000
00000000
10000000
00100000
10000000
01000000
00010000
00001000
,  // measure 21
00010000
00000000
00001000
00000010
00000001
00000000
00000001
00000010
,  // measure 22
00001000
00000000
00010000
00001000
00010000
01000000
10000000
01000000
,  // measure 23
00010000
00000000
00001000
00000010
00000001
00000100
00000010
00010000
,  // measure 24
00001000
00000000
00010000
00100000
10000000
01000000
00010000
00001000
,  // measure 25
00020000
00000000
00031000
00000100
00000020
00000000
00000000
00000000
,  // measure 26
00002030
00000000
00003100
00001000
00000010
00000001
00000010
00000100
,  // measure 27
00002000
00000000
00013000
01000000
00200000
00000000
00000000
00000000
,  // measure 28
00320000
00000000
01030000
00010000
00100000
10000000
00100000
01000000
,  // measure 29
00200000
00000000
00310000
00001000
00000200
00000000
00000000
00000000
,  // measure 30
00002300
00000000
00003100
00001000
00010000
00100000
01000000
10000000
,  // measure 31
22000000
00000000
33000000
01000000
00220000
00000000
00330000
00100000
,  // measure 32
00101000
00011000
00010100
00011000
,  // measure 33
00001000
00000010
00000001
00000010
00001000
00010000
00001000
00000100
,  // measure 34
00001000
00010000
00100000
10000000
00100000
00010000
00001000
00010000
,  // measure 35
00001000
00010000
01000000
10000000
01000000
00010000
00001000
00000000
,  // measure 36
00010000
00001000
00000010
00001000
00010000
00000000
00011000
00000000
,  // measure 37
00010000
00100000
10000000
00100000
00010000
00001000
00010000
01000000
,  // measure 38
00010000
00001000
00000010
00000001
00000010
00001000
00010000
00001000
,  // measure 39
00010000
00001000
00000100
00000001
00000100
00001000
00010000
00000000
,  // measure 40
00001000
00010000
00100000
00010000
00001000
00000000
00011000
00000000
,  // measure 41
00010000
00001000
00000010
00001000
00010000
00000000
00011000
00000000
,  // measure 42
00000000
00002000
00100000
00103000
00000000
00200000
00010000
00310000
,  // measure 43
00000000
00020000
01000000
01030000
00000000
02000000
00100000
03100000
,  // measure 44
00000000
00200000
00300000
20000000
30000000
02000000
03000000
00020000
,  // measure 45
00030000
00001000
00001000
00001000
00010000
00000000
00011000
00000000
,  // measure 46
00010000
00001000
00000010
00000100
00000010
00001000
00010000
00001000
,  // measure 47
00010000
00000000
00011000
00000000
00001000
00010000
00100000
01000000
,  // measure 48
00100000
00010000
00001000
00010000
00001000
00000000
00011000
00000000
,  // measure 49
00010000
00000100
00000010
00000001
00000100
00001000
00010000
00001000
,  // measure 50
00010000
00000000
00011000
00000000
00001000
01000000
00100000
10000000
,  // measure 51
01000000
00010000
00001000
00010000
00001000
00000000
00011000
00000000
,  // measure 52
00002000
00003000
00000010
00000002
,  // measure 53
00000003
00000000
00000100
00000000
00002000
00000000
00003000
00010000
,  // measure 54
00000000
00100000
00000000
01000000
00000000
00100000
00000000
01000000
,  // measure 55
01100000
00000000
00100000
10000000
01000000
00000000
00010000
00001000
,  // measure 56
00000100
00000000
00000001
00000010
00000001
00000100
00001000
00010000
,  // measure 57
00001000
00000000
00010000
00100000
10000000
00000000
10000000
00100000
,  // measure 58
00010000
00000000
00100000
01000000
00010000
01000000
10000000
01000000
,  // measure 59
00100000
10000000
01000000
00010000
00001000
00000100
00000001
00000010
,  // measure 60
00000001
00000100
00001000
00010000
01000000
10000000
00100000
10000000
,  // measure 61
01000000
00010000
01000000
10000000
00100000
00010000
00100000
10000000
,  // measure 62
01000000
00010000
00001000
00000100
00000010
00001000
00000100
00001000
,  // measure 63
00000200
00000300
00020000
00030000
00200000
00300000
02000000
03000000
,  // measure 64
00002000
00003000
00020000
00030000
00000020
00000030
00020000
00030000
,  // measure 65
00002000
00003000
00100000
00010000
01000000
00100000
10000000
01000000
,  // measure 66
00010000
00001000
00000010
00000001
00000100
00000001
00000100
00000010
,  // measure 67
00020000
00030000
00002000
00003000
02000000
03000000
20000000
30000000
,  // measure 68
02000000
03000000
00020000
00030000
00002000
00003000
00000020
00000030
,  // measure 69
00000100
00000000
00000001
00000000
00000100
00000001
00000100
00000001
00000100
00000000
00000110
00000000
00000000
00010010
00000000
00000000
,  // measure 70
00011000
00000000
00000000
01001000
00000000
00000000
01010000
00000000
01000000
00000000
00100000
00000000
10100000
00000000
00000000
00000000
,  // measure 71
10000000
00100000
00010000
00001000
00000010
00000001
00000100
00001000
,  // measure 72
00020000
00000000
00000000
00030000
;
