#TITLE:ZETA~素数の世界と超越者~;
#SUBTITLE:;
#ARTIST:Zektbach;
#TITLETRANSLIT:ZETA ~The World of Prime Numbers and the Transcendental Being~;
#SUBTITLETRANSLIT:;
#ARTISTTRANSLIT:;
#GENRE:;
#CREDIT:;
#BANNER:ZETA ~The World of Prime Numbers and the Transcendental Being~.png;
#BACKGROUND:ZETA ~The World of Prime Numbers and the Transcendental Being~-bg.png;
#LYRICSPATH:;
#CDTITLE:;
#MUSIC:ZETA ~The World of Prime Numbers and the Transcendental Being~.ogg;
#OFFSET:0.000000;
#SAMPLESTART:92.339996;
#SAMPLELENGTH:15.000000;
#SELECTABLE:YES;
#BPMS:0.000000=180.000000
,220.000000=90.000000
,236.000000=180.000000
;
#STOPS:
;
#BGCHANGES:0.000=ZETA ~The World of Prime Numbers and the Transcendental Being~.avi=1.000=0=0=0=StretchNoLoop====,
99999=-nosongbg-=1.000=0=0=0 // don't automatically add -songbackground-
;
#KEYSOUNDS:;
#ATTACKS:;

//---------------dance-single - ----------------
#NOTES:
     dance-single:
     :
     Beginner:
     3:
     0.127018,0.206431,0.015463,0.000000,0.000000,115.000000,113.000000,2.000000,0.000000,0.000000,0.000000,0.127018,0.206431,0.015463,0.000000,0.000000,115.000000,113.000000,2.000000,0.000000,0.000000,0.000000:
0000
0000
0000
0000
,
0000
0000
0000
0000
,
0000
0000
0000
0000
,
0000
0000
0000
0000
,
0000
0000
0000
0000
,
0000
0000
0000
0000
,
0000
0000
0000
0000
,
0010
0000
0010
0000
,
1000
0000
1000
0000
,
0001
0000
0001
0000
,
0100
0000
0000
0000
,
0010
0000
0010
0000
,
0001
0000
0001
0000
,
1000
0000
1000
0000
,
0010
0000
0000
0000
,
1000
0000
1000
0000
,
0100
0000
0010
0000
,
0001
0000
0001
0000
,
0100
0000
0000
0000
,
0001
0000
0001
0000
,
0100
0000
0010
0000
,
1000
0000
1000
0000
,
0010
0000
0000
0000
,
1000
0000
0000
0000
,
0001
0000
0000
0000
,
0100
0000
0100
0000
,
0100
0000
0000
0000
,
0010
0000
0000
0000
,
0100
0000
0000
0000
,
0001
0000
0000
0000
,
1000
0000
0000
0000
,
1000
0000
1000
0000
,
0100
0100
0100
0000
,
0001
0000
0001
0000
,
0100
0100
0100
0000
,
1000
0000
1000
0000
,
0100
0100
0100
0000
,
0001
0000
0001
0000
,
0100
0100
0100
0000
,
1000
0000
0010
0000
,
0100
0000
0000
0000
,
0100
0000
1000
0000
,
0100
0000
0000
0000
,
0010
0000
0100
0000
,
1000
0000
0000
0000
,
0010
0000
1000
0000
,
0100
0000
0001
0000
,
0100
0000
0000
0000
,
0010
0010
0000
0000
,
0001
0000
0000
0000
,
0010
0010
0000
0000
,
0100
0000
0000
0000
,
1000
0001
0000
0000
,
0100
0000
0000
0000
,
0001
1000
0000
0000
,
1001
0000
0000
0000
,
0000
0000
0000
0000
,
0000
0000
0000
0000
,
0000
0000
0000
0000
,
0010
0000
0000
0000
,
0010
0000
0010
0000
,
0000
0100
0000
0000
0000
0000
0000
0000
,
0000
0100
0000
0000
0000
0000
0000
0000
,
0000
1000
0000
0100
,
0000
0001
0000
1000
,
0000
1001
0000
0000
,
0100
0000
0100
0000
,
0000
0000
0000
0001
,
0000
0000
0000
0000
,
0010
0000
0000
0000
,
0000
0100
0000
0000
,
0000
0000
1000
0000
,
0000
0000
0000
0100
,
0000
0000
0000
0000
,
0001
0000
0000
0000
,
0000
1000
0000
0000
,
0000
0000
0100
0000
,
0000
0000
0000
0001
,
0000
0000
0000
0000
,
0100
0000
0000
0000
,
0000
1000
0000
0000
,
0000
0000
0010
0000
,
0000
0000
0000
0100
,
0000
0000
0000
0000
,
0001
0000
0000
0000
,
0000
0100
0000
0000
,
0000
0000
0100
0000
,
0000
0000
0000
0010
,
0000
0000
0000
0000
,
0100
0000
0000
0000
,
0000
0000
0000
0000
;

//---------------dance-single - ----------------
#NOTES:
     dance-single:
     :
     Easy:
     6:
     0.273916,0.347917,0.162362,0.131435,0.000000,248.000000,227.000000,21.000000,17.000000,0.000000,0.000000,0.273916,0.347917,0.162362,0.131435,0.000000,248.000000,227.000000,21.000000,17.000000,0.000000,0.000000:
0000
0000
0000
0000
,
0000
0000
0000
0000
,
0000
0000
0000
0000
,
0000
0000
0000
0000
,
0000
0000
0000
0000
,
0000
0000
0000
0000
,
0000
0000
0000
0000
,
1001
0100
0001
0000
,
1000
0001
0010
0000
,
1000
0010
0001
0000
,
1000
0001
0100
0000
,
0100
1000
0001
0000
,
0100
0010
0001
0000
,
0100
1000
0001
0000
,
0010
0000
0100
0000
,
1001
0001
0010
0100
,
1000
0100
0010
0000
,
1000
1000
0010
0100
,
0001
0010
0100
0000
,
1000
0010
0001
0010
,
1000
0010
0100
0000
,
0010
1000
0010
0001
,
0010
0010
0010
0000
,
0002
0000
0003
0001
,
0020
0000
0030
0010
,
1000
0000
0001
0000
,
2002
0000
3003
0000
,
0200
0000
0300
0010
,
0200
0000
0300
0001
,
0200
0000
0010
0300
,
2002
0000
3003
0000
,
0001
0001
0100
0000
,
1000
1000
0100
0000
,
0010
0010
1000
0000
,
0100
0100
0010
0000
,
0001
0001
0010
0000
,
1000
1000
0100
0000
,
0010
0010
0100
0000
,
0001
1000
1001
0000
,
0001
0100
1000
0010
,
0001
0100
0110
0000
,
0100
0001
0010
1000
,
0100
0010
1001
0000
,
0100
0100
0010
0000
,
0001
0001
0100
0000
,
0100
0100
1000
0000
,
0010
0010
1001
0000
,
0100
0010
0010
0000
,
0100
0110
0000
0000
,
1000
0001
0001
1000
,
0100
0110
0000
0000
,
0010
1000
1000
0100
,
0001
1001
0000
0000
,
0100
0001
0010
1000
,
0100
0110
0000
0000
,
2002
0000
0000
0000
,
0000
0000
0000
0000
,
0000
0000
0000
0000
,
0000
3003
0000
0000
,
0100
0100
0010
0010
,
0110
0000
1001
0000
,
0000
0100
0000
0100
0000
0010
0000
0010
,
0000
0110
0000
0000
0000
1001
0000
0000
,
0000
0100
0000
0010
,
0000
0001
0010
0100
,
1000
1001
0000
0000
,
1000
0001
1000
0000
,
0000
0100
0010
0100
,
0000
0000
0001
0010
,
0100
0000
0000
0000
,
0000
0010
0000
0000
,
0100
0010
0100
0000
,
0000
0010
1000
1001
,
0000
0000
0001
0100
,
1001
0000
0000
0000
,
0000
1000
0100
0010
,
0001
0100
0010
0001
,
1000
0100
0010
0100
,
0010
0001
1000
0100
,
0010
0001
0010
0100
,
1000
0001
0010
0100
,
0010
0100
1000
1000
,
0100
0010
1000
0100
,
0010
0001
0100
0010
,
0001
0010
0100
1000
,
0100
0000
2000
0000
0000
3000
0000
0200
,
0000
0000
0300
0000
2000
0000
0000
3000
,
0000
0020
0000
0000
0030
0000
0001
0000
,
0010
0100
1000
0010
,
2002
0000
0000
0000
,
3003
0000
0000
0000
,
0000
0000
0000
0000
;

//---------------dance-single - ----------------
#NOTES:
     dance-single:
     :
     Medium:
     11:
     0.471622,0.521876,0.340186,0.402038,0.003866,427.000000,383.000000,44.000000,52.000000,0.000000,0.000000,0.471622,0.521876,0.340186,0.402038,0.003866,427.000000,383.000000,44.000000,52.000000,0.000000,0.000000:
0000
0000
0000
0000
,
0000
0000
0000
0000
,
0000
0000
0000
0000
,
0000
0000
0000
0000
,
0000
0000
0000
0000
,
0000
0000
0000
0000
,
0000
0000
0000
0000
,
1001
0000
0100
0000
0010
0100
0001
0000
,
1000
0001
0100
0000
,
0001
0000
1000
0000
0010
0100
1000
0000
,
0100
0001
0101
0000
,
0010
0000
0001
0000
1000
0100
0010
0000
,
0001
0100
1000
0000
,
0100
0000
0010
0000
1000
0001
0100
0000
,
1000
1010
1001
0000
,
1000
0000
0001
0000
0010
0100
1000
0000
,
0001
0000
1000
0000
0100
1000
0100
0000
,
0010
0000
0010
0000
0001
1000
0100
0000
,
0010
0001
1100
0000
,
0100
0000
0010
0000
0001
0100
0010
0000
,
1000
0000
1000
0000
0001
0100
0001
0000
,
0010
0000
0010
0000
0001
0100
1000
0000
,
0100
0110
1001
0000
,
0002
0023
0230
2300
,
3001
1001
1100
0000
,
2000
3020
0230
0302
,
1003
1001
0101
0100
,
2000
3002
0203
0320
,
1030
1100
0011
0010
,
0002
0203
0320
2030
,
3001
0110
1001
0000
,
0001
0100
0001
0000
0010
0100
0010
0000
,
1000
0011
1001
0000
,
0100
0010
0100
0000
1000
0010
1000
0000
,
0001
0110
0110
0001
,
1000
0100
1000
0000
0010
0100
0010
0000
,
0001
1010
1001
0000
,
0100
0010
0100
0000
0001
0100
0001
0000
,
1000
0110
0110
1001
,
1000
0100
0001
0000
1000
0100
0001
0000
,
0100
1000
0010
0001
,
0001
0100
1000
0000
0001
0100
1000
0000
,
0001
0010
1000
0100
,
0010
0001
0100
0000
0010
0001
0100
0000
,
0001
0010
1000
0100
,
0001
0100
0010
0000
0001
0100
0010
0000
,
1000
0100
0001
0010
,
0110
0000
0001
0000
0010
0100
0000
0000
,
1001
0000
0100
0010
0000
0010
0100
0000
,
1001
0000
0001
0100
0001
0100
0010
0000
,
0100
0000
0010
0100
0000
0100
0010
0000
,
0110
0000
1000
0000
0010
0100
0000
0000
,
1001
0000
0100
0010
0000
0010
0100
0000
,
1001
0000
1000
0100
1000
0100
0010
0000
,
0100
0000
0010
0100
0000
0100
0010
0000
,
0002
0000
0013
2000
0000
3010
0002
0000
,
0103
2000
0000
3100
0002
0000
1003
0200
,
0000
0000
0300
0000
0000
0020
0000
0000
0000
0000
0000
0000
0200
0000
0000
0000
,
0000
0330
0000
0000
,
0010
0000
0010
0000
1000
0001
0100
0010
,
1000
0000
0001
0000
0010
0100
0010
0100
,
1000
0010
0000
0010
0000
1000
0001
0100
,
0010
1000
0000
0001
0000
0010
0100
0010
,
0100
1000
0001
0100
0001
0000
1000
0100
,
1000
0000
0001
0100
0001
0100
0010
0100
,
0010
0000
1002
0000
0000
1000
1003
0000
,
0001
0000
1100
0000
0210
0000
0000
0010
,
0310
1000
1001
2010
,
0000
0010
3010
0000
0001
0000
0100
1000
,
0200
0000
0000
1000
1300
0000
0001
0000
,
1001
0000
0201
0000
0000
0010
0310
0000
,
0001
0000
0100
0001
0020
0000
0000
0100
,
0130
1000
1010
0210
,
0000
0001
0301
0000
1000
0000
1000
0100
,
0020
0000
0000
0001
0031
0000
0001
1000
,
0001
0000
0001
0010
0100
1000
0200
0000
,
0010
0000
0310
0000
0001
0010
0100
1000
,
0200
0000
0010
0000
0310
0000
0001
0100
,
0010
1000
0200
0000
1000
0000
1300
0000
,
0001
0100
0010
1000
0200
0000
1300
0001
,
1000
0000
0001
1000
0100
1000
0002
0000
,
1003
0010
0100
0000
1000
0001
0100
0001
,
2000
0000
3001
0010
0100
0000
0010
0001
,
0010
0001
1000
0000
0010
1000
0100
0000
,
1000
0010
1000
0010
0100
0001
0010
0000
,
0000
0000
2200
0000
0000
3300
0000
0022
,
0000
0000
0033
0000
2200
0000
0000
3300
,
0000
0022
0000
0000
0033
0000
2000
0000
,
3020
0000
0032
0000
0023
0000
1030
0001
,
2002
0000
0000
0000
,
3003
0000
0000
0000
,
0000
0000
0000
0000
;

//---------------dance-single - ----------------
#NOTES:
     dance-single:
     :
     Hard:
     15:
     0.720134,0.835002,0.301529,0.301529,0.274468,652.000000,613.000000,39.000000,39.000000,0.000000,0.000000,0.720134,0.835002,0.301529,0.301529,0.274468,652.000000,613.000000,39.000000,39.000000,0.000000,0.000000:
0000
0000
0000
0000
,
0000
0000
0000
0000
,
0000
0000
0000
0000
,
0000
0000
0000
0000
,
0000
0000
0000
0000
,
0000
0000
0000
0000
,
0000
0000
0000
0000
,
1001
0100
0010
0001
0100
0010
1000
0100
,
1000
0000
0010
0000
0100
0000
0010
0000
1000
0100
1000
0000
0001
0000
0000
0000
,
0010
0100
0001
1000
0100
0010
0001
0100
,
0010
0000
1000
0000
0010
0000
0100
0000
0001
0100
0001
0000
0010
0000
0000
0000
,
0100
1000
0010
0100
0001
0010
0100
1000
,
0001
0000
0100
0000
0010
0000
1000
0000
0001
0010
0001
0000
1000
0000
0000
0000
,
0010
0100
0001
0010
0100
1000
0010
0100
,
0001
0000
0010
0000
0100
0000
1000
0000
0010
0100
0010
0000
1000
0000
0000
0000
,
0001
1000
0100
0010
0001
0100
0010
0001
,
1000
0000
0100
0000
0010
0000
0001
0000
0010
0001
0010
0000
1000
0000
0000
0000
,
0010
1000
0100
0010
0001
0100
0010
1000
,
0100
0000
0010
0000
1000
0000
0010
0000
0001
0100
0010
0000
1000
0000
0000
0000
,
0010
0100
1000
0001
0010
0100
1000
0010
,
0100
0000
0001
0000
0010
0000
0100
0000
1000
0010
1000
0000
0010
0000
0000
0000
,
0001
1000
0010
0100
1000
0010
0100
0001
,
0010
0000
0100
0000
1000
0000
0010
0000
0100
0001
0010
0000
0100
0000
0000
0000
,
2000
3200
0320
0032
,
0013
0000
0010
0001
0000
0001
1000
0000
1000
0100
0000
0000
,
0002
0203
0320
2030
,
3001
0010
0100
1000
0000
0000
0100
0000
0000
0110
0000
0000
,
0002
2003
3020
0230
,
0301
0010
0100
1000
0000
0000
0001
0010
0100
1000
0000
0000
,
2000
3020
0230
0302
,
1003
0100
0010
0001
0010
0100
1000
0001
0010
0100
0000
0000
,
1000
1000
0010
0100
0100
0010
0100
0010
,
1000
1100
2002
3003
,
1000
1000
0010
0100
0100
0010
0100
0010
,
1000
0000
0010
0100
0110
0000
1000
0000
,
0001
0001
0010
0100
0100
0010
0001
1000
,
0001
1100
2002
3003
,
0100
0100
0001
0100
0100
0010
0100
1000
,
0100
0000
0001
1000
1001
0000
0110
0000
,
1000
0010
1000
0001
0100
0010
0001
0010
,
1000
0100
0010
0001
0100
1000
0100
0000
,
0100
0010
1000
0010
0100
0001
0010
1000
,
0010
0100
0010
0001
0100
0010
0100
0000
,
0100
0001
0010
0001
0100
0010
1000
0001
,
0100
0010
1000
0100
0010
0100
0001
0000
,
0001
0100
0010
0001
0010
0100
1000
0010
,
0100
0001
0010
0100
0010
0001
0100
0000
,
0110
0000
0001
0010
0100
1000
0000
0000
,
1000
0000
0100
0000
0010
0000
0001
0000
0100
0010
0100
0000
0001
0000
0000
0000
,
1001
0000
0001
0100
0010
0100
1000
0100
,
0001
0000
1000
0000
0100
0000
0010
0000
0001
1000
0001
0000
0010
0000
0000
0000
,
1001
0000
0001
0010
0100
1000
0000
0000
,
1000
0000
0100
0000
0010
0000
0001
0000
0010
0100
0010
0000
0001
0000
0000
0000
,
1001
0000
0001
0100
0010
0100
1000
0100
,
0001
0000
1000
0000
0100
0000
0010
0000
0001
1000
0001
0000
1001
0000
0000
0000
,
2000
0010
3100
0002
0100
1003
0200
0010
,
0301
0000
0020
0000
0100
0000
1030
0000
1000
0010
1000
0000
1100
0000
0001
0010
,
0001
0000
0011
0000
0100
0020
0100
0000
0130
0000
1000
0001
0200
0000
0000
0000
,
0000
0000
0000
0000
0301
2000
0000
3002
0000
0003
0100
0010
0100
0010
1000
0000
,
0010
0100
0010
0100
0001
1000
0010
0100
,
0001
0000
1000
0000
0100
0000
0010
0000
0001
0000
0100
0000
0010
0000
0100
0010
,
1000
0001
0100
0000
0010
0000
0100
0000
0010
0000
1000
0000
0001
0000
0100
0000
,
0010
1000
0001
0010
0100
1000
0010
0100
,
0001
0000
0010
0000
0100
1000
0200
0000
1000
0000
0300
0000
1000
0001
2000
0000
,
0001
0000
3000
0000
0001
0010
0001
0000
0100
0010
0100
0000
0010
1000
0010
0000
,
1000
0100
1000
0000
0001
0000
1001
0000
0000
0000
1100
0000
1000
0000
0000
0000
,
1010
0000
0010
0100
0010
0110
0000
0101
,
0100
0000
0011
0000
0001
1000
0001
1001
,
0000
1100
0100
0000
0110
0000
0010
0001
,
0010
0011
0000
0101
0001
0000
1000
0000
,
1001
0000
0010
1010
0000
0101
0100
0010
,
1000
0000
0010
0010
0100
0101
0000
0110
,
0010
0000
1100
0000
0001
1000
0010
1010
,
0000
0110
0100
0000
0011
0000
0001
0001
,
1000
1100
0000
1001
0001
0000
0200
0000
,
0310
0010
1000
0100
0010
0001
1000
0100
,
0010
0001
0100
0000
0010
0000
1000
0000
0100
0000
0010
0000
0001
0000
0100
0000
,
0010
0000
1000
0000
0001
0010
0100
0000
1000
0000
0001
0000
0010
0000
0001
0010
,
0100
0000
1000
0000
0001
0000
0010
0000
0100
1000
0100
0000
1000
0000
0100
0000
,
0010
0000
0001
1000
0100
0000
0010
0000
0001
0000
0100
0000
0010
0100
0010
0000
,
0100
0001
1000
0001
0010
0001
1000
0001
,
0010
0100
1000
0000
0010
1000
0010
0000
0100
0000
0001
0000
0100
0000
0010
0000
,
0100
0000
1000
0000
0100
0010
0100
0000
0001
0010
0100
0000
1000
0000
0100
0000
,
1000
0000
0001
0000
1000
0000
0010
0000
1000
0001
0100
0000
0010
1000
0100
0000
,
0010
0000
0001
0100
0001
1000
0001
0000
1000
0010
1000
0001
1000
0000
0001
0000
,
1000
0000
0001
0000
1002
0000
0000
0000
0000
0000
0000
0000
0000
0000
1003
0100
,
0010
0001
0010
0100
1000
0100
0010
0001
0200
0000
0000
0000
0000
0000
0000
0000
,
0000
0000
0301
0010
0001
1000
0010
1000
0001
0010
0100
1000
0002
0000
0000
0000
,
0203
0000
0000
0000
2300
0000
0000
0000
3200
0000
0000
0000
0301
0010
0100
2000
,
0002
0000
0000
0000
,
3003
0000
0000
0000
,
0000
0000
0000
0000
;

//---------------dance-single - ----------------
#NOTES:
     dance-single:
     :
     Challenge:
     18:
     0.969751,1.410612,0.518010,0.688103,0.985766,878.000000,811.000000,67.000000,89.000000,0.000000,0.000000,0.969751,1.410612,0.518010,0.688103,0.985766,878.000000,811.000000,67.000000,89.000000,0.000000,0.000000:
0000
0000
0000
0000
,
0000
0000
0000
0000
,
0000
0000
0000
0000
,
0000
0000
0000
0000
,
0000
0000
0000
0000
,
0000
0000
0000
0000
,
0000
0000
0000
0000
,
0002
0000
0000
0203
0000
0320
0000
2030
,
0000
0000
0001
0200
0000
0000
3300
0000
,
0010
0000
0001
0000
0100
0000
0010
0000
1000
0100
0010
0000
0001
0000
1000
0000
,
0010
0000
0100
0000
1000
0000
0100
0000
0001
0010
0100
0000
1000
0000
0010
0000
,
2000
0000
0000
3200
0000
0320
0000
0032
,
0000
0000
1000
0200
0000
0303
1001
0000
,
0010
0000
0100
0000
0001
0000
1000
0000
0100
0010
0001
0000
0100
0000
1000
0000
,
0110
0000
0010
0000
1000
0100
0010
0000
0001
0100
0010
0000
1000
0000
1000
0000
,
0002
0000
0000
2003
0000
3002
0000
0023
,
0000
0000
0100
0200
0000
0000
0330
0000
,
0001
0000
0100
0000
0010
0000
0001
0000
0010
1000
0010
0000
0100
0000
0001
0000
,
1000
0000
0100
0000
0001
0000
0100
0000
0010
0001
0010
0000
0100
0000
0100
0000
,
2000
0000
0000
3002
0000
2003
0000
3020
,
0000
0000
0100
0200
0000
0330
1001
0000
,
0100
0000
0010
0000
1000
0000
0100
0000
0010
0001
1000
0000
0010
0000
0100
0000
,
1000
0000
0100
0000
0001
1000
0100
0000
0010
0001
1000
0000
0010
0000
0010
0000
,
1000
0100
0010
0100
0010
0001
0100
0010
1000
0001
0010
0100
,
1000
0100
0001
0100
1000
0001
0100
0010
1000
1001
0000
0000
,
0110
0010
1000
0100
0001
0100
1000
0010
0100
0001
0010
0100
,
0001
0100
1000
0001
0100
0010
1000
0001
0010
0110
0000
0000
,
1001
1000
0100
0010
1000
0010
0100
1000
0010
0100
1000
0100
,
0010
1000
0100
0010
1000
0010
0100
1000
0010
0110
0000
0000
,
0110
0100
0001
0010
0100
0001
0100
0010
0001
0100
0010
0001
,
0010
0100
0001
0010
0100
0001
0100
0010
0001
0100
0000
0000
,
0010
1000
0010
1000
0100
0000
0010
0000
0001
0100
0001
0000
1000
0100
1000
0000
,
0010
0000
0000
0000
0110
0000
0001
0000
1000
0010
0100
0000
0001
0000
0001
0000
,
0010
0001
0010
0001
0100
0000
0010
0000
1000
0100
1000
0000
0001
0100
0001
0000
,
0010
0000
0000
0000
0110
0000
1000
0000
0001
0010
0100
0000
1000
0000
1000
0000
,
0010
1000
0010
1000
0100
0000
0010
0000
0001
0100
0001
0000
1000
0100
1000
0000
,
0010
0000
0000
0000
0110
0000
0001
0000
1000
0010
1000
0000
0100
0000
0100
0000
,
0010
0001
0010
0001
0100
0000
0010
0000
1000
0100
1000
0000
0001
0100
0001
0000
,
0010
0000
0000
0000
0110
0000
1000
0000
0001
0010
0001
0000
0100
0000
0100
0000
,
0020
2030
3002
0203
0302
0023
0230
2300
,
3002
0203
2300
3200
0302
2003
3200
0320
,
0032
0203
2300
3200
0320
2030
3200
0302
,
0203
0320
0032
0203
0320
2030
3020
1030
,
2000
3002
0023
0032
0203
0320
2030
3002
,
0023
0230
0302
0203
2300
3020
0230
0302
,
2003
3200
0320
0032
0203
0302
0023
2030
,
3020
0032
2003
3020
0230
0302
2003
3010
,
1001
0000
0011
1100
1010
0101
0000
0000
,
1001
0000
1100
0000
0110
0000
1001
0000
0001
0010
0100
0000
1000
0010
0100
0001
,
0100
0000
1010
0101
0011
1100
1001
0101
,
1001
0000
1100
0000
0110
0000
0011
0000
1000
0100
1000
0000
0020
0000
0000
0000
,
0130
0000
1010
0101
0011
1100
0000
0000
,
1001
0000
0011
0000
1010
0000
1001
0000
0010
0100
0001
0000
1000
0100
0010
0001
,
0010
0000
1001
0110
1010
0011
1100
0101
,
0110
0000
1010
0000
1001
0000
0011
0000
0100
1000
0001
0000
1001
0000
0000
0000
,
0010
0000
1000
0000
0100
0000
0010
0000
0001
0000
1000
0000
0010
0000
0100
0000
0010
0000
1000
0000
0100
0000
0010
0000
0001
0000
0100
0010
0100
0000
0010
0000
,
1000
0001
1000
0000
0001
0000
0010
0000
0100
0000
1000
0000
0001
0100
0010
1000
0010
0000
1000
0000
0100
0000
0010
0000
0001
0000
0100
0000
0010
0000
1000
0000
,
0001
0000
0010
0000
0001
0000
0100
0000
0010
0000
1000
0000
0100
0010
0001
0100
0010
0000
1000
0001
1000
0000
0010
0000
0100
0000
0001
0010
0100
0000
1000
0000
,
0010
0000
0001
0000
0010
0000
1000
0000
0002
0000
0023
0000
0130
1000
0010
0100
0002
0000
0013
0000
0200
1000
0301
0000
0200
0001
1300
0000
0010
0000
0200
0000
,
0301
1000
0001
1000
0000
0100
0010
0000
,
0011
0000
0011
0000
0000
0000
1100
0000
0000
0000
0101
0000
0101
0000
1000
0001
,
0100
0010
1000
0000
0100
0000
1000
0000
0100
0000
0000
0000
0010
0000
0001
0000
,
0000
0101
0101
0000
0110
0000
1001
0001
,
1000
0000
1001
0000
1000
0100
0010
0000
0110
0000
0000
0000
0001
0100
0010
0000
,
0110
0000
0000
0000
1000
0100
0010
0001
1000
0010
0100
0001
1000
0100
0010
0001
,
1000
0010
0100
0001
1000
0000
0100
0000
1000
0010
1000
0100
0010
0100
1000
0001
,
0100
0010
1000
0000
0001
0000
0010
0000
0001
0000
0100
0000
0001
0010
0001
0100
,
0010
1000
0100
0010
0001
0100
0010
0000
1000
0000
0010
0000
0100
0000
0001
0000
,
1000
0100
1000
0100
0010
0001
0010
0100
1000
0010
0100
0000
0001
0000
1000
0000
,
0010
0000
0100
0000
0001
0010
0001
0100
0010
0100
0010
1000
0010
1000
0100
0010
,
1000
0010
0100
0000
1000
0010
1000
0100
0010
0001
0100
0001
1000
0000
0010
0100
,
0001
1000
0001
0010
0100
1000
0010
0000
0100
0001
0100
0001
1000
0010
1000
0100
,
0010
0000
0001
1000
0010
0100
0010
1000
0100
0010
0100
0000
1000
0001
1000
0001
,
0100
0001
0010
0001
1000
0000
0100
1000
0010
0100
0001
0010
0001
0100
0010
0000
,
1000
0000
0010
0000
0100
0000
0001
0000
1000
0000
0001
0000
1000
0001
1000
0000
,
0100
0010
0100
0000
1000
0000
0010
0000
0100
0000
0001
0000
0010
0100
0001
0100
,
1000
0100
0001
0100
0010
0000
0001
0000
1000
0000
0010
0000
0100
0000
0001
0000
,
0100
1000
0100
0001
0100
0010
0100
1000
0100
0000
0001
0000
0010
0000
0100
0000
,
1000
0000
0010
0000
0100
0000
0001
0000
0010
1000
0010
0000
0001
0100
0001
0000
,
1000
0000
0010
0000
0001
0010
1000
0000
0001
0100
0001
0100
0010
1000
0010
0000
,
0100
0000
0001
0000
1000
0000
0100
0000
0010
0001
1000
0010
0100
0000
0010
1000
,
0001
0010
0100
1000
0100
1000
0100
0000
1000
0000
0010
0000
0100
0001
1000
0100
,
0010
0000
0100
1000
0001
0100
0010
0100
0010
0100
0010
0000
1000
0000
0001
0000
,
0010
0001
0010
0000
0011
0000
0001
0000
1000
0000
0010
1000
0010
0000
1010
0000
,
0100
0000
0010
0000
1000
0100
1000
0000
1100
0000
0010
0000
0100
0000
0001
0100
,
0001
0000
0101
0000
0000
0010
1000
0100
0010
0001
0100
0010
0000
1000
0001
0100
,
0001
0010
0100
1000
0010
0100
0010
1000
0000
0001
0100
0010
1000
0001
0010
0100
,
0000
1000
0010
1000
0100
0010
0001
0100
0001
0010
0001
1000
0010
0100
0000
0001
,
0010
0000
0100
1000
0000
0010
0100
0000
0001
0100
0000
0010
1000
0000
0001
0010
,
0100
0000
0000
0000
;

//---------------dance-double - ----------------
#NOTES:
     dance-double:
     :
     Easy:
     6:
     0.238572,0.313126,0.038658,0.170093,0.000000,216.000000,211.000000,5.000000,22.000000,0.000000,0.000000,0.238572,0.313126,0.038658,0.170093,0.000000,216.000000,211.000000,5.000000,22.000000,0.000000,0.000000:
00000000
00000000
00000000
00000000
,
00000000
00000000
00000000
00000000
,
00000000
00000000
00000000
00000000
,
00000000
00000000
00000000
00000000
,
00000000
00000000
00000000
00000000
,
00000000
00000000
00000000
00000000
,
00000000
00000000
00000000
00000000
,
00011000
00000000
00001000
00000000
,
00000100
00000001
00000100
00000000
,
00001000
00000000
00010000
00000000
,
01000000
10000000
01000000
00000000
,
00010000
00000000
00001000
00000000
,
00000010
00000100
00001000
00000000
,
00010000
00000000
00001000
00000000
,
00100000
01000000
00010000
00000000
,
00001000
00000000
00000010
00000000
,
00000001
00000100
00001000
00000000
,
00010000
00000000
00100000
00000000
,
10000000
01000000
00010000
00000000
,
00001000
00000000
00000100
00000000
,
00000001
00000010
00001000
00000000
,
00010000
00000000
01000000
00000000
,
10000000
00100000
00010000
00000000
,
00002000
00000000
00003000
00010000
,
00000200
00000000
00000300
00001000
,
00000001
00000000
00000100
00000000
,
00001000
00000000
00000000
00000000
,
00020000
00000000
00030000
00001000
,
02000000
00000000
03000000
00010000
,
10000000
00000000
01000000
00000000
,
20020000
00000000
30030000
00000000
,
00010000
00010000
00001000
00000000
,
00000010
00000010
00000001
00000000
,
00000100
00000100
00000010
00000000
,
00001000
00001000
00000100
00000000
,
00001000
00001000
00010000
00000000
,
00100000
00100000
01000000
00000000
,
00010000
00010000
10000000
00000000
,
00010000
10000000
10010000
00000000
,
10000000
10000000
00100000
00100000
,
00010000
00000000
00001000
00000000
,
00000010
00000010
00000100
00000100
,
00000010
00000001
00000010
00000000
,
00001000
00001000
00000100
00000100
,
00001000
00000000
00010000
00000000
,
01000000
01000000
00010000
00010000
,
00100000
01000000
00100000
00000000
,
10000000
00000000
00010000
00000000
,
00000010
00000100
00000000
00000000
,
00000001
00000000
00001000
00000000
,
00100000
01000000
00000000
00000000
,
10000000
00000000
00010000
00000000
,
00000010
00000100
00000000
00000000
,
00000001
00000000
00001000
00000000
,
00100000
01000000
00000000
00000000
,
20020000
00000000
00000000
00000000
,
00000000
00000000
00000000
00000000
,
00000000
00000000
00000000
00000000
,
00000000
30030000
00000000
00000000
,
00010000
00010000
00001000
00001000
,
00000010
00000000
00000100
00000000
,
00000000
00010000
00000000
00010000
00000000
00001000
00000000
00001000
,
00000000
00100000
00000000
00000000
00000000
01000000
00000000
00000000
,
00000000
00001000
00000000
00010000
,
00000000
00001000
00010000
00100000
,
01000000
20000000
00000000
30000000
,
00100000
00100000
02000000
00000000
,
03000000
00100000
00100000
00020000
,
00000000
00030000
00100000
00100000
,
00002000
00000000
00000000
00013000
,
00000000
00002000
00000000
00003000
,
00000010
00000010
00000200
00000000
,
00000300
00000010
00000010
00000002
,
00000000
00000003
00000010
00000010
,
00020000
00000000
00000000
00031000
,
00000000
00001000
00010000
00001000
,
00010000
00001000
00100000
00001000
,
00100000
00010000
01000000
00010000
,
10000000
01000000
00100000
00010000
,
10000000
01000000
00100000
00010000
,
00010000
00100000
00001000
00100000
,
00001000
00010000
00001000
00010000
,
00000010
00010000
00000010
00001000
,
00000100
00001000
00000010
00000100
,
00000001
00000010
00000100
00001000
,
00000100
00000000
00020000
00000000
00000000
00030000
00000000
00002000
,
00000000
00000000
00003000
00000000
00020000
00000000
00000000
00030000
,
00000000
00002000
00000000
00000000
00003000
00000000
00000010
00000000
,
00000100
00010000
00001000
00010000
,
00022000
00000000
00000000
00000000
,
00033000
00000000
00000000
00000000
,
00000000
00000000
00000000
00000000
;

//---------------dance-double - ----------------
#NOTES:
     dance-double:
     :
     Medium:
     9:
     0.426337,0.452293,0.255139,0.123704,0.000000,386.000000,353.000000,33.000000,16.000000,0.000000,0.000000,0.426337,0.452293,0.255139,0.123704,0.000000,386.000000,353.000000,33.000000,16.000000,0.000000,0.000000:
00000000
00000000
00000000
00000000
,
00000000
00000000
00000000
00000000
,
00000000
00000000
00000000
00000000
,
00000000
00000000
00000000
00000000
,
00000000
00000000
00000000
00000000
,
00000000
00000000
00000000
00000000
,
00000000
00000000
00000000
00000000
,
00000010
00000100
00001000
00000100
,
00000010
00000000
00000001
00001000
00000000
00001000
00000010
00000000
,
00000100
00001000
00010000
00100000
,
00010000
10000000
00010000
00000000
,
01000000
00100000
00010000
01000000
,
00100000
00000000
10000000
00010000
00000000
00010000
01000000
00000000
,
00100000
00010000
00001000
00000010
,
00000100
00000001
00001000
00000000
,
00001001
00000000
00000000
00001100
00000000
00000000
00011000
00000000
,
00001000
00000000
00100000
00010000
00000000
00010000
01000000
00000000
,
00100000
10000000
00010000
00100000
,
00010000
00001000
00000100
00000000
,
00000010
00000001
00000010
00001000
,
00000010
00000000
00010000
00000000
00001000
00010000
00001000
00000000
,
00010000
01000000
10000000
00100000
,
00010000
10000000
10010000
00000000
,
10000000
01000000
00010000
10000000
,
00100000
00010000
00001000
00000100
,
00000001
00001000
00000010
00000001
,
00000100
00000010
00000100
00000000
00000110
00000000
00000000
00000000
,
00001000
00000100
00000001
00001000
,
00000010
00000001
00000010
00000100
,
00001000
00010000
00100000
10000000
,
00010000
01100000
10010000
00000000
,
10000000
01000000
10000000
00000000
00010000
01000000
00010000
00000000
,
00100000
00110000
00101000
00000000
,
00001000
00011000
00001000
00000100
,
00000010
00000110
00000110
00000000
,
00000001
00000010
00000001
00000000
00001000
00000010
00001000
00000000
,
00000100
00001100
00010100
00000000
,
00010000
00011000
00010000
00100000
,
01000000
00100000
01000000
00100000
01000000
00000000
00000000
00000000
,
10000000
01000000
00010000
00000000
10000000
01000000
00010000
00000000
,
01000000
10000000
00100000
00010000
,
00001000
00000100
00000001
00000000
00001000
00000100
00000001
00000000
,
00000100
00001000
00000010
00000001
,
00001000
00000100
00010000
00000000
00001000
00000100
00010000
00000000
,
00001000
00010000
00100000
01000000
,
00001000
00100000
00010000
00000000
00001000
00100000
00010000
00000000
,
10000000
01000000
00010000
00001000
,
00011000
00000000
00000010
00000000
00000010
00000100
00000000
00000000
,
00000001
00000100
00000010
00001000
00000000
00000000
00000000
00000000
,
00011000
00000000
00100000
00000000
00100000
01000000
00000000
00000000
,
10000000
01000000
00100000
00010000
00000000
00000000
00000000
00000000
,
00010100
00000000
00001000
00000000
00001000
00000100
00000000
00000000
,
00000001
00000100
00001000
00010000
00000000
00000000
00000000
00000000
,
00101000
00000000
00010000
00000000
00010000
01000000
00100000
00000000
,
10000000
01000000
00100000
00010000
00000000
00000000
00000000
00000000
,
00011000
00000000
00000000
01100000
00000000
00000000
00011000
00000000
,
00000000
00000110
00000000
00000000
00011000
00000000
00000000
01100000
,
00000000
00002000
00000000
00020000
,
00000000
00033000
00000000
00000000
,
00010000
00000000
00001000
00000000
00100000
00000000
00010000
00100000
,
01000000
00000000
10000000
00000000
00100000
10000000
00010000
00200000
,
00000000
00000000
00000000
00000000
00000000
00000000
00000000
00000000
00000000
00000000
00000000
00000000
00000000
00000000
00000000
00000000
00000000
00000000
00000000
00000000
00000000
00000000
00000000
00300000
00001000
00000000
00000000
00000000
00000000
00000000
00000000
00000000
00000000
00000000
00000000
00000000
00000000
00000000
00000000
00000000
00000000
00000000
00000000
00000000
00000000
00000000
00000000
00000000
00000000
00000000
00000000
00000000
00000000
00000000
00000000
00000000
00000000
00000000
00000000
00000000
00000000
00000000
00000000
00000000
00000000
00000000
00000000
00000000
00000000
00000000
00000000
00000000
00010000
00000000
00000000
00000000
00000000
00000000
00000000
00000000
00000000
00000000
00000000
00000000
00000000
00000000
00000000
00000000
00000000
00000000
00000000
00000000
00000000
00000000
00000000
00000000
00000000
00000000
00000000
00000000
00000000
00000000
00000000
00000000
00000000
00000000
00000000
00000000
00000000
00000000
00000000
00000000
00000000
00000000
00000000
00000000
00000000
00000000
00000000
00000000
00000010
00000000
00000000
00000000
00000000
00000000
00000000
00000000
00000000
00000000
00000000
00000000
00000000
00000000
00000000
00000000
00000000
00000000
00000000
00000000
00000000
00000000
00000000
00000000
00000000
00000000
00000000
00000000
00000000
00000000
00000000
00000000
00000000
00000000
00000000
00000000
00000000
00000000
00000000
00000000
00000000
00000000
00000000
00000000
00000000
00000000
00000000
00000000
00001000
00000000
00000000
00000000
00000000
00000000
00000000
00000000
00000000
00000000
00000000
00000000
00000000
00000000
00000000
00000000
00000000
00000000
00000000
00000000
00000000
00000000
00000000
00000000
,
00000010
00000100
00000000
00000001
00000000
00000010
00000001
00001000
,
00000020
00000130
00000100
00000010
,
00000100
00000000
00000001
00000100
00001000
00010000
01000000
00000000
,
10000000
00000000
20010000
00000000
00000000
30010000
00010000
00000000
,
00010000
00000000
01000000
00100000
02000000
00000000
00000000
00010000
,
03010000
00000000
00100000
00000000
00001000
00010000
00002000
00000000
,
00000000
00100000
00103000
00000000
00010000
00000000
00000100
00001000
,
00000200
00000000
00000000
00000010
00000310
00000000
00000001
00000000
,
00001001
00000000
00000100
00000100
00000000
00000001
00000100
00000000
,
00000010
00000000
00001000
00000000
00010000
00010000
00000000
00100000
,
01000000
00000000
00010000
00000000
00100000
00000000
01000000
01000000
,
00000000
10000000
01000000
00000000
00100000
00000000
01000000
00000000
,
00100000
00100000
00000000
10000000
00010000
00000000
01000000
00000000
,
10010000
00000000
10000000
00000000
00100000
01000000
00100000
00000000
,
00010000
00100000
00010000
00000000
00001000
00000000
00010000
00001000
,
00010000
00000000
00000100
00001000
00000100
00000000
00000010
00000000
,
00000001
00001000
00000001
00000000
00000010
00000100
00000010
00000000
,
00001000
00000000
00000100
00010000
00000100
00000000
00001000
00000000
,
00010000
00000000
00001000
00010000
00000000
00010000
00100000
00000000
,
01000000
00010000
10000000
00000000
10000000
01000000
00000000
01000000
,
00010000
00000000
00001000
00010000
00000100
00000000
00000010
00000001
,
00000000
00000001
00000100
00000000
00000001
00000010
00000100
00000000
,
00001000
00000100
00000000
00000100
00010000
00000000
00011000
00000000
,
00011000
00000000
02000000
00000000
00000000
03000000
00000000
00022000
,
00000000
00000000
00033000
00000000
02000000
00000000
00000000
03000000
,
00000000
00022000
00000000
00000000
00033000
00000000
00000010
00000000
,
00000001
00000000
00000100
00000000
00001000
00000000
00010000
00001000
,
00022000
00000000
00000000
00000000
,
00033000
00000000
00000000
00000000
,
00000000
00000000
00000000
00000000
;

//---------------dance-double - ----------------
#NOTES:
     dance-double:
     :
     Hard:
     14:
     0.662700,0.730627,0.286066,0.162362,0.150764,600.000000,563.000000,37.000000,21.000000,0.000000,0.000000,0.662700,0.730627,0.286066,0.162362,0.150764,600.000000,563.000000,37.000000,21.000000,0.000000,0.000000:
00000000
00000000
00000000
00000000
,
00000000
00000000
00000000
00000000
,
00000000
00000000
00000000
00000000
,
00000000
00000000
00000000
00000000
,
00000000
00000000
00000000
00000000
,
00000000
00000000
00000000
00000000
,
00000000
00000000
00000000
00000000
,
00010000
00001000
00000100
00000010
00001000
00000001
00000100
00000001
,
00000010
00000100
00001000
00000001
00000100
00000100
00000001
00000000
,
00001000
00000100
00010000
00001000
00010000
00000010
00010000
00001000
,
00100000
00010000
00100000
01000000
10000000
10000000
00100000
00000000
,
01000000
00010000
10000000
01000000
00100000
00001000
00010000
00001000
,
00100000
00010000
01000000
00001000
00010000
00010000
00001000
00000000
,
00010000
00001000
00010000
00000100
00000010
00000001
00000100
00001000
,
00010000
00001000
00010000
00000100
00010000
00010000
00001000
00000000
,
00010000
00001000
00010000
00100000
10000000
00100000
01000000
00010000
,
10000000
01000000
00010000
00001000
00010000
00010000
00001000
00000000
,
00001000
00010000
00001000
00000100
00000010
00001000
00000010
00000100
,
00000001
00000010
00001000
00010000
00001000
00001000
00010000
00000000
,
00001000
00010000
00001000
00100000
00010000
01000000
00100000
01000000
,
00010000
10000000
01000000
00010000
00001000
00001000
00010000
00000000
,
00010000
00001000
00000100
00000010
00000100
00000001
00000100
00000010
,
00001000
00000001
00000010
00001000
00010000
00010000
00001000
00000000
,
00010000
00001100
00010000
00001010
,
00000001
00000000
00000001
00000100
00000000
00000100
00001000
00000000
00001000
00010000
00000000
00000000
,
00100000
00011000
01000000
00011000
,
00001000
00000000
00001000
00100000
00000000
00100000
00010000
00000000
00000000
10000000
00000000
00000000
,
00010000
11000000
00010000
11000000
,
00100000
00001000
00010000
01000000
00000000
00000000
00100000
00001000
00010000
01000000
00000000
00000000
,
00200000
00320000
02030000
03002000
,
00013000
00000000
00010000
00000010
00000000
00000010
00000100
00000001
00000010
00001000
00000000
00000000
,
00001000
00001000
00100000
00001000
00001000
01000000
00010000
01000000
,
00100000
01000000
10010000
00000000
,
10000000
10000000
00100000
10000000
10000000
01000000
00100000
00010000
,
00001000
00010000
00011000
00000000
,
00010000
00010000
00000010
00010000
00010000
00000100
00001000
00000001
,
00000100
00000010
00001001
00000000
,
00000001
00000001
00000100
00000001
00000001
00000010
00000100
00010000
,
00001000
00000000
00010000
00001000
00011000
00000000
00000000
00000000
,
00001000
00100000
00010000
01000000
00100000
10000000
00010000
00100000
,
10000000
00010000
01000000
00100000
00001000
00010000
01000000
00000000
,
01000000
10000000
00010000
00100000
00001000
00010000
00000100
00001000
,
00000001
00000100
00000010
00001000
00000001
00000100
00001000
00000000
,
00001000
00010000
00100000
01000000
00010000
00100000
00001000
00010000
,
01000000
00100000
00010000
01000000
00100000
01000000
00010000
00000000
,
00010000
10000000
01000000
00100000
00001000
00010000
00001000
00010000
,
00000010
00000100
00000001
00000010
00000100
00001000
00000100
00000000
,
00001001
00000000
00000001
00000010
00000100
00001000
00000000
00000000
,
00010000
00000000
00001000
00000000
00000100
00000000
00000010
00000000
00001000
00000001
00001000
00000000
00000010
00000000
00000000
00000000
,
00000100
00000000
00000001
00000010
00000100
00001000
00000010
00000100
,
00001000
00000000
00010000
00000000
00100000
00000000
00100000
00000000
01000000
00100000
01000000
00000000
00100000
00000000
00000000
00000000
,
10010000
00000000
00010000
00100000
01000000
10000000
00000000
00000000
,
01000000
00000000
00100000
00000000
00001000
00000000
00010000
00000000
00001000
00010000
00001000
00000000
00010000
00000000
00000000
00000000
,
00011000
00000000
00000010
00010000
00001000
00010000
00000100
00010000
,
00001000
00000000
00000100
00000000
00000010
00000000
00000010
00000000
00000100
00000010
00000100
00000000
00000010
00000000
00000000
00000000
,
00001002
00000000
00000100
00000000
00001003
00000010
00000200
00000000
00000010
00000000
00000301
00000010
00002000
00000000
00010000
00000000
,
00103000
00010000
00200000
00000000
00000000
00000000
00300000
00000000
20010000
00000000
01000000
00000000
30100000
01000000
00002000
00000000
,
00100000
00000000
00013000
00000000
00000000
00002000
00000000
00000000
00000000
00000000
00000000
00000000
00020000
00000000
00000000
00000000
,
00033000
00000000
00000000
00000000
00000000
00010000
00000000
00001000
00000000
00000000
00010000
00000100
00010000
00000000
00000010
00000000
,
00001000
00000001
00001000
00000001
00000100
00000100
00000001
00000100
,
00000010
00000000
00001000
00000000
00000100
00000000
00010000
00000000
00001000
00000000
00100000
00000000
00010000
00000000
01000000
00100000
,
01000000
00010000
10000000
00010000
10000000
01000000
01000000
10000000
,
01000000
00100000
00010000
01000000
00001000
00010000
00000100
00001000
,
00000010
00000000
00000010
00000000
00000100
00000001
00000200
00000000
00000001
00000000
00000300
00000000
00000010
00001000
00000020
00000000
,
00001000
00000000
00000030
00000000
00010000
00001000
00010000
00000000
00001000
00100000
00001000
00000000
00100000
00010000
00100000
00000000
,
00010000
10000000
00010000
00000000
01000000
00000000
01000000
00000000
00000000
00000000
11000000
00000000
10000000
00000000
00000000
00000000
,
10100000
00000000
00100000
01000000
00100000
00100000
00000000
01010000
,
01000000
00000000
00110000
00000000
00010000
00000000
00001000
00011000
,
00000000
00010100
00000100
00000000
00001100
00000000
00000010
00000001
,
00000010
00000011
00000000
00000101
00000100
00000000
00001000
00000000
,
00001001
00000000
00000010
00001010
00000000
00010100
00000100
00010000
,
00001000
00000000
00100000
00100000
00001000
00011000
00000000
00101000
,
00100000
00000000
10010000
00000000
00010000
10000000
00100000
10100000
,
00000000
11000000
10000000
00000000
10010000
00000000
00100000
00100000
,
00010000
00110000
00000000
00011000
00010000
00000000
00001000
00010000
,
01000000
00000000
10000000
01000000
00100000
00010000
00001000
00010000
,
00100000
01000000
00100000
00010000
01000000
00100000
00010000
00001000
,
00000100
00000010
00000100
00001000
00010000
00000010
00000100
00001000
,
00000100
00000010
00000001
00000010
00010000
00001000
00000100
00000010
,
00000100
00001000
00010000
00100000
01000000
10000000
01000000
00100000
,
00010000
00001000
00010000
00000100
00010000
00001000
00010000
00000010
,
00010000
00001000
00100000
00001000
00010000
00001000
01000000
00001000
,
00010000
00000010
00010000
00001000
00010000
00100000
10000000
01000000
,
00100000
00010000
01000000
00100000
00010000
00001000
00010000
00000100
,
00000010
00000001
00000100
00001000
00010000
00100000
10000000
01000000
,
00100000
00001000
00020000
00000000
00000000
00000000
00030000
00000220
,
00000000
00000000
00000000
00000330
00002000
00000000
00000000
00000000
,
00003000
00000000
02200000
00000000
00000000
00000000
00000000
00000000
00000000
00000000
03300000
00000000
00010000
10000000
00000000
01000000
,
10000000
00000000
10000000
00010000
00000000
00100000
00010000
00000000
00100000
00001000
00000000
00010000
00000100
00000000
00001000
00000010
,
00000200
00000000
00000000
00000000
,
00000300
00000000
00000000
00000000
,
00000000
00000000
00000000
00000000
;

//---------------dance-double - ----------------
#NOTES:
     dance-double:
     :
     Challenge:
     18:
     0.936616,1.410612,0.471622,0.688103,0.912317,848.000000,787.000000,61.000000,89.000000,0.000000,0.000000,0.936616,1.410612,0.471622,0.688103,0.912317,848.000000,787.000000,61.000000,89.000000,0.000000,0.000000:
00000000
00000000
00000000
00000000
,
00000000
00000000
00000000
00000000
,
00000000
00000000
00000000
00000000
,
00000000
00000000
00000000
00000000
,
00000000
00000000
00000000
00000000
,
00000000
00000000
00000000
00000000
,
00000000
00000000
00000000
00000000
,
00000002
00000000
00000000
00000023
00000000
00000230
00000000
00020300
,
00000000
00000000
00001000
00002000
00000000
00000000
00033000
00000000
,
00001000
00000100
00001000
00010000
00100000
01000000
00001000
00010000
,
01000000
10000000
01000000
00010000
00001000
00010000
01000000
00000000
,
20000000
00000000
00000000
30200000
00000000
02300000
00000000
03002000
,
00000000
00000000
00010000
00020000
00000000
00033000
00011000
00000000
,
00010000
01000000
00010000
00001000
00000010
00000100
00010000
00001000
,
00000100
00000001
00000100
00001000
00010000
00001000
00000100
00000100
,
00000002
00000000
00000000
00000203
00000000
00000320
00000000
00020030
,
00000000
00000000
00001000
00002000
00000000
00000000
00033000
00000000
,
00001000
00000000
00000010
00000000
00001000
00000000
00010000
00000000
01000000
00100000
01000000
00000000
00010000
00000000
00001000
00000000
,
00100000
00000000
00010000
00000000
10000000
00000000
01000000
00000000
00100000
00001000
00010000
00000000
00100000
00000000
00000000
00000000
,
20000000
00000000
00000000
32000000
00000000
03200000
00000000
00302000
,
00000000
00000000
00010000
00020000
00000000
00033000
00011000
00000000
,
00010000
00000000
00100000
00000000
00010000
00000000
00001000
00000000
00000100
00000010
00000100
00000000
00001000
00000000
00010000
00000000
,
00000010
00000000
00001000
00000000
00000001
00000010
00000100
00000000
00010000
00001000
00010000
00000000
00100000
00000000
00100000
00000000
,
10000000
01000000
00100000
01000000
00100000
00010000
00100000
00010000
00001000
00010000
00001000
00000100
,
00001000
00000100
00000010
00000100
00000010
00000001
00000100
00000010
00001000
00001001
00000000
00000000
,
00001001
00000001
00000100
00000010
00000100
00001000
00000100
00001000
00010000
00001000
00010000
00100000
,
00010000
00100000
01000000
00100000
01000000
10000000
01000000
00010000
10000000
10010000
00000000
00000000
,
10010000
10000000
01000000
00100000
10000000
00100000
01000000
10000000
00100000
01000000
10000000
01000000
,
00100000
10000000
01000000
00010000
00001000
00000010
00000001
00000100
00000010
00000110
00000000
00000000
,
00001001
00000001
00000100
00000010
00000001
00000010
00000100
00000001
00000010
00000100
00000001
00000100
,
00000010
00000001
00000100
00001000
00010000
00100000
10000000
01000000
00100000
01100000
00000000
00000000
,
00010000
01000000
00010000
01000000
00100000
00000000
10000000
00000000
01000000
00000000
01000000
00000000
00010000
00000000
00010000
00000000
,
00001000
00000000
00000000
00000000
00000110
00000000
00000001
00000000
00000010
00000100
00001000
00000000
00000001
00000000
00000000
00000000
,
00000001
00000100
00000001
00000100
00000010
00000000
00000100
00000000
00001000
00000000
00001000
00000000
00010000
00000000
00010000
00000000
,
00100000
00000000
00000000
00000000
10010000
00000000
00100000
00000000
01000000
00010000
10000000
00000000
00010000
00000000
00000000
00000000
,
00010000
00100000
00010000
00100000
01000000
00000000
10000000
00000000
00100000
00000000
00100000
00000000
00010000
00000000
00010000
00000000
,
00001000
00000000
00000000
00000000
00000110
00000000
00000001
00000000
00000100
00000010
00001000
00000000
00000001
00000000
00000000
00000000
,
00000001
00000010
00000001
00000010
00000100
00000000
00000010
00000000
00001000
00000000
00001000
00000000
00010000
00000000
00010000
00000000
,
01000000
00000000
00000000
00000000
10010000
00000000
01000000
00000000
00100000
00010000
10000000
00000000
00010000
00000000
00010000
00000000
,
20000000
30200000
02300000
03020000
00230000
00320000
20030000
32000000
,
03020000
00032000
00203000
00302000
00003020
00000230
00020300
00032000
,
00003200
00000302
00000023
00002030
00003020
00000230
00020300
00032000
,
02003000
03020000
00230000
00302000
00023000
00030020
00000230
00000302
,
00000023
00000032
00000203
00000302
00000023
00000230
00020300
00032000
,
00003200
00000320
00000230
00002300
00023000
00230000
02300000
03020000
,
20030000
32000000
03020000
02030000
03200000
00302000
00023000
00030200
,
00002300
00003020
00002030
00003200
00000320
00000032
00002003
00003010
,
00001001
00000000
00001010
00001010
00001100
00001100
00000000
00000000
,
01010000
00000000
01010000
00000000
00110000
00000000
00110000
00000000
00100000
01000000
10000000
00000000
00010000
01000000
00010000
01000000
,
00010000
00000000
10100000
10100000
00010000
00010000
00011000
00011000
,
00000100
00000000
00001100
00000000
00000010
00000000
00000011
00000000
00000100
00000010
00000100
00000000
00001000
00000000
00000000
00000000
,
00010000
00000000
01100000
01100000
10100000
10100000
00000000
00000000
,
01001000
00000000
01001000
00000000
00011000
00000000
00011000
00000000
00000100
00001000
00000010
00000000
00000100
00000001
00000100
00000001
,
00000100
00000000
00000011
00000011
00001000
00001000
00010100
00010100
,
00011000
00000000
00110000
00000000
01010000
00000000
01100000
00000000
00100000
10000000
00010000
00000000
10010000
00000000
00000000
00000000
,
00100000
00000000
10000000
00000000
00100000
00000000
10000000
00000000
01000000
00000000
00100000
00000000
00001000
00000000
00010000
00000000
00001000
00000000
00010000
00000000
00000100
00000000
00001000
00000000
00000010
00000000
00000100
00000010
00000100
00000000
00000001
00000000
,
00001000
00000001
00001000
00000000
00000010
00000000
00001000
00000000
00000100
00000000
00000010
00000000
00000100
00010000
00001000
00010000
00001000
00000000
00100000
00000000
00010000
00000000
00100000
00000000
01000000
00000000
10000000
00000000
00100000
00000000
01000000
00000000
,
00100000
00000000
01000000
00000000
00010000
00000000
10000000
00000000
01000000
00000000
00100000
00000000
00001000
00010000
00000010
00001000
00000010
00000000
00000100
00000010
00000100
00000000
00000001
00000000
00000100
00000000
00001000
00010000
00001000
00000000
00100000
00000000
,
00010000
00000000
01000000
00000000
10000000
00000000
01000000
00000000
00020000
00000000
00230000
00000000
01300000
10000000
01000000
00100000
00020000
00000000
00130000
00000000
00002000
00010000
00003010
00000000
00000200
00000010
00001300
00000000
00000001
00000000
00002000
00000000
,
00003001
00000010
00000001
00000010
00000000
00000100
00001000
00000000
,
00010100
00000000
00010100
00000000
00000000
00000000
00011000
00000000
00000000
00000000
00101000
00000000
00101000
00000000
00100000
00010000
,
01000000
00100000
10000000
00000000
01000000
00000000
10000000
00000000
01000000
00000000
00000000
00000000
00100000
00000000
00001000
00000000
,
00000000
00011000
00011000
00000000
00010010
00000000
00000110
00000010
,
00001000
00000000
00001001
00000000
00000001
00000010
00000100
00000000
00000110
00000000
00000000
00000000
00000010
00001000
00010000
00000000
,
00011000
00000000
00000000
00000000
00100000
00010000
00100000
00010000
10000000
01000000
10000000
01000000
00100000
00001000
00010000
00001000
,
00010000
00000100
00001000
00000010
00000100
00000000
00000001
00000000
00000010
00000100
00000010
00000000
00000001
00000100
00000010
00001000
,
00000100
00001000
00000100
00000000
00010000
00000000
00001000
00000000
00100000
00000000
01000000
00000000
10000000
01000000
10000000
00000000
,
00100000
01000000
00100000
10000000
01000000
00100000
00010000
00000000
00100000
00000000
00001000
00000000
00010000
00000000
00000010
00000000
,
00000100
00000001
00000100
00000010
00001000
00000010
00000100
00000001
00000100
00000010
00000100
00000000
00000001
00000000
00000010
00000000
,
00000100
00000000
00001000
00000000
00000010
00001000
00000010
00010000
00001000
00010000
00001000
01000000
00010000
01000000
00100000
10000000
,
01000000
00100000
01000000
00000000
10000000
00000000
00010000
00000000
01000000
00010000
01000000
00010000
00100000
00000000
00001000
00010000
,
00001000
00010000
00000100
00001000
00000100
00001000
00000010
00000000
00000100
00000001
00000100
00000000
00000001
00000010
00000001
00001000
,
00000100
00000000
00001000
00000010
00001000
00000100
00010000
00001000
00010000
00001000
00100000
00000000
00010000
10000000
00010000
00100000
,
00010000
01000000
00010000
00100000
00010000
00000000
00001000
00000001
00001000
00000010
00001000
00000100
00001000
00000010
00001000
00000000
,
00010000
00000000
01000000
00000000
00100000
00000000
10000000
00000000
01000000
00000000
00100000
00000000
00010000
10000000
00010000
00000000
,
10000000
00000000
01000000
00000000
00010000
00000000
00001000
00000000
00000010
00000000
00000001
00000000
00000100
00000010
00000100
00000001
,
00000100
00000010
00000100
00001000
00000100
00000000
00000010
00000000
00010000
00000000
00001000
00000000
00100000
00000000
00010000
00000000
,
01000000
00100000
01000000
10000000
01000000
00100000
01000000
00010000
01000000
00000000
00100000
00000000
00010000
00000000
00001000
00000000
,
00000100
00000000
00000010
00000000
00001000
00000000
00000100
00000000
00000001
00000100
00000001
00000000
00000100
00001000
00000100
00000000
,
00001000
00000000
00000010
00000000
00000100
00000001
00000010
00000000
00000100
00010000
00000100
00010000
00001000
00010000
00001000
00000000
,
01000000
00000000
00010000
00000000
00100000
00000000
01000000
00000000
00100000
00010000
01000000
00010000
00100000
00000000
01000000
10000000
,
00100000
01000000
00100000
01000000
00100000
00010000
00100000
00000000
00010000
00000000
00001000
00000000
00000100
00000001
00000010
00000001
,
00000100
00000000
00000010
00001000
00000010
00001000
00000010
00000100
00000010
00000100
00000010
00000000
00001000
00000000
00000100
00000000
,
00010000
00001000
00010000
00000000
00011000
00000000
00100000
00000000
00010000
00000000
01000000
00100000
01000000
00000000
01010000
00000000
,
10000000
00000000
01000000
00000000
00100000
00010000
00100000
00000000
00110000
00000000
00001000
00000000
00010000
00000000
00000010
00001000
,
00000010
00000000
00001010
00000000
00000000
00000001
00000010
00000001
00000100
00000010
00000100
00000010
00000000
00010000
00000100
00010000
,
00001000
01000000
00001000
01000000
00010000
01000000
00010000
01000000
00000000
00100000
10000000
00100000
01000000
00100000
01000000
00100000
,
00000000
00010000
00001000
00010000
00000010
00010000
00000010
00010000
00000100
00001000
00000100
00001000
00000010
00000100
00000000
00000001
,
00000100
00000000
00001000
00010000
00000000
00100000
01000000
00000000
10000000
01000000
00000000
00010000
00100000
00000000
00001000
00010000
,
00000100
00000000
00000000
00000000
;

//---------------dance-single - Edit----------------
#NOTES:
     dance-single:
     :
     Edit:
     19:
     1.296683,1.504357,0.572131,0.904586,1.967667,1174.000000,1100.000000,74.000000,117.000000,0.000000,0.000000,1.296683,1.504357,0.572131,0.904586,1.967667,1174.000000,1100.000000,74.000000,117.000000,0.000000,0.000000:
// measure 0
0000
0000
0000
0000
,  // measure 1
0000
0000
0000
0000
,  // measure 2
0000
0000
0000
0000
,  // measure 3
0000
0000
0000
0000
,  // measure 4
0000
0000
0000
0000
,  // measure 5
0000
0000
0000
0000
,  // measure 6
0000
0000
0000
0000
,  // measure 7
1000
0001
0100
0001
0010
0000
0001
0010
0100
1000
0100
0000
1000
0100
0010
0001
,  // measure 8
0100
0000
0010
0000
0110
0000
0010
0100
1000
0001
0100
0010
0100
1000
0100
0010
,  // measure 9
0001
1000
0010
0100
1000
0010
0100
0001
1000
0100
0010
0001
0010
0100
1000
0010
,  // measure 10
0100
0000
0001
0000
0101
0000
0100
0000
1100
0000
1000
0100
0001
0000
0101
0000
,  // measure 11
0001
0010
0100
1000
0010
0000
1000
0010
0001
0100
1000
0000
0010
0100
0001
1000
,  // measure 12
0100
0000
0001
0000
1001
0000
0001
0100
0010
1000
0001
0010
0100
0000
1001
0000
,  // measure 13
0001
0100
0010
1000
0001
0010
0100
1000
0100
0010
0001
0100
0010
1000
0100
0010
,  // measure 14
0001
0000
0010
0000
0011
0000
0010
0000
0110
0000
0100
0001
0100
0000
0110
0000
,  // measure 15
1000
0100
0010
0100
1000
0000
0010
0100
1000
0100
0010
0000
1000
0100
0010
0001
,  // measure 16
0010
0000
0100
0000
0110
0000
0010
1000
0001
0100
0010
1000
0001
0010
0100
1000
,  // measure 17
0100
0010
0001
0100
0010
1000
0001
0010
0100
1000
0010
0100
0001
1000
0100
0010
,  // measure 18
0001
0000
0100
0000
0101
0000
0100
0000
0110
0000
1000
0100
0001
0000
1001
0000
,  // measure 19
1000
0010
0100
0001
1000
0000
0100
0001
1000
0100
0010
0000
0010
0001
1000
0001
,  // measure 20
0010
0000
0100
0000
0101
0000
0001
0010
0100
1000
0100
0010
0001
0000
0011
0000
,  // measure 21
0001
1000
0100
0010
0001
0010
0100
1000
0010
0001
0010
0100
1000
0100
0010
0001
,  // measure 22
1000
0100
1100
0100
0110
0100
1000
0010
,  // measure 23
0001
0010
0001
0010
0100
1000
0100
1000
0010
0100
0001
1000
,  // measure 24
0100
0010
0100
0000
0010
0000
0001
0010
0001
0000
0010
0000
0100
0010
0100
0000
1000
0000
0001
1000
0001
0000
1000
0000
,  // measure 25
0100
0010
0001
0010
0100
1000
0001
0010
0100
1000
0010
0100
,  // measure 26
1000
0100
0010
0000
0001
0000
1000
0100
0001
0000
0010
0000
1000
0010
0001
0000
0100
0000
1000
0000
0000
0000
0000
0000
,  // measure 27
1000
0100
0010
0100
1000
0100
0010
0100
1000
0100
0010
0100
,  // measure 28
1000
0010
0100
1000
0010
0100
1000
0100
0010
1000
0100
0010
,  // measure 29
0001
0010
0100
0010
0001
0010
0100
0010
0001
0010
0100
0010
,  // measure 30
0001
0100
0100
0001
0010
0100
0001
0100
0010
0001
0100
0010
,  // measure 31
0001
0010
0100
1000
0001
0100
0010
0001
1000
0010
0100
0001
1000
0100
0010
0100
,  // measure 32
0002
0010
0100
1000
0100
0010
0103
0000
,  // measure 33
1000
0010
1000
0010
0100
0001
0100
0001
1000
0100
1000
0100
0010
0001
0010
0001
,  // measure 34
0200
0010
0001
0010
1000
0010
0301
0000
,  // measure 35
0001
0010
0100
1000
0010
1000
0100
0010
1000
0001
0100
0010
0001
1000
0010
0100
,  // measure 36
0020
1000
0100
0001
0100
1000
0031
0000
,  // measure 37
1000
0010
0100
0001
1000
0100
0001
0100
1000
0010
0100
0001
0010
0100
1000
0000
,  // measure 38
2000
0100
0010
3001
2000
0100
0010
3001
,  // measure 39
2000
3200
0320
0030
0002
0003
0020
0030
0200
0300
2000
3000
0020
0230
0302
0003
0020
0030
0002
0003
0200
0300
2000
3000
0020
0230
2300
3000
0002
0003
0200
0300
,  // measure 40
0020
0030
0002
0003
2000
3200
0320
0030
0002
0000
0000
0000
0000
0000
0000
0000
0023
0000
0000
0000
1000
0000
0000
0000
0130
0000
0000
0000
0000
0000
0000
0000
,  // measure 41
2000
3002
0203
0300
0020
0030
2000
3000
0200
0300
0020
0030
0002
0023
0230
0300
2000
3000
0020
0030
0200
0300
0002
0003
2000
3200
0320
0030
0002
0003
0020
0030
,  // measure 42
0200
0001
0320
1000
,  // measure 43
0032
0023
0230
0300
2000
3000
0020
0030
0200
0300
0002
0003
2000
3200
0320
0030
0002
0003
0020
0030
0200
0300
2000
3000
0020
0230
0302
0003
2000
3000
0200
0300
,  // measure 44
0020
0030
0002
0003
0200
0320
2030
3000
0200
0300
0002
0003
0020
0030
0200
0000
1000
0000
0000
0000
0001
0000
0000
0000
0301
0000
0000
0000
0000
0000
0000
0000
,  // measure 45
0002
0023
0230
0300
2000
3000
0020
0030
0200
0300
0002
0003
0020
0230
2300
3000
0200
0300
0020
0030
0002
0003
0200
0300
0020
0032
2003
3000
0200
0300
0020
0030
,  // measure 46
0002
0100
2003
3100
,  // measure 47
1001
0000
0001
0010
0100
0000
0110
0000
1000
0100
0001
1000
0010
0000
1001
0000
,  // measure 48
1010
0000
1000
0010
0001
1000
0010
0000
0100
0001
1000
0100
0010
0001
0100
0010
,  // measure 49
1000
0000
0000
0000
1100
0000
0101
0000
0001
0100
0001
1000
0100
0010
0001
0000
,  // measure 50
0011
0000
0110
0000
1100
0000
1001
0000
0000
0000
0101
0000
0100
0010
1000
0001
,  // measure 51
0010
0000
0000
0000
0011
0000
0101
0000
1001
0000
0100
1000
0100
0010
0001
0000
,  // measure 52
0011
0000
0010
0100
1000
0001
0100
0000
1100
0000
0100
1000
0010
0100
0001
0000
,  // measure 53
0101
0000
1000
0001
1000
0001
0100
0000
1010
0000
0100
0010
0001
1000
0010
0000
,  // measure 54
0110
0000
0000
0000
0000
0000
0001
0000
0000
1000
0000
0000
0010
0000
0000
0100
0000
0000
0001
0000
0000
0000
0000
0000
1001
0000
0000
0001
0000
0000
1000
0000
0000
0001
0000
0000
1000
0000
0000
0000
0001
0000
0000
0000
1000
0000
0000
0000
,  // measure 55
0001
0100
0001
0100
1000
0000
0100
1000
0100
0010
1000
0000
0010
0001
0010
0001
,  // measure 56
1000
0000
0010
0001
1000
0100
0010
0000
0001
0010
0100
1000
0010
0000
1000
0100
,  // measure 57
0010
0001
1000
0000
0001
0100
2000
0000
3200
0000
1300
0010
0002
0000
0000
2000
,  // measure 58
0000
0000
0000
0000
0000
0000
3003
0000
0000
0000
0000
0000
1000
0000
0000
0001
0010
0100
1000
0100
0010
0001
0010
0100
1000
0100
0010
0001
0010
0100
1000
0010
0100
0001
0000
0000
0010
0000
0000
0100
0000
0000
0010
0000
0000
0001
0000
0000
,  // measure 59
0100
0101
0001
1001
1000
1010
0011
1001
,  // measure 60
1100
0000
0101
0000
0110
0000
1010
0000
1001
0000
0011
0000
0110
0000
1000
0001
,  // measure 61
0010
1000
0001
0000
0110
0000
0100
0000
1100
0000
1000
0000
1010
0000
0010
0000
,  // measure 62
0011
0110
1100
1001
0101
0110
1010
1001
,  // measure 63
0101
0000
0110
0000
1000
0100
0010
0001
0100
0000
0110
0000
0001
0010
0100
1000
,  // measure 64
0100
0000
0110
0000
0010
0001
1000
0000
1000
0100
0010
0000
0010
0001
1000
0000
,  // measure 65
0001
0100
0000
0000
0010
1000
0000
0000
1000
0000
0100
0000
0010
0000
0001
0000
0100
0000
0010
0000
1000
0000
0001
0000
0010
0000
1000
0000
0001
0000
0100
0000
,  // measure 66
0010
1000
0100
0010
0001
0100
0010
1000
0001
0010
0100
1000
0100
0010
0001
0100
,  // measure 67
0010
1000
0001
0010
0100
1000
0010
0100
0001
1000
0100
0010
0001
0010
1000
0100
,  // measure 68
0010
0001
0100
0010
1000
0010
0001
0100
0010
1000
0001
0010
0100
1000
0010
0100
,  // measure 69
0001
0010
0100
1000
0010
0100
0001
1000
0100
0010
0001
0010
0100
1000
0010
0100
,  // measure 70
0002
0000
0000
0000
0000
0000
1003
0000
0000
0000
0000
0000
0001
0000
0010
0000
0100
0000
1000
0000
0100
0000
0010
0000
0001
0000
0000
0010
0000
0000
0100
0000
0000
1000
0000
0000
0100
0000
0000
0010
0000
0000
0001
0000
0000
0100
0000
0000
,  // measure 71
1000
0100
0001
0010
1000
0010
0001
1000
0100
0010
0001
0010
0100
1000
0001
0010
,  // measure 72
0001
0000
0000
1000
0000
0000
0010
0000
0000
0001
0000
0000
0100
0000
0000
0010
0000
0000
1000
0000
0000
0001
0000
0000
0010
0000
0000
1000
0000
0000
0100
0000
0000
0010
0000
0000
0001
0000
0010
0000
0100
0000
1000
0000
0000
0010
0000
0000
,  // measure 73
0100
0000
0000
0001
0000
0000
1000
0000
0000
0100
0000
0000
0010
0000
0000
0001
0000
0000
1000
0000
0100
0000
0010
0000
0001
0000
0000
0010
0000
0000
0100
0000
0000
1000
0000
0000
0001
0000
0000
0100
0000
0000
0010
0000
0000
1000
0000
0000
,  // measure 74
0001
0000
0010
0000
0100
0000
1000
0000
0100
0000
0010
0000
0001
0000
0100
0000
0001
0000
0100
0000
0001
0000
0100
0000
1000
0000
0000
0100
0000
0000
0010
0000
0000
0100
0000
0000
0001
0000
0010
0000
0100
0000
1000
0000
0100
0000
0010
0000
,  // measure 75
0001
0010
0000
0000
0010
0100
0000
0000
0001
0000
0010
0000
0100
0000
1000
0000
0100
0000
0010
0000
0001
0000
0100
0000
0010
0000
1000
0000
0001
0000
0100
0000
,  // measure 76
1000
0010
0100
0001
1000
0100
0010
0001
0200
0310
1000
0001
0010
0100
1000
0010
,  // measure 77
0100
0000
0001
0000
1000
0000
0100
0000
0020
0030
0002
0003
0020
0030
0200
0300
2000
3000
0010
0000
0100
0000
0002
0003
1000
0000
0200
0300
0010
0000
0002
0003
,  // measure 78
0010
0100
1000
0001
0100
0010
1000
0100
0010
0001
0100
0010
1000
0001
0100
1000
,  // measure 79
0010
0100
0001
0010
0100
1000
0010
0100
0001
0010
0100
1000
0010
0100
1000
0001
,  // measure 80
0100
0000
0000
0010
0000
0000
1000
0000
0000
0100
0000
0000
0001
0000
0010
0000
0100
0000
1000
0000
0100
0000
0010
0000
0001
0000
0000
0100
0000
0000
0010
0000
0000
1000
0000
0000
0001
0000
0000
0010
0000
0000
0100
0000
1000
0000
0010
0000
,  // measure 81
0100
0000
0000
0010
0000
0000
0001
0000
0000
0010
0000
0000
0100
0000
0010
0000
1000
0000
0100
0000
0000
0010
0000
0000
0001
0000
0000
1000
0000
0000
0100
0000
0000
0010
0000
0000
0001
0000
0000
0100
0000
0000
0010
0000
0000
1000
0000
0000
,  // measure 82
0001
0010
0100
1000
0100
0010
0001
0100
0010
1000
0001
0010
0100
1000
0010
0100
,  // measure 83
0001
1000
0100
0010
0001
0100
0010
1000
0001
0010
0100
1000
0010
0100
0001
0010
,  // measure 84
0100
0000
1000
0000
0100
0000
1000
0000
0100
0000
1000
0000
0001
0000
0010
0000
0001
0000
0010
0000
0001
0000
0010
0000
0001
0000
0000
0010
0000
0000
0100
0000
0000
1000
0000
0000
0001
0000
0100
0000
0010
0000
1000
0000
0001
0000
0010
0000
,  // measure 85
0100
1000
0000
0000
0001
0100
0000
0000
0000
0000
0010
0000
0001
0000
0010
0000
1000
0000
0010
0000
0100
0000
0010
0000
0000
0000
0010
0000
0001
0000
0010
0000
,  // measure 86
0100
0010
1000
0010
0100
0010
0001
0010
0000
0010
0100
0010
1000
0010
0100
0010
,  // measure 87
0000
0010
0001
0010
0100
0010
1000
0010
0100
0010
0001
0011
0000
1010
0000
1100
,  // measure 88
0000
0101
0000
0101
0000
1100
0000
1010
0000
0011
0000
1001
0000
1000
0100
0021
,  // measure 89
0002
0000
0000
0000
,  // measure 90
0000
0000
0033
0000
;
