#VERSION:0.83;
#TITLE:You are a Star;
#SUBTITLE:;
#ARTIST:NAOKI feat. Anna Kaelin;
#TITLETRANSLIT:;
#SUBTITLETRANSLIT:;
#ARTISTTRANSLIT:;
#GENRE:;
#ORIGIN:;
#CREDIT:;
#BANNER:You are a Star.png;
#BACKGROUND:You are a Star-bg.png;
#PREVIEWVID:;
#JACKET:You are a Star-jacket.png;
#CDIMAGE:;
#DISCIMAGE:;
#LYRICSPATH:;
#CDTITLE:;
#MUSIC:You are a Star.ogg;
#OFFSET:0.000000;
#SAMPLESTART:57.299999;
#SAMPLELENGTH:15.000000;
#SELECTABLE:YES;
#BPMS:0.000=155.000;
#STOPS:;
#DELAYS:;
#WARPS:;
#TIMESIGNATURES:0.000=4=4;
#TICKCOUNTS:0.000=4;
#COMBOS:0.000=1;
#SPEEDS:0.000=1.000=0.000=0;
#SCROLLS:0.000=1.000;
#FAKES:;
#LABELS:0.000=Song Start;
#BGCHANGES:;
#KEYSOUNDS:;
#ATTACKS:
;

//---------------dance-single - ----------------
#NOTEDATA:;
#CHARTNAME:;
#STEPSTYPE:dance-single;
#DESCRIPTION:;
#CHARTSTYLE:;
#DIFFICULTY:Beginner;
#METER:2;
#RADARVALUES:0.117560,0.215104,0.062500,0.000000,0.000000,79.000000,73.000000,6.000000,0.000000,0.000000,0.000000,0.000000,0.000000,0.000000,0.117560,0.215104,0.062500,0.000000,0.000000,79.000000,73.000000,6.000000,0.000000,0.000000,0.000000,0.000000,0.000000,0.000000;
#CREDIT:;
#NOTES:
0000
0000
0000
0000
,
0000
0000
0000
0000
,
0000
0000
0000
0000
,
0001
0000
0000
0000
,
0000
0000
0000
0000
,
1000
0000
0000
0000
,
0000
0000
0000
0000
,
0001
0000
1000
0000
,
0001
0000
0000
0000
,
1000
0000
0001
0000
,
0010
0000
0000
0000
,
0100
0000
0000
0000
,
1000
0000
1000
0000
,
1000
0000
0000
0000
,
0001
0000
0001
0000
,
0001
0000
0000
0000
,
0010
0000
0000
0000
,
1000
0000
0000
0000
,
0001
0000
0000
0000
,
1001
0000
0000
0000
,
1000
0000
1000
0000
,
0001
0000
0000
0000
,
0001
0000
0001
0000
,
1000
0000
0000
0000
,
0010
0000
0000
0000
,
0010
0000
0000
0000
,
0100
0000
0000
0000
,
0000
0000
0000
0000
,
0010
0000
0000
0000
,
0010
0000
0000
0000
,
0010
0000
0000
0000
,
0000
0000
0000
0000
,
1000
1000
0000
0000
,
0001
0001
0000
0000
,
1000
0000
0001
0000
,
1001
0000
0000
0000
,
0000
0000
0000
0000
,
0001
0000
0001
0000
,
1000
0000
1000
0000
,
0001
0000
0000
0000
,
1001
0000
0000
0000
,
0010
0000
0000
0000
,
0010
0000
0000
0000
,
1000
1000
1000
0000
,
0010
0000
0000
0000
,
1000
0000
1000
0000
,
0001
0000
0001
0000
,
1000
0000
0000
0000
,
1001
0000
0000
0000
,
0010
0000
0000
0000
,
0010
0000
0000
0000
,
0001
0000
1000
0000
,
1001
0000
0000
0000
,
0001
0000
1000
0000
,
0001
0000
0000
0000
,
1000
0000
0001
0000
,
0010
0000
0000
0000
,
0010
0010
0010
0000
,
1000
0000
0001
0000
,
1001
0000
0000
0000
,
0000
0000
0000
0000
;

//---------------dance-single - ----------------
#NOTEDATA:;
#CHARTNAME:;
#STEPSTYPE:dance-single;
#DESCRIPTION:;
#CHARTSTYLE:;
#DIFFICULTY:Easy;
#METER:4;
#RADARVALUES:0.172619,0.245833,0.083333,0.291667,0.000000,116.000000,108.000000,8.000000,28.000000,0.000000,0.000000,0.000000,0.000000,0.000000,0.172619,0.245833,0.083333,0.291667,0.000000,116.000000,108.000000,8.000000,28.000000,0.000000,0.000000,0.000000,0.000000,0.000000;
#CREDIT:;
#NOTES:
0000
0000
0000
0000
,
0000
0000
0000
0000
,
0000
0000
0000
0000
,
1000
0000
1000
0000
,
0001
0000
0001
0000
,
1000
0001
1000
0000
,
0020
0000
0030
0000
,
1000
0000
0001
0000
,
1000
0000
0010
0000
,
0001
0000
0010
0000
,
2002
3003
0000
0000
,
0220
0330
0000
0000
,
0001
1000
0001
0000
,
1000
0000
0100
0000
,
0001
1000
0001
0000
,
1000
0000
0100
0000
,
2000
3000
0000
0000
,
0002
0003
0000
0000
,
0200
0300
0000
0000
,
1001
0000
0000
0000
,
0001
0001
1000
0000
,
0200
0300
0000
0000
,
1000
1000
0001
0000
,
0020
0030
0000
0000
,
0100
0000
0001
0000
,
0010
0000
1000
0000
,
0001
1000
0001
1000
,
0001
0000
0000
0000
,
2000
0000
3000
0000
,
0020
0000
0030
0000
,
0200
0000
0300
0000
,
0002
0000
0003
0000
,
0020
0030
0020
0030
,
0200
0300
0200
0300
,
2000
3000
0002
0003
,
2002
0000
0000
3003
,
0000
0000
0000
0000
,
1000
1000
1000
1000
,
0010
0000
0010
0000
,
0001
0000
0000
0000
,
0010
0010
0010
0000
,
0002
0003
0001
0000
,
2000
3000
1000
0000
,
0001
1000
0001
0000
,
1001
0000
0000
0000
,
0001
0001
0001
0001
,
0010
0000
0010
0000
,
1000
0000
0000
0000
,
0100
0100
0100
0000
,
2000
3000
1000
0000
,
0002
0003
0001
0000
,
1000
0010
1000
0000
,
1001
0000
0000
0000
,
1000
0000
0001
0000
,
1000
0000
0010
0000
,
0001
0000
0010
0000
,
2002
3003
0000
0000
,
1000
0001
1000
0001
,
0010
0000
0100
0000
,
0110
0000
0000
0000
,
0000
0000
0000
0000
;

//---------------dance-single - ----------------
#NOTEDATA:;
#CHARTNAME:;
#STEPSTYPE:dance-single;
#DESCRIPTION:;
#CHARTSTYLE:;
#DIFFICULTY:Medium;
#METER:8;
#RADARVALUES:0.339286,0.399479,0.208333,0.354167,0.010417,228.000000,208.000000,20.000000,34.000000,0.000000,0.000000,0.000000,0.000000,0.000000,0.339286,0.399479,0.208333,0.354167,0.010417,228.000000,208.000000,20.000000,34.000000,0.000000,0.000000,0.000000,0.000000,0.000000;
#CREDIT:;
#NOTES:
0000
0000
0000
0000
,
0000
0000
0000
0000
,
0000
0000
0000
0000
,
1000
0001
1000
0001
,
0200
0300
0020
0030
,
0001
0100
0001
1000
,
1001
0100
1001
0000
,
0100
1000
0010
0100
,
0001
0001
0100
0010
,
1000
0100
0010
0001
,
0100
0010
1001
0000
,
0100
0010
0200
0300
,
0001
0100
1000
0020
,
1030
0100
2000
3000
,
1000
0100
0001
0020
,
0031
0101
0002
0003
,
2000
3010
0200
0301
,
1000
0100
0010
0000
0100
0000
0000
0000
,
0020
0031
0200
0310
,
1000
0110
1001
0000
,
0001
0100
0101
0001
,
1000
0010
1010
0000
,
1000
0100
1100
1000
,
0001
0010
0011
0000
,
1000
0001
0100
0010
,
1000
0100
0001
0100
,
1000
0010
1000
0000
0100
0000
0010
0000
,
0001
1000
0001
0000
0100
0000
0000
0000
,
0020
0000
1030
0100
,
2000
0000
3010
0100
,
0002
0000
0023
0000
,
0230
0000
1300
0001
,
0020
0031
0020
0130
,
0200
0310
0200
1300
,
0001
0000
0000
1000
0000
0000
0001
0000
0010
0000
0000
0000
0000
0000
0000
0000
,
0001
0000
0000
0100
0000
0000
0010
0000
2000
0000
0000
0000
0000
0000
0000
0000
,
0002
0000
0000
3003
,
0010
1001
0100
1001
,
0100
0010
0110
0000
,
1000
0100
1000
0000
0001
0100
0001
0000
,
1000
0100
0010
0000
,
0001
0200
0301
0020
,
0031
1000
0100
0010
,
0002
0003
0200
0301
,
0001
1000
0110
0000
,
1000
1001
0001
1001
,
0100
0010
0110
0000
,
1000
0001
1000
0000
0001
1000
0001
0000
,
2000
3020
0230
0302
,
0203
0310
2000
3001
,
0010
0010
0100
0100
,
1000
1100
0020
0030
,
0100
0101
0020
0030
,
0100
1000
0010
0100
,
0001
0001
0100
0010
,
1000
0100
0010
0001
,
0100
0010
1001
0000
,
0010
0100
0010
0100
0010
0100
0010
0100
,
1000
0000
0000
0010
0000
0000
0001
0100
,
1000
0000
0000
0000
,
0000
0000
0000
0000
;

//---------------dance-single - ----------------
#NOTEDATA:;
#CHARTNAME:;
#STEPSTYPE:dance-single;
#DESCRIPTION:;
#CHARTSTYLE:;
#DIFFICULTY:Hard;
#METER:12;
#RADARVALUES:0.552083,0.553125,0.197917,0.270833,0.140625,371.000000,352.000000,19.000000,26.000000,0.000000,0.000000,0.000000,0.000000,0.000000,0.552083,0.553125,0.197917,0.270833,0.140625,371.000000,352.000000,19.000000,26.000000,0.000000,0.000000,0.000000,0.000000,0.000000;
#CREDIT:;
#NOTES:
0000
0000
0000
0000
,
0000
0000
0000
0000
,
0000
0000
0000
0000
,
0010
0000
1000
0000
0001
0100
0000
0100
,
0001
0010
0001
0000
1000
0010
0000
0010
,
0100
0001
1000
0000
0001
0010
0000
0010
,
0001
0100
0010
1000
0001
0010
0100
0000
,
0010
0000
0101
0000
1000
0010
0100
0010
,
0000
1000
0100
0010
0100
1000
0000
0001
,
0010
0001
0100
0000
0010
1000
0100
0001
,
0000
0100
1000
0000
1010
0000
0101
0000
,
0010
1000
0001
1000
0200
0000
0300
0000
,
1000
1000
0020
0000
1030
1000
0200
0000
,
1300
0100
0010
0000
1000
0001
0100
0000
,
0001
0001
0020
0000
0031
0001
0200
0000
,
0301
0100
0010
0100
0001
1000
0100
0000
,
1000
0010
0200
0000
0310
1000
0200
0000
,
1300
0000
0001
1000
0010
0100
0010
0000
,
0100
0001
2000
0000
3100
0010
0002
0000
,
1003
0000
0110
0000
1000
0010
0110
0000
,
0001
0000
1100
0000
0001
0000
1000
0100
,
0010
0000
0101
0000
0001
0010
0100
0000
,
1000
0000
0101
0000
1000
0000
0001
0100
,
0010
0000
1100
0000
1000
0010
0100
0001
,
0010
0000
1100
0000
0001
0100
0010
0100
,
0001
0000
0101
0000
1000
0100
0010
0100
,
1000
0010
0100
0010
0001
0010
1000
0100
,
0010
0001
0000
0100
0010
0100
0010
0000
,
0002
0000
0100
0000
0013
0100
1000
0010
,
0200
0000
0001
0000
0310
0000
0001
1000
,
0020
0100
2030
0100
,
3002
0000
0010
0000
1003
0010
0100
0001
,
2000
0000
3001
0010
2000
0000
3010
0001
,
0200
0000
1300
0100
0002
0000
1003
0000
,
0001
0000
0000
1010
0000
0000
0100
0000
0001
0000
0000
0000
0100
0000
0001
0000
,
0010
0000
0000
0011
0000
0000
0100
0000
0010
0000
0001
0000
1000
0001
1000
0001
,
2000
0000
0002
3003
,
1000
0000
0000
1000
0010
0000
0000
0010
1000
0000
0000
1000
0100
0000
0010
0000
,
0001
0100
0001
0010
0100
0010
0001
0100
,
0001
1000
0010
0100
0001
1000
0010
0100
,
0001
0000
0000
0000
1000
0000
0000
0000
0010
0000
0000
1001
0000
0000
0100
0000
,
0002
0000
1003
0010
2000
0000
3001
0010
,
0002
0000
1003
0010
0100
0000
0010
1000
,
0100
0010
0001
0010
0100
1000
0010
0100
,
0001
0000
0000
0001
0010
0000
0000
0010
0100
0000
0000
0100
1000
0000
0010
0000
,
0100
0000
0000
0100
0001
0000
0000
0001
0010
0000
0000
0010
0001
0000
0000
0001
,
1000
0010
0100
0010
0001
0010
1000
0100
,
0010
0001
0010
0100
1000
0001
0010
0100
,
1000
0000
0000
1000
0010
0000
0000
0010
0001
0000
0000
0001
0010
0000
0100
0000
,
0020
0000
1030
0001
0200
0000
0301
0010
,
0100
0000
0000
0100
1000
0000
0000
1000
0001
0000
0000
0001
0100
0000
0000
0100
,
0001
0000
0000
1000
0100
0000
1000
0000
0020
0000
0000
0000
0130
0000
0001
0000
,
0010
0000
0000
0001
0010
0000
0100
0000
0010
0000
0000
0000
1001
0000
0000
0000
,
0010
0000
1100
0000
0001
0010
0100
0010
,
0000
0001
0100
0010
0100
0001
0000
1000
,
0010
1000
0100
0000
0010
0001
0100
1000
,
0000
0100
0001
0000
0011
0000
1100
0000
,
1000
0010
1000
0010
0100
0001
0100
0001
,
1000
0000
0000
1100
0000
0000
0010
0000
0000
0100
0001
0000
0010
0000
0100
1000
,
0001
0000
0000
0000
,
0000
0000
0000
0000
;

//---------------dance-single - ----------------
#NOTEDATA:;
#CHARTNAME:;
#STEPSTYPE:dance-single;
#DESCRIPTION:;
#CHARTSTYLE:;
#DIFFICULTY:Challenge;
#METER:13;
#RADARVALUES:0.595238,0.614583,0.093750,0.343750,0.286458,400.000000,391.000000,9.000000,33.000000,0.000000,0.000000,0.000000,0.000000,0.000000,0.595238,0.614583,0.093750,0.343750,0.286458,400.000000,391.000000,9.000000,33.000000,0.000000,0.000000,0.000000,0.000000,0.000000;
#CREDIT:;
#NOTES:
0000
0000
0000
0000
,
0000
0000
0000
0000
,
0000
0000
0000
0000
,
1010
0000
0100
0000
0001
0010
0000
1000
,
0010
0001
0100
0000
0010
1000
0000
0001
,
0100
0001
1000
0000
0100
0010
0000
0001
,
0100
1000
0010
0100
0010
0010
0110
0000
,
1000
0000
0100
0000
0010
0001
0000
0001
0100
0000
0010
0000
0100
0000
0010
0000
,
1000
0000
0010
1000
0000
0001
0010
0000
0100
0000
0001
0000
0100
0000
0001
0000
,
1000
0000
0001
0000
0010
0100
0000
0100
1000
0000
0010
0000
0100
0000
0001
0000
,
1000
0000
0001
0010
0000
0010
0100
0000
1000
0000
0001
0000
0100
0000
0010
0000
,
0100
0001
1000
0001
0200
0000
0300
0000
,
0001
1000
0020
0000
1030
0001
0020
0000
,
0031
0100
0020
1000
1030
0001
0100
0000
,
1000
0001
0020
0000
0031
1000
0020
0000
,
1030
0100
0020
0001
0031
0100
0100
0000
,
0001
0010
0200
0000
1300
0010
0200
0000
,
0301
0010
0100
1000
0010
0100
0001
0000
,
0100
0001
2000
0000
3100
0010
0002
0000
,
1003
0000
0000
1100
0000
0000
0202
0000
0000
0000
0000
0000
0303
0000
0000
0000
,
0020
0000
1030
0100
0010
0001
0010
0200
,
0000
1000
1300
0000
0010
0001
0010
1000
,
0020
0000
1030
0100
0010
0001
0010
0200
,
0000
1000
1300
0000
0010
0001
0010
0100
,
0010
0000
1100
0000
0001
1000
0010
0100
,
0001
0010
0100
0000
1000
0100
0010
0100
,
1000
0010
0100
0010
0001
0010
1000
0100
,
0010
0001
0000
1000
0010
0010
0100
0000
,
0020
0000
1000
0000
0031
0000
1000
0010
,
0200
0000
0001
0000
0310
0000
0001
1000
,
0020
0100
2030
0100
,
3002
0000
0010
0000
1003
0010
0100
0001
,
2000
0000
0000
0001
3000
0000
0010
0000
2000
0000
0000
0010
3000
0000
0001
0000
,
0200
0000
0000
0000
0310
0000
0000
0000
0002
0000
0000
1000
0003
0000
0100
0000
,
0001
0000
0000
1010
0000
0000
0100
0000
0010
0000
1000
0000
0100
0000
0001
0000
,
0010
0000
0000
0011
0000
0000
0100
0000
0010
0000
0001
0000
1000
0001
1000
0001
,
2000
0000
0002
3003
,
1000
0000
0000
0100
0001
0000
0000
0100
1000
0000
0000
0100
0010
0000
0001
0000
,
1000
0100
0001
0010
0100
0010
0001
0100
,
0001
1000
0010
0100
0001
1000
0010
0100
,
0001
0000
0000
0000
1000
0000
0000
0000
0010
0000
0000
1001
0000
0000
0100
0000
,
0002
0000
0000
0013
0100
0000
0100
0000
2000
0000
0000
3010
0100
0000
0100
0000
,
0002
0000
0000
0013
0100
0000
1000
0000
0001
0000
0000
0000
0100
0000
0010
0000
,
0100
0010
0001
0010
1000
0100
0010
0100
,
1000
0000
0000
1000
0010
0000
0000
0010
0001
0000
0000
0001
1000
0000
0000
1000
,
0100
0000
0000
0100
0001
0000
0000
0001
0010
0000
0000
0010
0100
0000
0000
0100
,
1000
0010
0100
0010
0001
0010
1000
0100
,
0010
0001
0010
0100
1000
0001
0010
0100
,
1000
0000
0000
1000
0010
0000
0000
0010
0001
0000
0000
0001
0010
0000
0100
0000
,
0020
0000
0000
0000
1030
0000
0001
0000
0200
0000
0000
0001
0300
0000
0010
0000
,
0100
0000
0000
1000
0001
0000
0000
0100
0010
0000
0000
1000
0100
0000
0000
0010
,
0001
0000
0000
1000
0100
0000
1000
0000
0010
0000
0100
0000
0100
0000
0000
0000
,
0010
0000
0000
0100
1000
0000
0010
0000
0100
0010
0100
0000
1001
0000
0000
0000
,
0001
0000
0100
0000
0010
1000
0000
1000
0100
0000
0010
0000
0100
0000
0010
0000
,
0001
0000
0010
0001
0000
1000
0010
0000
0100
0000
1000
0000
0100
0000
1000
0000
,
0001
0000
1000
0000
0010
0100
0000
0100
0001
0000
0010
0000
0100
0000
1000
0000
,
0001
0000
1000
0010
0000
0010
0100
0000
0001
0000
1000
0000
0100
0000
0000
0000
,
0010
0010
0010
0010
0010
0010
0010
0010
,
1000
0100
0000
0100
0010
0000
0001
1000
0000
0100
1000
0000
0010
0000
0100
0001
,
1000
0000
0000
0000
,
0000
0000
0000
0000
;

//---------------dance-double - ----------------
#NOTEDATA:;
#CHARTNAME:;
#STEPSTYPE:dance-double;
#DESCRIPTION:;
#CHARTSTYLE:;
#DIFFICULTY:Easy;
#METER:6;
#RADARVALUES:0.260417,0.307292,0.093750,0.052083,0.000000,175.000000,166.000000,9.000000,5.000000,0.000000,0.000000,0.000000,0.000000,0.000000,0.260417,0.307292,0.093750,0.052083,0.000000,175.000000,166.000000,9.000000,5.000000,0.000000,0.000000,0.000000,0.000000,0.000000;
#CREDIT:;
#NOTES:
00000000
00000000
00000000
00000000
,
00000000
00000000
00000000
00000000
,
00000000
00000000
00000000
00000000
,
10000000
00000000
00000000
00000000
,
00100000
00000000
00000000
00000000
,
00001000
00000000
00000000
00000000
,
00000001
00000001
00001000
00000000
,
00000010
00000100
00000001
00000000
,
00001000
00000100
00010000
00000000
,
00100000
10000000
00100000
00000000
,
10000000
01000000
00010000
00001000
,
00000010
00000001
00001000
00000000
,
00000100
00000100
00001000
00000000
,
00000001
00000100
00001000
00000000
,
00010000
00010000
01000000
00000000
,
10000000
00100000
00010000
00000000
,
00001000
00010000
00001000
00000000
,
00000010
00001000
00010000
00000000
,
00001000
00010000
00000010
00000000
,
00000100
00000000
00001001
00000000
,
00000010
00000010
00000100
00000100
,
00001000
00001000
00010000
00000000
,
00100000
00100000
10000000
10000000
,
00010000
00100000
00001000
00000000
,
00010000
00000010
00001000
00000100
,
00010000
00001000
00100000
00010000
,
01000000
01000000
01000000
00000000
,
00000000
00000000
00000000
00000000
,
00200000
00000000
00301000
00010000
,
00000200
00000000
00001300
00000100
,
00020000
00000000
00030010
00001000
,
00000002
00000000
00002003
00000000
,
00003001
00000001
00001000
00001000
,
00000010
00000000
00010000
00000000
,
00100000
01000000
01100000
00000000
,
00010000
00001000
00011000
00000000
,
00000000
00000000
00000000
00000000
,
00000010
00000010
00000010
00000010
,
00000100
00010000
00000100
00010000
,
00001000
00001000
00001000
00000000
,
01000000
01000000
01100000
00000000
,
00010000
00010000
00001000
00001000
,
00100000
00100000
00001000
00001000
,
00010000
00000000
00001000
00000000
,
00000010
00000110
00001001
00000000
,
00000100
00000100
00000010
00000010
,
00001000
00001000
00000100
00000100
,
00010000
00010000
00010000
00000000
,
00100000
10000000
00100000
10000000
,
01000000
00000000
00010000
00001000
,
00000010
00000000
00000100
00010000
,
00010000
00000000
01010000
00000000
,
00001000
00000000
00000011
00000000
,
00000010
00000100
00000001
00000000
,
00001000
00000100
00010000
00000000
,
00100000
10000000
00100000
00000000
,
10000000
01000000
00010000
00001000
,
00000010
00000100
00000010
00000100
,
00010000
00001000
00000100
00000000
,
00001001
00000000
00000000
00000000
,
00000000
00000000
00000000
00000000
;

//---------------dance-double - ----------------
#NOTEDATA:;
#CHARTNAME:;
#STEPSTYPE:dance-double;
#DESCRIPTION:;
#CHARTSTYLE:;
#DIFFICULTY:Medium;
#METER:8;
#RADARVALUES:0.355655,0.430208,0.281250,0.145833,0.000000,239.000000,212.000000,27.000000,14.000000,0.000000,0.000000,0.000000,0.000000,0.000000,0.355655,0.430208,0.281250,0.145833,0.000000,239.000000,212.000000,27.000000,14.000000,0.000000,0.000000,0.000000,0.000000,0.000000;
#CREDIT:;
#NOTES:
00000000
00000000
00000000
00000000
,
00000000
00000000
00000000
00000000
,
00000000
00000000
00000000
00000000
,
00000001
00000000
00000100
00000000
,
00010000
00000000
00100000
00000000
,
10000000
00000000
00010000
00000000
,
00000100
00000001
00000100
00000000
,
00000001
00001000
00000010
00000100
,
00001000
00010000
00001000
00000000
00100000
00000000
01100000
00000000
,
10000000
00010000
10000000
00000000
00100000
00000000
00010000
00000000
,
00001000
01000000
00001000
00010000
,
00000100
00000010
00000100
00000010
00000200
00000000
00000300
00000000
,
00001000
00000010
00000100
00000001
,
00000010
00001000
00010000
00000000
01000000
00000000
00000000
00000000
,
00010000
00100000
01000000
10000000
,
00100000
00010000
00001000
00000000
00000010
00000000
00000000
00000000
,
00001000
00000010
00001000
00010000
,
01000000
00010000
00100000
00010000
,
00011000
00000100
00000011
00000100
,
00001000
00000010
00002002
00003003
,
00000100
00001000
00010000
00100000
,
01000000
00010000
10000000
00000000
00100000
00000000
00000000
00000000
,
01000000
00010000
00001000
00000010
,
00000100
00001000
00000001
00000000
00000100
00000000
00000000
00000000
,
00000011
00000100
00011000
01000000
,
10100000
00000000
01010000
00000000
00100000
00000000
00001000
00010000
,
00000010
00001000
00000200
00000000
,
00000000
00000300
00001000
00001001
,
00000020
00000000
00010000
00001030
,
00000200
00000000
00000010
00010300
,
00002000
00000000
00100000
01003000
,
00020000
00000000
10000000
01030000
,
00100000
00000000
10000000
00000000
00010000
00100000
00001000
00000000
,
00010000
00000000
00000010
00000000
00001000
00000100
00000010
00000000
,
00000001
00000110
00002000
00000000
,
00013000
10010000
00200000
00000000
,
00300000
00000000
00000000
00000000
,
00100000
00110000
01000000
11000000
,
00100000
00110000
00001000
00001010
,
00000001
00000010
00000100
00000000
00010000
00000000
00001000
00000000
,
00020000
00000000
00001000
00031000
,
00010000
01010000
10000000
11000000
,
00010000
00011000
00001000
00010000
,
00000010
00000100
00000010
00000000
00001000
00000000
00000001
00000000
,
00002000
00000000
00000020
00003030
,
00001010
00000100
00000011
00000100
,
00010000
00011000
01000000
00100000
,
10000000
00100000
00010000
00000000
00001000
00000000
00010000
00000000
,
00002000
00000000
00000010
00003010
,
00000100
00000110
00001000
00000001
,
00000100
00001000
00010000
00100000
,
10000000
01010000
00011000
00000000
,
00000010
00001100
00000011
00000000
,
00000001
00001000
00000010
00000100
,
00001000
00010000
00001000
00000000
00100000
00000000
01100000
00000000
,
10000000
00010000
10000000
00000000
00100000
00000000
00010000
00000000
,
00001000
01000000
00001000
00010000
,
00000100
00000000
00000100
00000000
00000100
00000010
00000100
00000010
,
00000100
00000000
00010000
00000000
00001000
00000000
01000000
00100000
,
10000000
00000000
00000000
00000000
,
00000000
00000000
00000000
00000000
;

//---------------dance-double - ----------------
#NOTEDATA:;
#CHARTNAME:;
#STEPSTYPE:dance-double;
#DESCRIPTION:;
#CHARTSTYLE:;
#DIFFICULTY:Hard;
#METER:12;
#RADARVALUES:0.511905,0.553125,0.270833,0.093750,0.187500,344.000000,318.000000,26.000000,9.000000,0.000000,0.000000,0.000000,0.000000,0.000000,0.511905,0.553125,0.270833,0.093750,0.187500,344.000000,318.000000,26.000000,9.000000,0.000000,0.000000,0.000000,0.000000,0.000000;
#CREDIT:;
#NOTES:
00000000
00000000
00000000
00000000
,
00000000
00000000
00000000
00000000
,
00000000
00000000
00000000
00000000
,
10000000
01000000
00100000
00000000
,
00000100
00000001
00000010
00000000
,
00100000
00010000
01000000
00000000
,
00000010
00001000
00000100
00000000
,
00010000
00000000
00001010
00000000
00000100
00000010
00000100
00010000
,
00000000
00001000
00000100
00001000
00010000
00100000
00000000
00100000
,
10000000
01000000
00100000
00010000
00100000
00001000
00000000
00001000
,
00010000
00001000
00000010
00000000
00000011
00000000
00001100
00000000
,
00000010
00001000
00000100
00010000
00000020
00000000
00000030
00000000
,
00001000
00000001
00000100
00000000
00001000
00000001
00000100
00000010
,
00010000
00001000
00100000
00000000
01000000
00000000
00000000
00000000
,
00010000
10000000
01000000
00000000
00010000
10000000
01000000
00100000
,
00001000
00010000
00000010
00001000
00000100
00000000
00000000
00000000
,
00010000
00001000
00000100
00000010
00010000
00001000
00000100
00000010
,
00001000
00010000
00001000
00100000
01000000
00000000
00000000
00000000
,
10000000
00100000
00010000
00000000
00100000
10000000
00010000
00100000
,
00001000
00000000
00000000
00000110
00000000
00000000
00002002
00000000
00000000
00000000
00000000
00000000
00003003
00000000
00000000
00000000
,
00001000
00010010
00000100
00011000
,
00100000
00001000
00010000
00000010
00001000
00000000
00000110
00000000
,
00001000
00010010
00000100
00011000
,
00100000
00001000
00010000
00100000
01000000
00000000
01100000
00000000
,
10000000
11000000
00100000
00101000
,
00010000
00000000
10100000
00000000
01000000
00100000
00010000
00001000
,
00000100
00000001
00000010
00000000
00000100
00010000
00000010
00000000
,
00000100
00001000
00010000
00100000
01000000
00100000
01000000
00000000
,
20000000
00000000
01000000
00000000
30100000
00010000
00001000
00000000
,
00020000
00000000
01000000
00000000
00031000
00000000
00000010
00000100
,
00000002
00000100
00001003
00000010
,
00020000
00000000
00100000
00000000
00031000
01000000
00100000
00000000
,
10000000
00000000
01000000
00010000
01000000
00000000
00010000
00001000
,
00000010
00000000
00000100
00001000
00000100
00000000
00010000
00000000
,
00001000
00000000
00000000
00110000
00000000
00000000
01000000
00000000
00100000
00000000
00000000
00000000
00010000
00000000
00001000
00000000
,
00000010
00000000
00000000
00000011
00000000
00000000
00001000
00000000
00022000
00000000
00000000
00000000
00000000
00000000
00000000
00000000
,
00033000
00000000
00000000
00000000
,
10000000
00000000
00000000
10000000
00100000
00000000
00000000
00100000
00010000
00000000
00000000
00010000
00001000
00000000
00000000
00001000
,
00000010
00000000
00000000
00000010
00000100
00000000
00000000
00000100
00010000
00000000
00000000
00010000
00001000
00000000
00000100
00000000
,
00000001
00000010
00000001
00000000
00000100
00001000
00000100
00000000
,
00001000
00010000
00001000
00100000
01000000
00000000
01100000
00000000
,
00100000
00000000
00000000
00100000
00001000
00000000
00000000
00001000
00010000
00000000
00000000
00010000
00100000
00000000
00000000
00100000
,
00010000
00000000
00000000
00010000
00001000
00000000
00000000
00001000
00100000
00000000
00000000
00100000
01000000
00000000
10000000
00000000
,
01000000
00100000
00001000
00000000
00010000
00001000
00000100
00000010
,
00000100
00000000
00000000
00000100
00000001
00000000
00000000
00000001
00000010
00000000
00000000
00000000
00001010
00000000
00000000
00000000
,
00011000
00000000
00000000
00010000
00001000
00000000
00000000
00001000
00100000
00000000
00000000
00100000
00001000
00000000
00000000
00001000
,
00000010
00000000
00000000
00000010
00001000
00000000
00000000
00001000
00010000
00000000
00000000
00010000
01000000
00000000
01000000
00000000
,
10000000
00100000
10000000
00000000
01000000
00010000
00001000
00000000
,
00000100
00000000
00000000
00000100
00000001
00000000
00000000
00000001
00000010
00000000
00000000
00000010
00000100
00000000
00010000
00000000
,
00001000
00000000
00000100
00000000
00000001
00000010
00001000
00000000
,
00010000
00000000
00000000
00010000
00001000
00000000
00000000
00001000
00010000
00000000
00000000
00010000
00100000
00000000
10000000
00000000
,
01000000
00000000
00000000
00100000
00000000
00000000
00010000
00000000
00011000
00000000
00000000
00000000
00000000
00000000
00000010
00000000
,
00000100
00000000
00000000
00000100
00000000
00000000
00000010
00000000
00000110
00000000
00000000
00000000
00000000
00000000
00000000
00000000
,
00010000
00000000
00001010
00000000
00000100
00000010
00000100
00010000
,
00000000
00001000
00000100
00001000
00010000
00100000
00000000
00100000
,
10000000
01000000
00100000
00010000
00100000
00001000
00000000
00001000
,
00010000
00001000
00000010
00000000
00000011
00000000
00001100
00000000
,
00000010
00000100
00000010
00000100
00010000
00001000
00010000
00001000
,
01000000
00000000
00000000
01100000
00000000
00000000
00100000
00000000
00000000
00010000
00000000
00000000
00001000
00000000
00100000
00000000
,
01000000
00000000
00000000
00000000
,
00000000
00000000
00000000
00000000
;

//---------------dance-double - ----------------
#NOTEDATA:;
#CHARTNAME:;
#STEPSTYPE:dance-double;
#DESCRIPTION:;
#CHARTSTYLE:;
#DIFFICULTY:Challenge;
#METER:13;
#RADARVALUES:0.581845,0.553125,0.250000,0.125000,0.265625,391.000000,367.000000,24.000000,12.000000,0.000000,0.000000,0.000000,0.000000,0.000000,0.581845,0.553125,0.250000,0.125000,0.265625,391.000000,367.000000,24.000000,12.000000,0.000000,0.000000,0.000000,0.000000,0.000000;
#CREDIT:;
#NOTES:
00000000
00000000
00000000
00000000
,
00000000
00000000
00000000
00000000
,
00000000
00000000
00000000
00000000
,
10010000
00000000
01000000
00000000
00001000
00010000
00000000
00100000
,
00010000
00001000
00000100
00000000
00000001
00000010
00000000
00000001
,
00000100
00001000
00010000
00000000
01000000
00100000
00000000
00001000
,
00010000
00001000
00000100
00001000
00010000
00001000
00011000
00000000
,
00100000
00000000
01000000
00000000
10000000
00000000
00000000
00010000
01000000
00000000
00100000
00000000
00010000
00000000
00100000
00000000
,
00010000
00000000
00001000
00000000
00000100
00000000
00000000
00000001
00000100
00000000
00000001
00000000
00000010
00000000
00000100
00000000
,
00000010
00000000
00001000
00000000
00010000
00000000
00000000
00000010
00000100
00000000
00000010
00000000
00001000
00000000
00000100
00000000
,
00001000
00000000
00010000
00000000
00100000
00000000
00000000
01000000
00010000
00000000
00100000
00000000
00001000
00000000
01000000
00000000
,
00100000
10000000
00010000
00000000
01000000
00000000
00010000
00000000
00200000
00000000
00000000
00000000
00300000
00000000
00000000
00000000
,
00010000
10000000
01000000
00000000
00010000
10000000
01000000
00100000
,
00001000
00010000
00000010
00001000
00000001
00000000
00000000
00000000
,
00001000
00000001
00000100
00000000
00001000
00000001
00000100
00000010
,
00010000
00001000
00100000
00010000
01000000
00000000
00000000
00000000
,
00001000
00010000
01000000
00100000
00001000
00010000
01000000
00100000
,
00010000
00001000
00010000
00000010
00000100
00000000
00000000
00000000
,
00000001
00000010
00001000
00000000
00000010
00000001
00001000
00000010
,
00010000
00000000
00000000
01100000
00000000
00000000
20020000
00000000
00000000
00000000
00000000
00000000
30030000
00000000
00000000
00000000
,
00010000
00101000
01000000
00011000
,
00000010
00010000
00001000
00100000
00010000
00000000
01100000
00000000
,
00010000
00101000
01000000
00011000
,
00000010
00010000
00001000
00000010
00000100
00000000
00000110
00000000
,
00000001
00000101
00000010
00010010
,
00001000
00000000
00000011
00000001
00000100
00000010
00001000
00000100
,
00010000
00100000
01000000
10000000
01000000
00001000
00100000
00010000
,
01000000
00100000
00010000
00000000
00001100
00000000
00000110
00000000
,
00000012
00000000
00001003
00000100
00010000
00000100
00001000
00000010
,
00000002
00000000
00000013
00001000
00020000
00000000
00130000
01000000
,
20000000
00000000
30100000
00010000
00001000
00000010
00000100
00000010
,
00002000
00000000
00013000
01000000
10000000
00010000
01000000
00000000
,
00100000
00000000
00000000
00010000
00000000
00000000
00000010
00000000
00001000
00000000
00000000
00010000
00000000
00000000
01000000
00000000
,
00100000
01000000
00100000
00000000
10000000
00000000
01010000
00000000
,
10000000
00000000
00000000
01100000
00000000
00000000
00001000
00000000
00010000
00000000
00000000
00000000
00001000
00000000
00000010
00000000
,
00000100
00000000
00000000
00011000
00000000
00000000
00100000
00000000
00020000
00000000
00000000
00000000
00000000
00000000
00000000
00000000
,
00002000
00000000
00000000
00033000
,
00000010
00000000
00000000
00000010
00001000
00000000
00000000
00001000
00010000
00000000
00000000
00010000
00001000
00000000
00000000
00001000
,
00000100
00000000
00000000
00000100
00000001
00000000
00000000
00000001
00000010
00000000
00000000
00000010
00000100
00000000
00010000
00000000
,
00000010
00010000
00001000
00000100
00000010
00010000
00001000
00000100
,
00000001
00000000
00000000
00000000
00001100
00000000
00000000
00000000
00000010
00000000
00000000
00011000
00000000
00000000
00100000
00000000
,
10000000
00000000
00000000
10000000
01000000
00000000
00000000
01000000
00010000
00000000
00000000
00010000
00001000
00000000
00000000
00001000
,
00000100
00000000
00000000
00000100
00001000
00000000
00000000
00001000
00010000
00000000
00000000
00010000
00100000
00000000
01000000
00000000
,
00010000
01000000
10000000
01000000
00001000
00010000
01000000
10000000
,
00100000
00000000
00000000
00100000
00010000
00000000
00000000
00010000
00001000
00000000
00000000
00001000
00000010
00000000
00000000
00000010
,
00000001
00000000
00000000
00000001
00001000
00000000
00000000
00001000
00010000
00000000
00000000
00010000
00100000
00000000
00000000
00100000
,
10000000
00000000
00000000
10000000
00010000
00000000
00000000
00010000
00001000
00000000
00000000
00001000
00000100
00000000
00000010
00000000
,
00000100
00010000
00001000
00000010
00000100
00010000
00001000
00000010
,
00000001
00000000
00000000
00000001
00000100
00000000
00000000
00000100
00000010
00000000
00000000
00000010
00001000
00000000
00010000
00000000
,
00100000
00000000
10000000
00010000
00100000
00000000
00001000
00010000
,
00000100
00000000
00000000
00000100
00000010
00000000
00000000
00000010
00001000
00000000
00000000
00001000
00010000
00000000
00000000
00000000
,
00001000
00000000
00000000
00010100
00000000
00000000
00001000
00000000
00010000
00000000
01000000
00000000
00100000
00000000
00001000
00000000
,
00010000
00000000
00000000
00101000
00000000
00000000
00000200
00000000
00000020
00000000
00000000
00000000
00000330
00000000
00000000
00000000
,
00000010
00000000
00000100
00000000
00000001
00000000
00000000
00001000
00000100
00000000
00000010
00000000
00001000
00000000
00000010
00000000
,
00001000
00000000
00010000
00000000
01000000
00000000
00000000
10000000
01000000
00000000
10000000
00000000
00100000
00000000
01000000
00000000
,
00100000
00000000
00010000
00000000
00001000
00000000
00000000
00100000
01000000
00000000
00100000
00000000
00010000
00000000
01000000
00000000
,
00010000
00000000
00001000
00000000
00000010
00000000
00000000
00000100
00001000
00000000
00000010
00000000
00010000
00000000
00000100
00000000
,
00000001
00000100
00000010
00001000
00010000
01000000
00100000
10000000
,
00100000
00000000
00000000
00011000
00000000
00000000
00000100
00000000
00000000
00000001
00001000
00000000
00000100
00000000
00010000
00100000
,
10000000
00000000
00000000
00000000
,
00000000
00000000
00000000
00000000
;

//---------------dance-single - Edit----------------
#NOTEDATA:;
#CHARTNAME:;
#STEPSTYPE:dance-single;
#DESCRIPTION:Edit;
#CHARTSTYLE:;
#DIFFICULTY:Edit;
#METER:15;
#RADARVALUES:0.927083,0.987500,0.739583,0.468750,0.958333,623.000000,552.000000,71.000000,45.000000,0.000000,0.000000,0.000000,0.000000,0.000000,0.927083,0.987500,0.739583,0.468750,0.958333,623.000000,552.000000,71.000000,45.000000,0.000000,0.000000,0.000000,0.000000,0.000000;
#CREDIT:;
#NOTES:
// measure 0
0000
0000
0000
0000
,  // measure 1
0000
0000
0000
0000
,  // measure 2
0000
0000
0000
0000
,  // measure 3
1001
0001
0100
1000
0100
0110
0000
0020
,  // measure 4
0000
0000
1030
0001
0010
0000
0100
0000
0101
0000
1010
0000
1000
0100
0020
0000
,  // measure 5
0000
0000
0031
0010
0100
0000
1100
0000
1001
0000
0011
0000
0100
0001
0010
0000
,  // measure 6
1000
0010
1000
0010
0100
0001
0100
0001
1000
0100
0010
0001
0010
0100
1000
0001
,  // measure 7
0010
0000
0010
0001
0100
0000
1100
0000
1000
0100
0010
0000
0011
0000
0001
0100
,  // measure 8
0010
0000
0010
1000
0001
0000
0001
0100
0010
0000
1010
0000
1100
0000
0100
1000
,  // measure 9
0010
0000
0010
0100
0001
0000
0100
0001
1000
0000
1010
0000
0011
0000
0002
0000
,  // measure 10
0000
0000
0013
0000
0001
0000
0100
0000
0010
0000
0010
0001
1000
0000
2001
0000
,  // measure 11
0000
0000
3010
0100
0001
0000
1000
0100
0020
0000
0100
0000
0130
0010
0001
0000
,  // measure 12
1001
0000
0000
0001
0100
0000
0000
0100
1000
0000
0100
0001
0010
0000
0100
0000
,  // measure 13
1000
0000
0100
1000
0010
0000
0001
0000
0200
0000
0310
1000
0001
0000
1001
0000
,  // measure 14
0001
0010
0100
1000
0010
0000
0100
0010
1000
0100
0010
0000
0001
0010
0100
1000
,  // measure 15
0010
0000
0010
1000
0100
0010
0001
0000
1001
0000
0001
0100
0010
1000
0100
0010
,  // measure 16
0002
0000
0103
0010
1000
0000
1010
0000
0010
1000
0100
0010
0001
0000
0100
0001
,  // measure 17
1000
0000
0100
0020
0001
0000
0000
0000
1030
0000
0010
1000
0001
0000
1001
0000
,  // measure 18
0001
0100
1000
0000
1100
0000
0000
0100
1000
0000
1010
0000
0110
0000
0101
0000
,  // measure 19
1001
0000
0000
0101
0000
0000
2200
0000
3300
0000
0100
1000
0010
0000
0011
0000
,  // measure 20
0001
0010
0100
1000
0010
0000
1000
0010
0100
0001
1000
0100
0010
0001
0020
0000
,  // measure 21
0000
0000
0130
0000
0010
0000
1010
0000
1100
0000
1000
0100
0001
0000
0001
0100
,  // measure 22
2000
0000
0000
0000
3001
0000
0001
0010
0100
1000
0010
0000
0010
0000
0200
0000
,  // measure 23
0000
0000
0001
0000
1300
0010
0001
0000
1001
0000
0002
0000
0000
0000
0103
0000
,  // measure 24
0010
0000
0000
0020
1000
0000
0000
2030
0100
0000
0000
3200
0001
0000
0002
0300
,  // measure 25
0000
0203
0000
2300
0000
3020
0000
0130
,  // measure 26
0001
0000
0010
0000
0100
0000
1000
0000
0001
0010
0100
1000
0100
0010
0001
0000
,  // measure 27
1000
0000
0010
0000
0100
0000
0002
0000
0003
0000
0001
0010
0100
0000
1100
0000
,  // measure 28
0200
0300
0100
0001
1000
0000
0100
1000
0001
0100
0010
0000
1000
0100
0001
0100
,  // measure 29
0010
0001
0100
1000
0100
0010
1000
0100
0010
0000
0000
0020
0001
0000
0000
0000
,  // measure 30
0031
0100
0010
1000
0001
0000
1000
0100
0010
0001
0010
0000
0001
0010
0100
1000
,  // measure 31
0100
0010
1000
0010
0100
0001
1000
0010
0200
0000
0000
0001
0000
0000
0310
0000
,  // measure 32
1010
0000
0000
1001
0000
0000
1100
0000
0011
0000
0000
1001
0000
0000
0101
0000
,  // measure 33
0200
0000
0010
1300
0001
0000
0000
0000
1001
0000
0000
0101
0000
0000
1100
0000
,  // measure 34
1010
0000
0000
0101
0000
0000
1100
0000
0011
0000
0001
0010
0100
0000
1000
0010
,  // measure 35
0101
0000
0000
1010
0000
0000
0101
0000
1000
0100
1000
0100
0010
0001
0100
0010
,  // measure 36
2000
0000
0002
3003
,  // measure 37
1000
0001
0010
0000
0001
0010
0100
0000
1000
0010
0001
0100
1000
0010
0002
0000
,  // measure 38
0000
0000
0013
0001
0100
0000
0110
0000
1100
0000
0101
0000
0001
0010
0100
1000
,  // measure 39
0020
0000
1000
0000
1030
0000
0100
0010
0002
0000
0100
0000
0103
0001
2000
0000
,  // measure 40
0000
0000
0001
0000
3001
0000
0000
0000
1001
0000
0000
1001
0000
0000
1001
0000
,  // measure 41
0001
0000
0001
0100
0000
0100
1000
0000
1000
0100
0000
0100
0001
0000
0001
0010
,  // measure 42
0200
0001
1000
0301
,  // measure 43
1001
0000
0001
0010
0100
0000
1000
0010
0100
0001
1000
0100
0010
0000
0001
0010
,  // measure 44
0100
0000
0000
0000
1000
0100
0010
0001
0000
0000
1000
0010
0100
0001
0000
0000
1000
0100
0010
0001
0010
0100
1000
0000
,  // measure 45
0010
0000
0001
0010
0100
1000
0100
0010
0001
0000
0001
0100
0010
1000
0020
0000
,  // measure 46
0000
0000
1030
0001
0010
0000
0010
0001
1000
0001
0100
0010
1000
0100
0010
0001
,  // measure 47
2000
0000
0000
3001
0100
0000
0010
0001
2000
0000
0000
3010
0100
0000
0002
0000
,  // measure 48
0000
0003
0101
0000
1010
0000
0101
0000
,  // measure 49
1100
0000
1000
0100
0000
0001
0100
0000
0001
0100
1000
0100
0001
0100
1000
0000
,  // measure 50
1001
0000
0001
0010
0000
1000
0010
0000
1000
0010
0001
0010
1000
0010
0001
0000
,  // measure 51
0011
0000
0000
0110
0000
0000
2000
0000
0200
0000
3000
0000
0301
0000
0001
0010
,  // measure 52
0100
0000
0000
0110
0000
0000
0002
0000
0200
0000
0003
0000
2000
0000
3300
0000
,  // measure 53
1000
0100
0001
0100
1000
0100
0001
0100
1000
0000
1010
0000
0010
0001
1000
0001
,  // measure 54
0100
0010
1000
0010
0100
0010
1000
0010
0100
0000
0110
0000
0010
0001
1000
0100
,  // measure 55
0010
0001
0010
0100
0010
0001
0010
0100
0010
0000
0011
0000
0001
0010
0200
0000
,  // measure 56
0000
0000
1300
0010
0100
0001
1000
0000
1001
0000
1001
0000
0001
0100
0010
1000
,  // measure 57
0100
0100
1000
1000
0010
0010
0001
0001
,  // measure 58
1001
0000
0000
0011
0000
0000
1010
0000
0000
1001
0000
0000
0001
0000
0010
2000
,  // measure 59
0200
3300
0000
0000
;
