#VERSION:0.83;
#TITLE:You Leave Me Alone;
#SUBTITLE:;
#ARTIST:Venus;
#TITLETRANSLIT:;
#SUBTITLETRANSLIT:;
#ARTISTTRANSLIT:;
#GENRE:;
#ORIGIN:;
#CREDIT:;
#BANNER:You Leave Me Alone.png;
#BACKGROUND:You Leave Me Alone-bg.png;
#PREVIEWVID:;
#JACKET:You Leave Me Alone-jacket.png;
#CDIMAGE:;
#DISCIMAGE:;
#LYRICSPATH:;
#CDTITLE:;
#MUSIC:You Leave Me Alone.ogg;
#OFFSET:0.000000;
#SAMPLESTART:15.660000;
#SAMPLELENGTH:15.000000;
#SELECTABLE:YES;
#BPMS:0.000=138.000;
#STOPS:;
#DELAYS:;
#WARPS:;
#TIMESIGNATURES:0.000=4=4;
#TICKCOUNTS:0.000=4;
#COMBOS:0.000=1;
#SPEEDS:0.000=1.000=0.000=0;
#SCROLLS:0.000=1.000;
#FAKES:;
#LABELS:0.000=Song Start;
#BGCHANGES:;
#KEYSOUNDS:;
#ATTACKS:
;

//---------------dance-single - ----------------
#NOTEDATA:;
#CHARTNAME:;
#STEPSTYPE:dance-single;
#DESCRIPTION:;
#CHARTSTYLE:;
#DIFFICULTY:Easy;
#METER:4;
#RADARVALUES:0.216554,0.283546,0.065434,0.348979,0.000000,139.000000,133.000000,6.000000,32.000000,0.000000,0.000000,0.000000,0.000000,0.000000,0.216554,0.283546,0.065434,0.348979,0.000000,139.000000,133.000000,6.000000,32.000000,0.000000,0.000000,0.000000,0.000000,0.000000;
#CREDIT:;
#NOTES:
0000
0000
0000
0000
,
0000
0000
0000
0000
,
0000
0000
0000
0000
,
0000
0000
0000
0000
,
0000
0000
0000
0000
,
0010
0000
0000
0000
,
0100
0000
0000
0000
,
0001
0000
1000
0000
,
0010
0001
1000
0000
,
2002
3003
0000
0000
,
0010
0000
1000
0001
,
0100
0000
0010
0001
,
1000
0010
1000
0001
,
0200
0300
1000
0001
,
0010
0010
1000
0100
,
0002
0003
2000
3000
,
0010
0001
1000
0100
,
0220
0330
0000
0000
,
0002
0003
0020
0030
,
2000
3100
0002
0013
,
1000
0100
0001
0010
,
2002
3003
1001
0010
,
1000
0001
0100
0001
,
0100
1000
0010
0001
,
0100
0001
1000
0110
,
2000
3000
0001
0100
,
0020
0030
1000
0100
,
0002
0003
0010
1000
,
0010
0001
0100
1000
,
0002
0000
0003
0100
,
2000
0000
3000
0100
,
0020
0030
0200
0300
,
0001
1000
0001
0100
,
0010
0010
0001
0100
,
1000
1000
0100
0010
,
0001
0010
1000
0010
,
0100
0100
1000
0001
,
0020
0000
0030
0000
,
0200
0000
0300
0000
,
0002
0003
0200
0300
,
0020
0030
2000
3000
,
0001
0000
0001
0000
,
0010
0000
1000
0000
,
0100
0100
0001
0000
,
1000
0000
1000
0000
,
0001
0200
0300
0000
,
0001
0100
0020
0030
,
1000
0010
1000
0001
,
1000
0100
0001
0010
,
0002
0103
2000
3100
,
0010
0001
1000
0100
,
2002
0000
0000
0000
,
3003
0000
0000
0000
;

//---------------dance-single - ----------------
#NOTEDATA:;
#CHARTNAME:;
#STEPSTYPE:dance-single;
#DESCRIPTION:;
#CHARTSTYLE:;
#DIFFICULTY:Medium;
#METER:8;
#RADARVALUES:0.316262,0.368609,0.196301,0.229018,0.000000,203.000000,185.000000,18.000000,21.000000,0.000000,0.000000,0.000000,0.000000,0.000000,0.316262,0.368609,0.196301,0.229018,0.000000,203.000000,185.000000,18.000000,21.000000,0.000000,0.000000,0.000000,0.000000,0.000000;
#CREDIT:;
#NOTES:
0000
0000
0000
0000
,
0000
0000
0000
0000
,
0000
0000
0000
0000
,
0000
0000
0000
0000
,
0000
0000
0000
0000
,
1000
0000
0000
0000
,
0001
0000
1000
0000
,
0010
0001
1000
0000
,
0020
0030
1001
0010
,
1001
0100
1000
0010
,
0001
0000
1000
0000
0001
0100
0001
0000
,
1000
0010
0100
0000
0001
0000
1000
0000
,
0001
0000
0100
0000
1000
0010
0001
0000
,
1000
1000
0010
0001
,
0100
1000
0001
0001
,
0010
2000
3001
0100
,
1000
0010
0001
0100
,
0110
0000
1001
0000
,
0010
1000
1000
0001
,
2000
3000
0020
0030
,
0001
1000
0100
0001
,
1000
0000
0001
0000
0100
0010
1000
0000
,
0001
0100
1000
0000
0001
0100
0010
0000
,
1000
0100
0001
0010
,
1000
0100
0001
1000
,
0110
0001
0100
1001
,
0010
1000
0110
0001
,
1000
0101
0001
1100
,
0010
0100
1001
0100
,
0001
0100
0001
0000
1000
0010
0100
0000
,
0001
0100
1000
0000
1000
0001
0100
0000
,
0002
0003
0200
0300
,
2000
3010
0002
0103
,
0010
2002
3003
0110
,
0001
2200
3300
1001
,
0010
0202
0303
1001
,
0010
0100
0001
0000
1000
0100
1000
0000
,
0001
1000
0000
0002
0000
1000
0003
0000
,
0010
0100
0000
2000
0000
0001
3000
0000
,
0100
0001
0000
0020
0000
1000
0030
0000
,
0001
0100
0001
1000
0010
0100
0000
0000
,
2002
0000
0000
3003
,
0001
0100
1000
0100
,
0001
0000
0010
1000
0100
0000
1000
0000
,
0010
0001
0100
1000
,
0010
1000
0100
0000
0001
0000
1000
0000
,
0001
0001
1000
0100
,
1000
0010
0000
1000
0000
0001
0000
0100
,
0000
0001
0000
0001
0100
1000
0000
0100
,
0000
1000
0000
0001
0000
0010
1000
0100
,
0000
0001
0000
1000
0000
0010
0100
0000
,
2002
0000
0000
0000
,
3003
0000
0000
0000
;

//---------------dance-single - ----------------
#NOTEDATA:;
#CHARTNAME:;
#STEPSTYPE:dance-single;
#DESCRIPTION:;
#CHARTSTYLE:;
#DIFFICULTY:Hard;
#METER:11;
#RADARVALUES:0.356769,0.396964,0.130867,0.447130,0.065434,229.000000,217.000000,12.000000,41.000000,0.000000,0.000000,0.000000,0.000000,0.000000,0.356769,0.396964,0.130867,0.447130,0.065434,229.000000,217.000000,12.000000,41.000000,0.000000,0.000000,0.000000,0.000000,0.000000;
#CREDIT:;
#NOTES:
0000
0000
0000
0000
,
0000
0000
0000
0000
,
0000
0000
0000
0000
,
0000
0000
0000
0000
,
0000
0000
0000
0000
,
0020
0000
0000
0030
0000
0010
0000
0001
,
0200
0000
0000
0300
0000
0100
0000
0001
,
2000
0000
0000
3000
0000
1000
0000
0100
,
0002
0000
2000
3003
,
0110
0000
1001
0000
0001
0000
1000
0001
,
0000
1000
0000
0101
0000
0010
0000
0100
,
0000
0001
0100
0000
0010
0001
1000
0100
,
0000
0011
0000
1000
0000
0001
0000
0200
,
0000
0301
0000
0001
0100
0010
1000
0200
,
0000
0300
0010
0001
0000
1000
0010
0200
,
0000
0000
0000
0300
0000
0001
0100
1000
,
0000
0002
1000
0013
,
0101
0000
1000
0000
0100
0010
0001
0000
,
2000
3002
0023
0230
,
0300
0000
1000
0010
1000
0100
0001
1000
,
0000
0100
0000
0001
0000
1000
0000
0200
,
0000
0300
0011
1100
,
0010
0001
1000
0001
0100
0010
1000
0000
,
0002
0103
2000
3010
,
2000
0000
3000
0100
0002
0000
0003
0010
,
0001
0000
0001
0000
0000
1000
0000
0000
0010
0000
0100
0000
0000
0001
0000
0000
,
0100
0000
1000
0000
0000
0010
0000
0000
0001
0000
0001
0000
0000
1000
0000
0000
,
0020
0030
0200
0300
,
0011
0000
1100
0000
0010
0001
0100
0000
,
1000
0000
0001
0000
0000
0100
0000
0000
0010
0000
1000
0000
0000
0100
0000
0000
,
0001
0000
0001
0000
0000
0100
0000
0000
1000
0000
0100
0000
0000
0001
0000
0000
,
2000
3100
0020
1030
,
0001
0010
0001
0010
0100
1000
0001
0000
,
0010
0000
1000
0000
0020
0000
0000
0000
0031
0000
0000
0100
0000
1000
0000
0000
,
0100
0000
0010
0000
0002
0000
0000
0000
0013
0000
0000
0010
0000
0100
0000
0000
,
0010
1000
0001
0000
0100
0001
0010
0000
,
0002
1003
0020
0130
,
1000
0100
0010
0001
1000
0001
0000
0100
,
0002
0003
2000
3000
,
0100
0001
1000
0000
0001
1000
0100
0000
,
0010
0001
0100
0010
0001
0100
1000
0000
,
0200
0000
0000
0300
,
0001
0100
0001
0000
1000
0010
0100
0000
,
0010
0010
1000
0000
0100
0001
1000
0000
,
0020
1030
0200
0301
,
0010
0000
2002
0000
3003
0100
1000
0000
,
0001
0010
0001
1000
0010
0001
0100
0000
,
1000
0002
0000
0103
0000
0010
0000
2000
,
0000
3001
0000
0100
0000
0010
0001
0000
,
2010
3002
0023
0230
,
0310
0001
0100
0010
1000
0000
0001
0000
,
0220
0000
0000
0000
,
0330
0000
0000
0000
;

//---------------dance-double - ----------------
#NOTEDATA:;
#CHARTNAME:;
#STEPSTYPE:dance-double;
#DESCRIPTION:;
#CHARTSTYLE:;
#DIFFICULTY:Easy;
#METER:4;
#RADARVALUES:0.185395,0.278093,0.076339,0.283546,0.000000,119.000000,112.000000,7.000000,26.000000,0.000000,0.000000,0.000000,0.000000,0.000000,0.185395,0.278093,0.076339,0.283546,0.000000,119.000000,112.000000,7.000000,26.000000,0.000000,0.000000,0.000000,0.000000,0.000000;
#CREDIT:;
#NOTES:
00000000
00000000
00000000
00000000
,
00000000
00000000
00000000
00000000
,
00000000
00000000
00000000
00000000
,
00000000
00000000
00000000
00000000
,
00000000
00000000
00000000
00000000
,
20000000
00000000
00000000
30000000
,
00020000
00000000
00000000
00030000
,
00100000
00000000
01000000
00000000
,
10000000
00000000
00010000
00000000
,
10010000
00000000
01000000
00000000
,
00010000
00000000
00000100
00000000
,
00000010
00000000
00000001
00000000
,
00001000
00000000
00000001
00000000
,
00000100
00000000
00001000
00000000
,
00010000
00000000
01000000
10000000
,
00020000
00030000
20000000
30000000
,
02200000
03300000
00000000
00000000
,
10010000
00000000
01000000
00000000
,
00010000
00001000
00000100
00000001
,
00001000
00000000
00000100
00000000
,
00000010
00000001
00001000
00000001
,
00000100
00000000
00010000
00000000
,
00100000
00000000
01000000
00000000
,
20000000
00000000
00000000
30000000
,
00020000
00030000
00100000
01000000
,
20020000
00000000
00000000
30030000
,
10000000
00000000
00100000
00000000
,
00010000
00000000
00001000
00000000
,
00000010
00000000
00000100
00000000
,
00001001
00000000
00000100
00000000
,
00001000
00000000
00100000
00000000
,
01000000
00000000
10000000
00000000
,
00010000
00010000
10000000
10000000
,
20020000
00000000
00000000
30030000
,
01000000
00000000
00010000
00000000
,
00001000
00000010
00000001
00001000
,
00000100
00000000
00000010
00000001
,
00001000
00000000
00000010
00000100
,
00000001
00000000
00000010
00000100
,
00001000
00000000
00010000
00100000
,
01000000
00000000
10000000
00010000
,
02000000
00000000
00000000
03000000
,
00200000
00300000
20000000
30000000
,
00020000
00030000
02000000
03000000
,
00100000
10000000
01000000
00010000
,
00002000
00003000
00000200
00000300
,
00000002
00000003
00000010
00000100
,
00002000
00003100
00000002
00000103
,
00000020
00000031
00000200
00001300
,
00020000
00031000
02000000
13000000
,
00100000
00010000
10000000
01000000
,
10010000
00000000
00000000
00000000
;

//---------------dance-double - ----------------
#NOTEDATA:;
#CHARTNAME:;
#STEPSTYPE:dance-double;
#DESCRIPTION:;
#CHARTSTYLE:;
#DIFFICULTY:Medium;
#METER:6;
#RADARVALUES:0.246155,0.366837,0.065434,0.338074,0.000000,158.000000,152.000000,6.000000,31.000000,0.000000,0.000000,0.000000,0.000000,0.000000,0.246155,0.366837,0.065434,0.338074,0.000000,158.000000,152.000000,6.000000,31.000000,0.000000,0.000000,0.000000,0.000000,0.000000;
#CREDIT:;
#NOTES:
00000000
00000000
00000000
00000000
,
00000000
00000000
00000000
00000000
,
00000000
00000000
00000000
00000000
,
00000000
00000000
00000000
00000000
,
00000000
00000000
00000000
00000000
,
00000002
00000000
00000000
00000003
,
00002000
00000000
00000000
00003000
,
00000020
00000030
00000200
00000300
,
00000001
00000000
00001000
00000000
00000010
00000100
00000010
00000000
,
00001001
00000000
00000100
00000000
00000010
00000001
00000100
00000000
,
00001000
00010000
01000000
10000000
,
20020000
00000000
00000000
30030000
,
01000000
00000000
00100000
00000000
10000000
00000000
00010000
00100000
,
00001000
00000100
00000001
00001000
,
00000010
00000000
00000100
00000000
00000001
00000000
00001000
00000001
,
00000200
00000000
00000000
00000300
,
00000020
00000030
00000000
00000100
,
00001001
00000000
00000010
00000000
00000100
00000001
00000010
00000000
,
00001000
00000000
00010000
00000000
00100000
00000000
10000000
00010000
,
01000000
00100000
10000000
00010000
,
00100000
00000000
01000000
00000000
10000000
00000000
00100000
01000000
,
00010000
00000000
10000000
00100000
,
00010000
00001000
00000010
00000001
,
00002000
00000000
00000000
00000000
,
00000002
00003003
00000020
00000130
,
00001001
00000200
00000300
00000020
,
00000030
00000002
00000003
00002000
,
00003000
00020000
00030000
00200000
,
00300000
01000000
10000000
00010000
,
02000000
03000000
00200000
00300000
,
20000000
30000000
00020000
00030000
,
00200000
00300000
02000000
03000000
,
10000000
00100000
00010000
00000100
,
00000220
00000000
00000000
00000330
,
00000002
00000000
00000000
00000003
,
00002000
00000000
00000000
00003000
,
00000001
00000010
00001000
01000000
,
00100000
10000000
00010000
01000000
,
00100000
10000000
01000000
00100000
,
00020000
00000000
00000000
00030000
,
02000000
00000000
00000000
03000000
,
00100000
10000000
00000000
00010000
00000000
00001000
00000000
00000010
,
00000000
00000100
00000000
00000001
00000000
00001000
00000010
00000100
,
00000000
00000001
00000000
00000010
00000000
00000100
00000000
00010000
,
00000000
01000000
00000000
10000000
00000000
00100000
01000000
00010000
,
00000000
10000000
00000000
01000000
00000000
00100000
00000000
00010000
,
00000000
10000000
00000000
00100000
00000000
01000000
00010000
00000000
,
00100000
00000000
01000000
00000000
10000000
00100000
00010000
00000000
,
00001000
00000000
00000010
00000000
00000001
00001000
00000100
00000000
,
00000010
00000001
00000100
00001000
,
00010000
01000000
10000000
00010000
01000000
00100000
01000000
00000000
,
20020000
00000000
00000000
30030000
;

//---------------dance-double - ----------------
#NOTEDATA:;
#CHARTNAME:;
#STEPSTYPE:dance-double;
#DESCRIPTION:;
#CHARTSTYLE:;
#DIFFICULTY:Hard;
#METER:8;
#RADARVALUES:0.378580,0.451492,0.076339,0.174490,0.000000,243.000000,236.000000,7.000000,16.000000,0.000000,0.000000,0.000000,0.000000,0.000000,0.378580,0.451492,0.076339,0.174490,0.000000,243.000000,236.000000,7.000000,16.000000,0.000000,0.000000,0.000000,0.000000,0.000000;
#CREDIT:;
#NOTES:
00000000
00000000
00000000
00000000
,
00000000
00000000
00000000
00000000
,
00000000
00000000
00000000
00000000
,
00000000
00000000
00000000
00000000
,
00000000
00000000
00000000
00000000
,
00020000
00000000
00200000
00030000
,
02000000
00300000
20000000
03000000
,
00200000
30000000
02000000
03300000
,
00010000
10000000
00100000
00010000
00001000
00000010
00000001
00000000
,
00001001
00000000
00000100
00000000
00000010
00000001
00001000
00000000
,
00000010
00000100
00000001
00000000
00001000
00000000
00001000
00000010
,
00000100
00000000
00000001
00000000
00000010
00000100
00001000
00000000
,
00010000
01000000
00100000
10000000
,
00010000
00000000
01000000
00000000
00100000
10000000
01000000
00000000
,
00100000
00010000
01000000
00000000
00201000
00000000
00310000
00000000
,
00001000
00000010
00000002
00000000
,
00002000
00003003
00000000
00000110
,
00001001
00000000
00000100
00000000
00000010
00001000
00000100
00000000
,
00000010
00000000
00000001
00000100
00001000
00000000
00010000
00000000
,
01000000
00000000
10000000
00000000
00100000
10000000
01000000
00000000
,
00100000
00010000
01000000
01000000
,
00100000
00000000
10000000
00000000
00010000
10000000
01000000
00000000
,
00100000
00010000
01000000
00000000
00100000
00000000
00010000
00000000
,
00002000
00000000
00000000
00000000
00000000
00010000
00000000
00010000
,
00003000
00000000
00000100
00000000
00000010
00000001
00000100
00000000
,
00002002
00000000
00000000
00003003
,
00000010
00000001
00000000
00000100
00000001
00000010
00000000
00000100
,
00010000
00001000
00000000
00010000
01000000
10000000
00000000
00100000
,
01000000
00010000
00100000
01000000
10000000
00010000
01000000
00100000
,
10000000
01000000
00000000
00010000
00001000
00000100
00000000
00000001
,
00000010
00000100
00000000
00001000
00000001
00000100
00000000
00000010
,
00001000
00000100
00000000
00000010
00000001
00001000
00000000
00000010
,
00000100
00000001
00000010
00000100
00010000
00001000
01000000
00000000
,
00100000
10000000
01000000
00000000
01000000
00000000
00100000
00000000
,
00010000
10000000
01000000
00000000
00010000
00000000
01000000
00000000
,
00100000
10000000
01000000
00000000
00010000
00000000
00000010
00000000
,
00001000
00000001
00000100
00000000
00000010
00000000
00001000
00000000
,
00000001
00000010
00001000
00000000
00010000
01000000
10000000
00000000
,
00100000
01000000
00010000
00000000
00100000
01000000
10000000
00000000
,
00100000
01000000
00010000
00100000
01000000
10000000
00010000
01000000
,
00100000
10000000
01000000
00010000
00001000
00010000
00000100
00000000
,
00000020
00000001
00000000
00000001
00000000
00000001
00000030
00000001
,
00000000
00001000
00000010
00000100
00000000
00000001
00000010
00000100
,
00000000
00001000
00000001
00000100
00000000
00000010
00001000
00000100
,
00000000
00000010
00000001
00000100
00001000
00100000
01000000
10000000
,
00020000
01000000
00000000
01000000
00000000
01000000
00030000
01000000
,
00000000
00100000
10000000
01000000
00000000
00100000
00010000
10000000
,
10010000
00000000
01000000
00000000
00100000
00001000
00010000
00001000
,
00000010
00000000
00000001
00000000
00001000
00000010
00000100
00000001
,
00001000
00000010
00000100
00000001
,
00001000
00000100
00000010
00000001
00001000
00000010
00000100
00000000
,
00002002
00000000
00000000
00003003
;

//---------------dance-single - ----------------
#NOTEDATA:;
#CHARTNAME:;
#STEPSTYPE:dance-single;
#DESCRIPTION:;
#CHARTSTYLE:;
#DIFFICULTY:Beginner;
#METER:1;
#RADARVALUES:0.070107,0.113418,0.010906,0.065434,0.000000,45.000000,44.000000,1.000000,6.000000,0.000000,0.000000,0.000000,0.000000,0.000000,0.070107,0.113418,0.010906,0.065434,0.000000,45.000000,44.000000,1.000000,6.000000,0.000000,0.000000,0.000000,0.000000,0.000000;
#CREDIT:;
#NOTES:
0000
0000
0000
0000
,
0000
0000
0000
0000
,
0000
0000
0000
0000
,
0000
0000
0000
0000
,
0001
0000
0000
0000
,
0100
0000
0000
0000
,
1000
0000
0000
0000
,
0010
0000
0000
0000
,
0001
0000
0000
0000
,
0200
0000
0000
0000
,
0300
0000
0000
0000
,
0020
0000
0000
0000
,
0030
0000
0000
0000
,
2000
0000
0000
0000
,
3000
0000
0000
0000
,
0002
0000
0000
0000
,
0003
0000
0000
0000
,
1000
0000
0000
0000
,
0010
0000
0000
0000
,
0001
0000
0000
0000
,
0010
0000
0000
0000
,
1000
0000
0000
0000
,
0010
0000
0000
0000
,
0001
0000
0000
0000
,
0100
0000
0000
0000
,
1000
0000
0000
0000
,
0100
0000
0000
0000
,
0001
0000
0000
0000
,
1000
0000
0000
0000
,
0010
0000
0000
0000
,
0100
0000
0000
0000
,
0001
0000
0000
0000
,
1000
0000
0000
0000
,
0100
0000
0000
0000
,
0001
0000
0000
0000
,
0100
0000
0000
0000
,
1000
0000
0000
0000
,
0001
0000
0000
0000
,
0010
0000
0000
0000
,
0100
0000
0000
0000
,
1000
0000
0000
0000
,
0001
0000
0000
0000
,
0010
0000
0000
0000
,
0100
0000
0000
0000
,
1000
0000
0000
0000
,
0010
0000
0000
0000
,
0100
0000
0000
0000
,
0001
0000
0000
0000
,
1000
0000
0000
0000
,
0001
0000
0000
0000
,
0100
0000
0000
0000
,
2002
0000
0000
0000
,
3003
0000
0000
0000
;

//---------------dance-single - ----------------
#NOTEDATA:;
#CHARTNAME:;
#STEPSTYPE:dance-single;
#DESCRIPTION:;
#CHARTSTYLE:;
#DIFFICULTY:Challenge;
#METER:15;
#RADARVALUES:0.718212,0.793928,0.174490,0.359885,0.730675,461.000000,445.000000,16.000000,33.000000,0.000000,0.000000,0.000000,0.000000,0.000000,0.718212,0.793928,0.174490,0.359885,0.730675,461.000000,445.000000,16.000000,33.000000,0.000000,0.000000,0.000000,0.000000,0.000000;
#CREDIT:;
#NOTES:
// measure 0
0000
0000
0000
0000
,  // measure 1
0000
0000
0000
0000
,  // measure 2
0000
0000
0000
0000
,  // measure 3
0000
0000
0000
0000
,  // measure 4
0000
0000
0000
0000
,  // measure 5
0010
0001
0000
1000
0100
0000
1000
0001
,  // measure 6
0000
0010
0001
0000
0100
0010
0000
1000
,  // measure 7
0001
0000
0000
0000
0010
0000
0001
0010
0001
0000
0010
0100
0010
0000
0100
1000
,  // measure 8
0100
0000
1000
0000
0001
0000
1000
0000
0001
1000
0001
1000
0001
1000
0001
1000
,  // measure 9
0002
0000
0000
0013
0100
0000
0010
0100
1000
0000
0100
0000
0010
0000
0100
0000
,  // measure 10
2000
0000
0000
3100
0010
0000
0100
1000
0001
0000
0100
0001
1000
0000
0100
1000
,  // measure 11
0020
0000
0000
0130
0010
0000
0100
0001
1000
0000
0100
0000
0010
0000
0100
0000
,  // measure 12
1000
0000
0001
1000
0100
0000
0100
1000
0001
0000
0001
0100
0010
0000
0010
0100
,  // measure 13
0001
0000
1000
0000
0100
0000
1000
0100
1000
0000
0001
0000
0100
0000
0010
0000
,  // measure 14
1000
0000
0010
0100
0001
0000
0001
1000
0100
0000
0100
1000
0010
0000
0010
0100
,  // measure 15
0002
1000
1000
0100
0100
1000
1003
0001
,  // measure 16
2000
0000
0001
0000
0001
0000
0100
0000
0100
0000
0001
0000
3001
0100
0010
1000
,  // measure 17
0200
0000
0300
0100
1000
0000
1000
0001
0010
0000
0001
0000
0100
0000
0010
0000
,  // measure 18
1000
0000
0001
1000
0100
0000
0100
1000
0010
0000
0010
0100
0001
0000
0001
0010
,  // measure 19
0200
0000
0300
0010
0001
0000
0010
0001
0100
0000
0001
0000
1000
0000
0010
0000
,  // measure 20
0100
0000
0001
0100
0010
0000
0100
0010
1000
0000
0010
1000
0100
0000
1000
0000
,  // measure 21
0001
0000
1000
0000
1001
0000
1000
0100
0010
0000
0001
0000
0010
0000
0100
0000
,  // measure 22
1000
0000
1000
0001
0010
0000
0010
0001
0010
0000
0001
0100
0010
0000
0100
0010
,  // measure 23
2000
0010
0010
0010
0010
0010
3010
1000
,  // measure 24
0002
0000
0010
0000
0010
0000
0013
0001
0100
0010
1000
0001
0100
0001
1000
0100
,  // measure 25
0010
0000
0001
0000
0010
0000
0000
0011
0000
0010
0001
0010
0100
1000
0001
0000
,  // measure 26
1000
0000
0001
0000
0100
0000
0000
0110
0000
0100
0010
1000
0010
0100
0010
0000
,  // measure 27
1000
0000
0001
0000
0100
0000
0000
1100
0000
0100
1000
0100
1000
0100
0010
0000
,  // measure 28
0001
0010
1000
0010
0001
0100
1000
0100
,  // measure 29
0001
0000
0010
0000
0010
0000
0000
0011
0000
0010
0001
0010
0001
0100
0010
0000
,  // measure 30
1000
0001
0010
0000
0001
1000
0000
0100
,  // measure 31
0010
0000
0010
0001
0000
0001
0010
0000
,  // measure 32
0100
0000
1000
0100
1000
0100
0010
0001
0010
0001
1000
0001
1000
0001
0100
0001
,  // measure 33
0100
0000
0010
0000
1000
0000
0000
1001
0000
0001
1000
0001
1000
0100
1000
0100
,  // measure 34
1000
0000
0001
0000
0100
0000
0000
0101
0000
0001
0010
0001
0010
0100
1000
0100
,  // measure 35
1000
0000
0001
0000
1000
0000
0000
1001
0000
1000
0100
1000
0010
0100
0010
0100
,  // measure 36
0001
0000
0010
0000
0001
0000
0000
0011
0000
0010
0100
0010
0100
1000
0100
1000
,  // measure 37
0001
0000
0100
0000
0010
0000
0000
0110
0000
0010
1000
0010
0100
0001
0100
0010
,  // measure 38
1000
0000
0100
0000
1000
0000
0000
1100
0000
1000
0100
1000
0010
0100
0001
0010
,  // measure 39
0001
0000
0100
0000
0010
0000
0000
0110
0000
0100
0001
0100
0001
1000
0010
0100
,  // measure 40
0001
0000
0100
0000
0001
0000
0000
0101
0000
0100
0010
0100
0001
1000
0001
0100
,  // measure 41
0020
2030
3000
0200
0300
0020
0030
0002
,  // measure 42
0003
0000
0200
0000
0300
0000
0020
0000
0030
0010
0100
0010
0100
0001
1000
0001
,  // measure 43
0100
0020
0030
2000
3000
0002
0003
0020
,  // measure 44
0030
0000
0002
0000
0003
0000
0200
0000
0300
0000
0010
0100
0010
0000
1000
0000
,  // measure 45
0001
0200
0300
0020
0030
2000
3000
0002
,  // measure 46
0003
0000
0200
0000
0300
0000
0020
0000
0030
0000
0001
1000
0100
1000
0010
0100
,  // measure 47
0010
1000
0010
0000
1010
0000
1000
0100
0020
0000
0001
0000
0031
0000
0010
0001
,  // measure 48
1000
0001
1000
0000
1001
0000
1000
0001
2000
0000
0100
0000
3100
0000
1000
0100
,  // measure 49
1000
0010
0100
0000
0110
0000
0010
0100
0002
0000
0010
0000
0013
0000
0001
0000
,  // measure 50
0010
0001
0010
0001
0100
0010
0100
0010
1000
0100
1000
0100
1000
0001
0100
0002
,  // measure 51
0200
0000
0000
0000
,  // measure 52
0303
0000
0000
0000
;
