#TITLE:YOUR LOVE;
#SUBTITLE:;
#ARTIST:FARGETTA;
#TITLETRANSLIT:;
#SUBTITLETRANSLIT:;
#ARTISTTRANSLIT:;
#GENRE:;
#CREDIT:;
#BANNER:YOUR LOVE.png;
#BACKGROUND:YOUR LOVE-bg.png;
#LYRICSPATH:;
#CDTITLE:;
#MUSIC:YOUR LOVE.ogg;
#OFFSET:0.000000;
#SAMPLESTART:47.985001;
#SAMPLELENGTH:15.000000;
#SELECTABLE:YES;
#DISPLAYBPM:130.000000;
#BPMS:0.000000=131.000000
,4.000000=130.000000
;
#STOPS:
;
#BGCHANGES:;
#KEYSOUNDS:;
#ATTACKS:;

//---------------dance-single - ----------------
#NOTES:
     dance-single:
     :
     Easy:
     3:
     0.246228,0.291907,0.115607,0.010510,0.000000,164.000000,153.000000,11.000000,1.000000,0.000000,0.000000,0.246228,0.291907,0.115607,0.010510,0.000000,164.000000,153.000000,11.000000,1.000000,0.000000,0.000000:
0000
0000
0000
0000
,
0000
0000
0000
0000
,
0000
0000
0000
0000
,
0000
0000
0000
0000
,
0000
0000
0000
0000
,
0000
0000
0000
0000
,
1000
0010
0010
0010
,
0100
0001
0001
0001
,
1000
0000
0100
0100
,
0010
0001
0100
0100
,
0010
1000
0100
0100
,
0001
0100
1000
0100
,
0001
0010
0100
1000
,
0001
0010
0100
0100
,
1000
0010
0100
0100
,
0001
1000
0100
0010
,
0001
0100
0010
1000
,
0001
0000
1000
1000
,
0001
0100
0010
1000
,
0100
0100
0100
0000
,
0010
0001
0100
0010
,
1000
1001
0010
1001
,
0100
0010
1000
0100
,
0010
0010
0010
0000
,
0001
1000
0100
0000
,
0010
0001
0100
0100
,
1001
0000
0110
0000
,
1001
0000
1001
0000
,
0010
0000
0100
0000
,
1000
0001
0100
0100
,
1001
0000
0110
0000
,
1001
0000
1001
0000
,
0010
0000
0100
0000
,
0001
1000
0100
0100
,
0010
0000
0001
0000
,
1000
0100
1000
0100
,
0001
0000
0100
0000
,
0010
1000
0100
0010
,
0001
0100
1000
0100
,
0010
0001
0100
0010
,
1000
0001
0100
0010
,
1000
0000
0000
0000
,
0001
0001
1000
0100
,
0010
0010
0001
1000
,
0010
0010
0100
0001
,
1000
1000
0100
0010
,
0001
0001
1000
0010
,
0100
0100
0001
1000
,
0100
0100
0010
0001
,
1000
1000
0010
1001
,
0200
0000
0300
0000
;

//---------------dance-single - ----------------
#NOTES:
     dance-single:
     :
     Medium:
     9:
     0.357331,0.424593,0.178665,0.021019,0.000000,238.000000,221.000000,17.000000,2.000000,0.000000,0.000000,0.357331,0.424593,0.178665,0.021019,0.000000,238.000000,221.000000,17.000000,2.000000,0.000000,0.000000:
0000
0000
0000
0000
,
0000
0000
0000
0000
,
0000
0000
0000
0000
,
0000
0000
0000
0000
,
0000
0000
0000
0000
,
0000
0000
0000
0000
,
0100
0000
0100
0000
0010
1000
0010
0000
,
0100
0000
0100
0000
0001
0010
0001
0000
,
0100
0000
1100
1100
,
0001
0100
0001
0100
0001
0100
0001
0000
,
1000
0100
1000
0100
1000
0100
1000
0000
,
0001
0010
0001
0010
0001
0010
0001
0000
,
1000
0010
1000
0010
1000
0010
1000
0000
,
0001
0100
0001
0100
0001
1000
0100
0000
,
1000
0100
1000
0100
1000
0001
0100
0000
,
0010
1000
0010
1000
0001
0010
0100
0000
,
0010
0100
0010
0100
1000
0010
0100
0000
,
0001
0000
0000
0000
1000
0100
1000
0000
,
0001
0000
0001
0000
0100
0010
0100
0000
,
0001
1000
0100
0000
,
1000
0000
1000
0000
0010
0100
0001
0000
,
1000
0100
0010
0001
,
1000
0000
1000
0000
0010
0100
0010
0000
,
1000
0001
0010
0000
,
0100
1000
0001
0000
,
0100
0000
0010
0000
1000
0100
1000
0000
,
0101
0000
0000
1100
0000
0000
0000
0000
,
0001
0000
0100
0000
0010
1000
0010
0000
,
0101
0000
0000
0011
0000
0000
0000
0000
,
1100
0000
1010
1010
,
0101
0000
0000
0011
0000
0000
0000
0000
,
1000
0000
0100
0000
0010
0001
0100
0000
,
1010
0000
0000
0101
0000
0000
0000
0000
,
0011
0000
1100
1100
,
0001
0000
0000
0000
0100
0010
0100
0000
,
0001
0000
1000
0000
0100
0010
0100
0000
,
1000
0000
0001
0000
0100
0010
0100
0000
,
0001
1000
0100
0010
,
0001
0000
0100
0000
0010
1000
0100
0000
,
0010
0000
0001
0000
1000
0010
0100
0000
,
0001
0000
1000
0000
0100
0010
0001
0000
,
1000
0000
0000
0000
,
1000
0100
1000
0100
1000
0100
1000
0000
,
0001
0100
0001
0100
0001
0100
0001
0000
,
1000
0010
1000
0010
1000
0010
1000
0000
,
0001
0010
0001
0010
0001
0010
0001
0000
,
1000
0100
1000
0100
1000
0001
0100
0000
,
0001
0100
0001
0100
0001
1000
0100
0000
,
0010
0001
0010
0001
1000
0010
0100
0000
,
0010
0100
0010
0100
0001
0010
0100
0000
,
2002
0000
3003
0000
;

//---------------dance-single - ----------------
#NOTES:
     dance-single:
     :
     Hard:
     12:
     0.436904,0.530741,0.052549,0.021019,0.294272,291.000000,286.000000,5.000000,2.000000,0.000000,0.000000,0.436904,0.530741,0.052549,0.021019,0.294272,291.000000,286.000000,5.000000,2.000000,0.000000,0.000000:
0000
0000
0000
0000
,
0000
0000
0000
0000
,
0000
0000
0000
0000
,
0000
0000
0000
0000
,
0000
0000
0000
0000
,
0000
0000
0000
0000
,
1001
0100
0100
0100
,
1001
0100
0100
0100
,
1000
0000
0000
0000
0001
0010
0001
0010
,
0100
0000
0000
1000
0000
0000
0001
0000
0000
0100
0000
0000
0010
0000
0000
0000
,
1000
0000
0000
0001
0000
0000
0100
0000
0000
0010
0000
0000
1000
0000
0000
0000
,
0100
0000
0000
0010
0000
0000
0001
0000
0000
0100
0000
0000
0010
0000
0000
0000
,
1000
0000
0000
0001
0000
0000
0010
0000
0000
0100
0000
0000
1000
0000
0000
0000
,
0001
0100
0000
0001
0100
0000
0001
0100
0000
0001
0100
0000
0001
0000
0000
0000
,
1000
0010
0000
1000
0010
0000
1000
0010
0000
1000
0010
0000
1000
0000
0000
0000
,
0001
0010
0000
0001
0010
0000
0001
0010
0000
0001
0010
0000
0001
0000
0000
0000
,
1000
0100
0000
1000
0100
0000
1000
0100
0000
1000
0100
0000
1000
0000
0000
0000
,
1001
0000
0000
0000
0000
0010
0000
0100
,
1000
0001
0100
0010
1000
0100
0010
0000
,
0001
0100
0010
1000
0001
0000
0000
0000
,
0010
0100
1000
0001
0100
0010
1000
0000
,
0001
0100
0010
0000
1000
0100
0010
0000
,
0001
1000
0010
0100
0001
0010
0100
0000
,
1000
0001
0100
0010
1000
0000
0000
0000
,
0100
0000
0010
0000
0001
0100
0010
0000
,
1000
0100
0010
0001
1000
0000
1001
0000
,
1000
0100
0001
0100
1000
0100
0001
0000
,
0100
1000
0001
0100
0010
0000
0000
0000
,
1000
0100
0001
0100
1000
0100
0001
0000
,
1000
0010
0100
0001
0010
0000
0010
0000
,
0001
0100
1000
0100
0001
0100
1000
0000
,
0100
0001
0010
0100
1000
0000
0000
0000
,
0001
0100
1000
0100
0001
0100
1000
0000
,
0001
0010
0100
1000
0001
0000
0001
0000
,
1000
0000
1000
0000
0001
1000
0001
0000
1000
0000
0000
0010
0000
0000
0100
0000
,
0001
0010
0100
1000
0001
0010
0100
1000
,
0001
0000
0001
0000
1000
0001
1000
0000
0001
0000
0000
0010
0000
0000
0100
0000
,
1000
0010
0100
0001
1000
0010
0100
0001
,
1000
0000
1000
0000
0100
1000
0100
0000
1000
0000
0000
0001
0000
0000
0100
0000
,
0010
1000
0100
0010
0001
0100
0010
1000
,
0100
0000
0100
0000
0010
0100
0010
0000
0100
0000
0000
1000
0000
0000
0001
0000
,
0100
0000
0010
0010
,
1000
0000
0000
0100
0000
0000
0010
0000
0000
0001
0000
0000
0100
0000
0000
0000
,
0010
0000
0000
1000
0000
0000
0001
0000
0000
0010
0000
0000
0100
0000
0000
0000
,
1000
0000
0000
0001
0000
0000
0100
0000
0000
0010
0000
0000
1000
0000
0000
0000
,
0001
0000
0000
0010
0000
0000
0100
0000
0000
1000
0000
0000
0001
0000
0000
0000
,
0100
0010
0000
1000
0001
0000
0010
0100
0000
1000
0001
0000
0100
0000
0000
0000
,
0010
1000
0000
0001
0010
0000
0100
1000
0000
0010
0100
0000
0001
0000
0000
0000
,
1000
0100
0000
0010
0001
0000
0100
0010
0000
1000
0001
0000
0010
0000
0000
0000
,
0100
1000
0000
0001
0100
0000
0010
1000
0000
0001
0010
0000
0100
0000
0000
0000
,
2002
0000
3003
0000
;

//---------------dance-double - ----------------
#NOTES:
     dance-double:
     :
     Easy:
     3:
     0.258239,0.289017,0.073568,0.000000,0.000000,172.000000,165.000000,7.000000,0.000000,0.000000,0.000000,0.258239,0.289017,0.073568,0.000000,0.000000,172.000000,165.000000,7.000000,0.000000,0.000000,0.000000:
00000000
00000000
00000000
00000000
,
00000000
00000000
00000000
00000000
,
00000000
00000000
00000000
00000000
,
00000000
00000000
00000000
00000000
,
00000000
00000000
00000000
00000000
,
00000000
00000000
00000000
00000000
,
10000000
00010000
01000000
00001000
,
00010000
00000010
00001000
00000001
,
00000010
00000000
00000100
00000100
,
00010000
00001000
00100000
00100000
,
00010000
10000000
01000000
01000000
,
00100000
00001000
00010000
00010000
,
00000010
00001000
00000001
00000001
,
00000010
00000100
00010000
00010000
,
00001000
00100000
00010000
00010000
,
10000000
01000000
00100000
00100000
,
00001000
00010000
00000100
00000100
,
00000010
00000000
00001001
00001001
,
00000100
00010000
00001000
00100000
,
00010000
00010000
00010000
00000000
,
10000000
00100000
01000000
00000000
,
00010000
00100000
01000000
10000000
,
10000000
00010000
01000000
00001000
,
00010000
00000010
00000100
00000000
,
00000001
00000010
00000100
00000000
,
00010000
00001000
00100000
00100000
,
00010000
00010000
10000000
10000000
,
00100000
00100000
01000000
00000000
,
00001000
00001000
00010000
00010000
,
00000010
00000010
00001001
00001001
,
00000100
00000100
00010000
00010000
,
00001000
00001000
00100000
00000000
,
00010000
00010000
10000000
10000000
,
00100000
01000000
10010000
10010000
,
01000000
00000000
00100000
00000000
,
00001000
00010000
00000010
00001000
,
00000001
00000001
00000010
00000010
,
00000100
00010000
00001000
00100000
,
00010000
00010000
10000000
10000000
,
00100000
01000000
00001000
00010000
,
00000010
00000010
00000100
00000100
,
00000001
00000000
00001000
00000000
,
00000100
00000100
00010000
00010000
,
00001000
00001000
00100000
00100000
,
00010000
00010000
10000000
10000000
,
00100000
00100000
01000000
01000000
,
00001000
00010000
00000010
00001000
,
00000001
00000010
00000100
00010000
,
00001000
00100000
00010000
10000000
,
00100000
01000000
00001000
00010000
,
00011000
00000000
00000000
00000000
;

//---------------dance-double - ----------------
#NOTES:
     dance-double:
     :
     Medium:
     5:
     0.324300,0.367840,0.021019,0.000000,0.000000,216.000000,214.000000,2.000000,0.000000,0.000000,0.000000,0.324300,0.367840,0.021019,0.000000,0.000000,216.000000,214.000000,2.000000,0.000000,0.000000,0.000000:
00000000
00000000
00000000
00000000
,
00000000
00000000
00000000
00000000
,
00000000
00000000
00000000
00000000
,
00000000
00000000
00000000
00000000
,
00000000
00000000
00000000
00000000
,
00000000
00000000
00000000
00000000
,
00010000
00010000
00010000
00010000
,
10000000
10000000
10000000
10000000
,
01000000
00000000
00000000
00000000
00100000
00010000
01000000
00001000
,
00010000
00010000
00010000
00000000
00000100
00000000
00001000
00000000
,
00000001
00000001
00000001
00000000
00000010
00000000
00000100
00000000
,
00010000
00010000
00010000
00000000
00001000
00000000
00100000
00000000
,
00010000
00010000
00010000
00000000
10000000
00000000
00100000
00000000
,
01000000
00001000
00010000
00000000
00000010
00000000
00000010
00000000
,
00001000
00000001
00000100
00000000
00000010
00000000
00000010
00000000
,
00001000
00000100
00010000
00000000
00001000
00000000
00001000
00000000
,
00100000
00010000
10000000
00000000
01000000
00000000
01000000
00000000
,
10010000
00000000
00000000
00000000
01000000
00100000
01000000
00000000
,
00001000
00000000
00001000
00000000
00010000
00000010
00001000
00000000
,
00000001
00000000
00000010
00000100
00001000
00000000
00000000
00000000
,
00000010
00000000
00000010
00000000
00010000
00001000
01000000
00000000
,
00010000
00010000
10000000
10000000
,
01000000
00000000
01000000
00000000
00100000
00010000
01000000
00000000
,
00001000
00000000
00010000
00000010
00001000
00000000
00000000
00000000
,
00000001
00000000
00000001
00000000
00000010
00000100
00001000
00000000
,
00000010
00010000
00001000
00001000
,
01000000
00000000
00100000
00000000
10000000
00000000
01000000
01000000
,
00100000
00000000
00001000
00000000
00010000
00000000
00000100
00000100
,
00001000
00000000
00000001
00000000
00000100
00000000
00000010
00000010
,
00001000
00000100
00010000
00001000
,
00100000
00000000
00010000
00000000
10000000
00000000
01000000
01000000
,
00100000
00000000
00010000
00000000
01000000
00000000
00001000
00001000
,
00010000
00000000
00000010
00000000
00001000
00000000
00000001
00000001
,
00000010
00000100
00010000
00010000
,
00001000
00000000
00001000
00000000
00100000
00010000
10000000
00000000
,
01000000
00100000
00010000
00000000
01000000
00001000
00010000
00000000
,
00000010
00000000
00000010
00000000
00001000
00000001
00000010
00000000
,
00000100
00000100
00000100
00000100
,
00010000
00000000
00010000
00000000
00001000
00100000
00010000
00000000
,
10000000
00100000
01000000
00000000
00010000
00100000
01000000
00000000
,
10000000
00000000
10000000
00000000
00010000
01000000
00001000
00000000
,
00010000
00000000
00000100
00000000
,
00000010
00000000
00000010
00000000
00000001
00001000
00000100
00000000
,
00010000
00000000
00010000
00000000
00001000
00100000
00010000
00000000
,
10000000
00000000
10000000
00000000
00100000
01000000
00001000
00000000
,
00010000
00000000
00010000
00000000
00000010
00001000
00000001
00000000
,
00000010
00000000
00000100
00010000
00001000
00100000
00010000
00000000
,
10000000
00000000
00100000
01000000
00001000
00010000
00000010
00000000
,
00001000
00000000
00000001
00000010
00000100
00001000
00000001
00000000
,
00000010
00000000
00000100
00010000
00001000
00100000
01000000
00000000
,
10010000
00000000
00000000
00000000
;

//---------------dance-double - ----------------
#NOTES:
     dance-double:
     :
     Hard:
     7:
     0.400871,0.420389,0.115607,0.000000,0.084078,267.000000,256.000000,11.000000,0.000000,0.000000,0.000000,0.400871,0.420389,0.115607,0.000000,0.084078,267.000000,256.000000,11.000000,0.000000,0.000000,0.000000:
00000000
00000000
00000000
00000000
,
00000000
00000000
00000000
00000000
,
00000000
00000000
00000000
00000000
,
00000000
00000000
00000000
00000000
,
00000000
00000000
00000000
00000000
,
00000000
00000000
00000000
00000000
,
10000000
01000000
00100000
00000000
00010000
01000000
00001000
00000000
,
00010000
00000010
00001000
00000000
00000001
00000010
00000100
00000000
,
00001000
00000000
00000000
00000000
00000010
00010000
00001000
01000000
,
00100000
00000000
00000000
10000000
00000000
00000000
01000000
00000000
00000000
00000000
00100000
00000000
00010000
00000000
00000000
00000000
,
01000000
00000000
00000000
00001000
00000000
00000000
00010000
00000000
00000000
00000000
00000010
00000000
00001000
00000000
00000000
00000000
,
00000001
00000000
00000000
00000010
00000000
00000000
00000100
00000000
00000000
00000000
00010000
00000000
00001000
00000000
00000000
00000000
,
00100000
00000000
00000000
00010000
00000000
00000000
10000000
00000000
00000000
00000000
01000000
00000000
00100000
00000000
00000000
00000000
,
00001000
00000000
00000000
00010000
00000000
00000000
00000100
00000000
00000000
00000000
00001000
00000000
00000001
00000000
00000000
00000000
,
00000100
00000000
00000000
00000010
00000000
00000000
00001000
00000000
00000000
00000000
00000100
00000000
00010000
00000000
00000000
00000000
,
00001000
00000000
00000000
00100000
00000000
00000000
00010000
00000000
00000000
00000000
10000000
00000000
01000000
00000000
00000000
00000000
,
00100000
00000000
00000000
00001000
00000000
00000000
00010000
00000000
00000000
00000000
00000010
00000000
00001000
00000000
00000000
00000000
,
00001001
00000000
00000000
00000000
00000000
00000101
00000000
00001100
,
00010000
00001000
00100000
00010000
10000000
00100000
01000000
00000000
,
00010000
10000000
01000000
00100000
00010000
00000000
00000000
00000000
,
01000000
00001000
00010000
00000010
00001000
00000001
00000010
00000000
,
00000100
00000000
00010000
00000000
00001000
00100000
00001000
00000000
,
00010000
00000010
00001000
00000001
00000010
00000100
00001000
00000000
,
00000001
00000100
00000010
00001000
00000100
00000000
00000000
00000000
,
00010000
00000000
00001000
00000000
00100000
00000000
00010000
10000000
,
01000000
00100000
00010000
11000000
,
00010000
01000000
00100000
10000000
01000000
00100000
00010000
00000000
,
01000000
00001000
00010000
00000000
00001010
00000000
00000000
00000000
,
00000001
00000010
00000100
00001000
00000010
00010000
00001000
00000000
,
00100000
00010000
10000000
00000000
11000000
00000000
01010000
00000000
,
00001000
00010000
00000010
00001000
00000001
00000010
00000100
00000000
,
00001000
00000010
00010000
00000000
01001000
00000000
00000000
00000000
,
00010000
10000000
01000000
00100000
00010000
01000000
00001000
00000000
,
00010000
00000010
00001000
00000000
00000101
00000000
00000011
00000000
,
00000100
00000000
00001000
00000000
00001000
00000000
00000100
00000000
00010000
00000000
00000000
00001000
00000000
00000000
00100000
00000000
,
00010000
10000000
00100000
01000000
00010000
10000000
01000000
00100000
,
00001000
00000000
00010000
00000000
00010000
00000000
00001000
00000000
00010000
00000000
00000000
00000010
00000000
00000000
00001000
00000000
,
00000001
00000010
00000100
00001000
00000010
00000100
00000001
00001000
,
00000100
00000000
00010000
00000000
00010000
00000000
00000100
00000000
00010000
00000000
00000000
00001000
00000000
00000000
00100000
00000000
,
00010000
10000000
01000000
00100000
00010000
01000000
00001000
00010000
,
00000010
00000000
00001000
00000000
00001000
00000000
00000010
00000000
00000100
00000000
00000000
00000001
00000000
00000000
00000010
00000000
,
00000100
00000100
00000100
00000100
,
00010000
00001000
00100000
00010000
10000000
00100000
01000000
00000000
,
00010000
00100000
00001000
00010000
00000100
00001000
00000001
00000000
,
00000010
00000100
00001000
00000010
00000100
00000001
00001000
00000000
,
00000100
00010000
00001000
00100000
00010000
10000000
01000000
00000000
,
00100000
00000000
00000000
00001000
00000000
00000000
00010000
00000000
00000000
00000000
00000100
00000000
00001000
00000000
00000000
00000000
,
00000001
00000000
00000000
00000100
00000000
00000000
00000010
00000000
00000000
00000000
00001000
00000000
00000100
00000000
00000000
00000000
,
00010000
00000000
00000000
00001000
00000000
00000000
00100000
00000000
00000000
00000000
00010000
00000000
10000000
00000000
00000000
00000000
,
01000000
00000000
00000000
00100000
00000000
00000000
00001000
00000000
00000000
00000000
00010000
00000000
00000010
00000000
00000000
00000000
,
00001001
00000000
00000000
00000000
;

//---------------dance-solo - ----------------
#NOTES:
     dance-solo:
     :
     Easy:
     3:
     0.240222,0.262743,0.010510,0.000000,0.000000,160.000000,159.000000,1.000000,0.000000,0.000000,0.000000,0.240222,0.262743,0.010510,0.000000,0.000000,160.000000,159.000000,1.000000,0.000000,0.000000,0.000000:
000000
000000
000000
000000
,
000000
000000
000000
000000
,
000000
000000
000000
000000
,
000000
000000
000000
000000
,
000000
000000
000000
000000
,
000000
000000
000000
000000
,
010000
000000
000000
000000
,
000010
000000
000000
000000
,
000000
000000
000100
000100
,
000001
100000
001000
001000
,
010000
000001
100000
100000
,
000010
001000
000100
000100
,
100000
001000
000100
000100
,
000001
010000
000010
100000
,
000100
001000
000010
010000
,
001000
000100
000001
100000
,
000010
001000
000100
100000
,
000001
000000
000100
000100
,
001000
010000
000001
010000
,
000010
001000
000100
000000
,
100000
100000
000010
010000
,
000001
000001
000100
001000
,
010000
000001
100000
000010
,
001000
001000
000100
000000
,
100000
001000
010000
000000
,
000001
001000
000010
000010
,
100000
001000
000001
001000
,
100000
001000
010000
000000
,
000001
000100
100000
000100
,
000001
000100
000010
000010
,
100000
001000
000100
000001
,
100000
001000
010000
000000
,
000001
001000
000100
100000
,
000001
001000
000010
000010
,
100000
000000
000001
000000
,
010000
010000
000100
000100
,
100000
100000
000001
000001
,
000100
000100
000010
000010
,
010000
010000
000001
000001
,
000100
000100
001000
001000
,
100000
100000
000001
000001
,
000001
000000
001000
000000
,
000010
100000
000100
010000
,
000010
000100
000001
001000
,
000010
100000
000001
010000
,
001000
000100
000001
010000
,
000010
100000
000100
001000
,
000001
100000
001000
000100
,
000001
010000
000010
100000
,
000100
010000
000010
000100
,
100001
000000
000000
000000
;

//---------------dance-solo - ----------------
#NOTES:
     dance-solo:
     :
     Medium:
     5:
     0.328804,0.394115,0.105097,0.000000,0.000000,219.000000,209.000000,10.000000,0.000000,0.000000,0.000000,0.328804,0.394115,0.105097,0.000000,0.000000,219.000000,209.000000,10.000000,0.000000,0.000000,0.000000:
000000
000000
000000
000000
,
000000
000000
000000
000000
,
000000
000000
000000
000000
,
000000
000000
000000
000000
,
000000
000000
000000
000000
,
000000
000000
000000
000000
,
000000
010000
001000
000100
000000
010000
001000
000100
,
000001
000000
000001
000000
100000
000100
001000
000000
,
100001
000000
001000
001000
,
010000
000000
000001
000000
100000
000010
100000
000000
,
000100
000000
001000
000000
000010
100000
000010
000000
,
010000
000000
000001
000000
000100
001000
000100
000000
,
000001
000000
100000
000000
000010
001000
000010
000000
,
100000
000000
000001
000000
010000
001000
000100
000000
,
000001
000000
001000
000000
000010
100000
000100
000000
,
010000
000000
000010
000000
000100
000001
001000
000000
,
000100
000000
100000
000000
001000
010000
000001
000000
,
100000
000000
000010
000010
,
010000
010000
010000
000000
000100
000000
100000
000000
,
001000
001000
001000
000000
010000
000000
000001
000000
,
000100
000100
000100
000000
000010
000000
010000
000000
,
000100
100000
001000
000000
000100
000000
000100
000000
,
000001
000001
000001
000000
010000
000000
000010
000000
,
100000
100000
100000
000000
000100
000000
001000
000000
,
000010
000010
000010
000000
100000
000000
000001
000000
,
010000
001000
000100
000000
100001
000000
001100
000000
,
100000
000001
001000
000000
100000
000001
001000
000000
,
100000
000001
001000
000000
100010
000000
000000
000000
,
010000
000001
000100
000000
010000
000001
000100
000000
,
010000
000001
000100
000000
010010
000000
010010
000000
,
100000
000001
001000
000000
100000
000001
001000
000000
,
100000
000001
001000
000000
100010
000000
000000
000000
,
010000
000100
100000
000000
010000
000100
100000
000000
,
010000
000100
100000
000000
010010
000000
010010
000000
,
000001
000000
000100
000000
,
000000
000010
100000
000100
000000
010000
000010
000100
,
000001
000001
001000
001000
,
000100
000000
000000
000000
,
100000
000001
010000
001000
,
000000
100000
000001
001000
000000
000100
100000
000010
,
010000
010000
000001
000001
,
000100
000000
001000
000000
,
100000
000000
000001
000000
010000
000010
000100
000000
,
000001
000000
001000
000000
000100
100000
001000
000000
,
010000
000000
000001
000000
100000
000010
001000
000000
,
000100
000000
100000
000000
001000
000100
000001
000000
,
010000
000000
000010
000000
100000
000100
001000
000000
,
000010
000000
100000
000000
000001
010000
001000
000000
,
000100
000000
000001
000000
010000
000010
100000
000000
,
000100
000000
001000
000000
000010
100000
000001
000000
,
001100
000000
000000
000000
;

//---------------dance-solo - ----------------
#NOTES:
     dance-solo:
     :
     Hard:
     8:
     0.502965,0.499212,0.063058,0.000000,0.173410,335.000000,329.000000,6.000000,0.000000,0.000000,0.000000,0.502965,0.499212,0.063058,0.000000,0.173410,335.000000,329.000000,6.000000,0.000000,0.000000,0.000000:
000000
000000
000000
000000
,
000000
000000
000000
000000
,
000000
000000
000000
000000
,
000000
000000
000000
000000
,
000000
000000
000000
000000
,
000000
000000
000000
000000
,
010000
000000
000010
000000
100000
000001
001000
000000
,
000100
000000
100000
000000
000010
010000
000010
000000
,
100001
000000
000100
000000
,
100000
000000
001000
000000
000100
000000
000001
000000
010000
000000
000010
000000
100000
000000
000001
100000
,
000001
000000
001000
000000
000010
000000
100000
000000
001000
000000
010000
000000
000001
000000
000100
000001
,
000100
000000
001000
000000
100000
000000
000001
000000
010000
000000
000010
000000
000100
000000
000001
000100
,
000001
000000
100000
000000
001000
000000
010000
000000
000001
000000
000100
000000
000010
000000
010000
000010
,
010000
000000
000001
000000
000100
000000
001000
000000
100000
000000
000001
000000
010000
000000
000010
010000
,
000010
000000
100000
000000
000100
000000
001000
000000
000001
000000
000100
000000
001000
000000
010000
001000
,
010000
000000
000001
000000
100000
000000
000010
000000
001000
000000
000100
000000
100000
000000
001000
100000
,
001000
000000
010000
000000
000001
000000
000100
000000
000010
000000
010000
000000
000100
000000
100000
000100
,
100000
000000
000000
000000
000000
000001
000000
000100
,
001000
000000
100000
000000
000100
100000
000000
000000
000010
000000
010000
000000
000001
000000
000100
000000
,
001000
000000
010000
000000
000001
010000
000000
000000
000010
000000
100000
000000
000100
000000
001000
000000
,
000010
000000
100000
000000
000001
100000
000000
000000
001000
000000
000100
000000
000001
000000
001000
000000
,
000010
000000
100000
000000
000001
100000
000000
000000
000100
000000
100000
000000
000010
100000
000000
000000
,
000001
000000
000100
000000
001000
000100
000000
000000
000001
000000
010000
000000
000010
000000
100000
000000
,
000100
000000
001000
000000
000010
001000
000000
000000
000001
000000
100000
000000
001000
000000
000100
000000
,
000001
000000
010000
000000
000010
010000
000000
000000
000100
000000
100000
000000
001000
000000
000000
000000
,
010000
000000
000001
000000
000100
000001
000000
000000
101000
000000
000000
000000
010100
000000
000000
000000
,
000001
000100
000010
010000
000100
100000
001000
000000
,
010000
000001
000100
000010
010000
000000
000000
000000
,
000100
100000
001000
010000
000001
000100
000010
000000
,
001000
000100
100000
000010
001000
000000
100001
000000
,
010000
001000
000100
000001
010000
000010
100000
000000
,
000100
001000
000010
100000
000001
000000
000000
000000
,
010000
001000
000100
000001
100000
000100
001000
000000
,
000010
100000
000001
010000
000100
000000
100001
000000
,
010000
000000
001000
010000
001000
000000
010000
000000
000001
000000
000000
100000
000000
000000
000100
000000
,
001000
000001
000100
001000
100000
000001
001000
000100
,
100000
000000
000010
100000
000010
000000
100000
000000
000001
000000
000000
000100
000000
000000
001000
000000
,
010000
000001
100000
000010
001000
000100
100000
000001
,
010000
000000
001000
010000
001000
000000
010000
000000
000001
000000
000000
000100
000000
000000
001000
000000
,
010000
000001
100000
000010
001000
000100
100000
000010
,
010000
000000
000001
010000
000001
000000
010000
000000
001000
000000
000000
000100
000000
000000
000001
000000
,
001000
000000
101000
000000
,
000001
000000
001000
000000
000010
000000
100000
000000
000100
000000
010000
000000
000001
000000
000100
000001
,
000100
000000
001000
000000
010000
000000
000001
000000
100000
000000
000010
000000
001000
000000
000100
001000
,
000100
000000
100000
000000
000010
000000
010000
000000
000001
000000
000100
000000
001000
000000
100000
001000
,
100000
000000
000001
000000
001000
000000
000010
000000
100000
000000
000100
000000
010000
000000
000001
010000
,
000001
000000
000100
000000
001000
000000
100000
000000
000001
000000
001000
000000
000100
000000
100000
000100
,
100000
000000
000010
000000
010000
000000
000001
000000
000100
000000
001000
000000
010000
000000
000001
010000
,
000001
000000
100000
000000
000100
000000
001000
000000
000010
000000
100000
000000
000001
000000
010000
000001
,
010000
000000
001000
000000
000100
000000
000001
000000
100000
000000
000010
000000
001000
000000
000100
001000
,
000100
000000
000000
000000
;

//---------------dance-single - ----------------
#NOTES:
     dance-single:
     :
     Beginner:
     1:
     0.067562,0.159222,0.052549,0.063058,0.000000,45.000000,40.000000,5.000000,6.000000,0.000000,0.000000,0.067562,0.159222,0.052549,0.063058,0.000000,45.000000,40.000000,5.000000,6.000000,0.000000,0.000000:
0000
0000
0000
0000
,
0000
0000
0000
0000
,
0000
0000
0000
0000
,
0000
0000
0000
0000
,
0000
0000
0000
0000
,
0000
0000
0000
0000
,
1000
0000
0000
0000
,
0010
0000
0000
0000
,
0100
0000
0000
0000
,
0002
0000
0000
0000
,
0003
0000
0000
0000
,
2000
0000
0000
0000
,
3000
0000
0000
0000
,
0001
0000
0000
0000
,
0100
0000
0000
0000
,
0000
0000
0000
0000
,
0010
0000
0000
0000
,
1000
0000
0000
0000
,
0010
0000
0000
0000
,
0001
0000
0000
0000
,
0100
0000
0000
0000
,
0010
0000
0000
0000
,
1000
0000
0000
0000
,
0001
0000
0000
0000
,
0010
0000
0000
0000
,
0001
0000
0000
0000
,
0100
0000
0000
0000
,
0010
0000
0000
0000
,
1000
0000
0000
0000
,
0001
0000
0000
0000
,
0010
0000
0000
0000
,
0001
0000
0000
0000
,
0100
0000
0000
0000
,
0010
0000
0000
0000
,
1000
0000
0000
0000
,
0001
0000
0000
0000
,
0100
0000
0000
0000
,
0010
0000
0000
0000
,
0001
0000
0000
0000
,
1000
0000
0000
0000
,
0001
0000
0000
0000
,
0100
0000
0000
0000
,
0020
0000
0000
0000
,
0030
0000
0000
0000
,
0200
0000
0000
0000
,
0300
0000
0000
0000
,
1100
0000
0000
0000
,
1010
0000
0000
0000
,
0011
0000
0000
0000
,
0101
0000
0000
0000
,
2002
0000
3003
0000
;

//---------------dance-single - ----------------
#NOTES:
     dance-single:
     :
     Challenge:
     13:
     0.563021,0.632160,0.157646,0.252233,0.651603,375.000000,360.000000,15.000000,24.000000,0.000000,0.000000,0.563021,0.632160,0.157646,0.252233,0.651603,375.000000,360.000000,15.000000,24.000000,0.000000,0.000000:
// measure 0
0000
0000
0000
0000
,  // measure 1
0000
0000
0000
0000
,  // measure 2
0000
0000
0000
0000
,  // measure 3
0000
0000
0000
0000
,  // measure 4
0000
0000
0000
0000
,  // measure 5
0000
0000
0000
0000
,  // measure 6
0001
0000
1000
0001
1000
0000
0001
0000
0100
0000
0010
0000
0100
0000
0010
0000
,  // measure 7
1000
0000
0010
1000
0010
0000
1000
0000
0010
0000
0100
0000
0010
0000
0100
0000
,  // measure 8
0001
0000
0100
0001
0100
0000
0001
0000
0200
0000
0000
0000
0002
0000
0303
0000
,  // measure 9
0001
0000
0000
0010
0000
0000
0001
0000
0000
0100
0000
0000
0010
0000
0001
0010
,  // measure 10
0002
0000
0000
0203
0000
0000
0320
0000
0000
2030
0000
0000
3001
0000
0010
0001
,  // measure 11
0010
0000
0000
0001
0000
0000
0100
0000
0000
0010
0000
0000
1000
0000
0010
1000
,  // measure 12
0010
0000
0000
1010
0000
0000
1001
0000
0000
1100
0000
0000
0101
0000
0001
0100
,  // measure 13
0001
0000
0001
0010
0000
0010
0001
0000
0100
0001
0000
0001
0100
0000
0010
1000
,  // measure 14
0010
0000
1000
0010
0000
0010
0100
0000
0100
0010
0000
0010
0100
0000
1000
0010
,  // measure 15
0100
0000
0001
0100
0000
0100
0010
0000
0010
1000
0000
1000
0100
0000
1000
0100
,  // measure 16
1000
0000
0100
1000
0000
1000
0010
0000
0010
0100
0000
0100
0001
0000
0001
0200
,  // measure 17
0002
0000
0000
0000
0000
0000
0303
0000
0000
0000
0110
0000
0000
0110
0000
0000
,  // measure 18
1001
0000
0001
1000
0001
0000
0001
1000
0000
1000
0000
1000
0000
0000
0000
0000
,  // measure 19
0100
0000
0010
0100
0000
0001
0000
1000
0000
0000
0000
0010
0100
0000
0010
0100
,  // measure 20
0010
0000
1000
0000
0001
0000
1000
0001
0000
0001
0000
0001
0000
0000
0000
0000
,  // measure 21
2001
3100
1002
0103
,  // measure 22
0110
0000
0010
0000
1000
0000
0001
1000
0000
0001
0000
1000
0000
0000
0000
0000
,  // measure 23
1000
0000
0010
1000
0000
0001
0000
2000
0000
0000
0000
0000
3100
0000
1000
0000
,  // measure 24
0020
0230
0302
2003
,  // measure 25
3100
1100
0100
0101
,  // measure 26
1001
0000
0001
0100
0000
0000
0010
0000
1000
0100
0000
0000
0010
0000
0001
0000
,  // measure 27
1000
0000
0001
1000
0000
0001
0000
0100
0000
0001
0100
0000
0001
0000
1000
0000
,  // measure 28
0100
0000
1000
0010
0000
0000
0100
0000
0001
0010
0000
0000
0010
0000
0100
0000
,  // measure 29
1000
0000
0010
1000
0000
0001
0000
0200
0000
0310
0100
0000
0010
0000
1000
0000
,  // measure 30
0001
0000
0100
0001
0000
0000
1000
0000
0100
1000
0000
0000
0100
0000
1000
0000
,  // measure 31
0010
0000
0100
0010
0000
0100
0000
0001
0000
1000
0001
0000
0100
0000
0001
0000
,  // measure 32
0010
0000
0001
0010
0000
0000
0100
0000
0010
0100
0000
0000
0100
0000
1000
0000
,  // measure 33
0010
0000
0100
0010
0000
0100
0000
0002
0000
0000
0000
0000
0103
0000
0000
0000
,  // measure 34
0110
0000
0100
0010
0100
0000
0010
0000
0100
0000
1000
0000
0100
0000
0010
0000
,  // measure 35
0000
0010
0100
0001
0000
0001
0010
0100
,  // measure 36
0000
0000
0100
1000
0100
0000
1000
0000
0010
0000
0100
0000
0001
0000
0010
0002
,  // measure 37
0000
0000
0000
0000
1000
0000
0000
0000
0103
0000
0010
0100
0020
0000
0030
0000
,  // measure 38
0110
0000
0010
0100
0010
0000
0001
0000
0010
0000
0100
0000
0010
0000
0001
0000
,  // measure 39
0000
0001
0010
1000
0000
1000
0100
0010
,  // measure 40
0000
0000
0100
0010
0100
0000
0010
0000
0100
0000
0001
0000
1000
0000
0100
2000
,  // measure 41
0000
0000
0010
0000
0200
0300
0002
0003
,  // measure 42
3010
0000
1000
0010
0000
0100
0001
0000
0001
0100
0000
0010
1000
0000
0100
1000
,  // measure 43
0100
0000
0100
1000
0000
0010
1000
0000
0010
0100
0000
0001
0010
0000
0001
1000
,  // measure 44
0100
0000
0010
0001
0000
1000
0100
0000
0010
0001
0000
1000
0100
0000
0010
0001
,  // measure 45
0100
0000
0010
1000
0000
0001
0100
0000
0010
1000
0000
0001
0100
0000
0010
1000
,  // measure 46
0100
0000
0010
0100
0000
0100
0010
0000
1000
0100
0000
0100
1000
0000
0001
0100
,  // measure 47
0010
0000
1000
0010
0000
0010
0100
0000
0010
0100
0000
0100
0001
0000
1000
0100
,  // measure 48
0010
0000
0001
0100
0000
0100
0010
0000
0010
1000
0000
1000
0100
0000
0100
0010
,  // measure 49
0001
0000
0010
0001
0000
0001
0010
0000
1000
0100
0000
0100
1000
0000
0001
2000
,  // measure 50
0002
3003
0000
0000
0000
0000
0000
0000
;
